osu file format v14

[General]
AudioFilename: 1.8x.ogg
AudioLeadIn: 0
PreviewTime: -1
Countdown: 1
SampleSet: Soft
StackLeniency: 0.7
Mode: 3
LetterboxInBreaks: 0
SpecialStyle: 0
WidescreenStoryboard: 0

[Editor]
DistanceSpacing: 1
BeatDivisor: 8
GridSize: 4
TimelineZoom: 1.2

[Metadata]
Title:Northern Lights [1.0x-2.0x Stream Practice]
TitleUnicode:Northern Lights [1.0x-2.0x Stream Practice]
Artist:Megumi Hayashibara
ArtistUnicode:Megumi Hayashibara
Creator:OneRing
Version:Speed 1.8x [Stream Practice]
Source:Shaman King op 2
Tags:shaman king
BeatmapID:1372366
BeatmapSetID:647230

[Difficulty]
HPDrainRate:5
CircleSize:4
OverallDifficulty:5
ApproachRate:5
SliderMultiplier:1.4
SliderTickRate:1

[Events]
//Background and Video events
0,0,"big-4590532416.jpg",0,0
//Break Periods
//Storyboard Layer 0 (Background)
//Storyboard Layer 1 (Fail)
//Storyboard Layer 2 (Pass)
//Storyboard Layer 3 (Foreground)
//Storyboard Sound Samples

[TimingPoints]
192,246.822164630384,4,2,1,20,1,332

[HitObjects]
192,192,192,1,0,0:0:0:0:
64,192,192,128,0,377:0:0:0:0:
448,192,377,128,0,562:0:0:0:0:
320,192,377,1,0,0:0:0:0:
320,192,562,128,0,685:0:0:0:0:
64,192,562,1,0,0:0:0:0:
448,192,685,128,0,870:0:0:0:0:
192,192,685,1,0,0:0:0:0:
64,192,870,128,0,1055:0:0:0:0:
192,192,870,1,0,0:0:0:0:
192,192,1055,128,0,1179:0:0:0:0:
448,192,1055,1,0,0:0:0:0:
320,192,1179,128,0,1364:0:0:0:0:
64,192,1179,1,0,0:0:0:0:
64,192,1364,128,0,1549:0:0:0:0:
192,192,1364,1,0,0:0:0:0:
192,192,1549,128,0,2166:0:0:0:0:
320,192,1549,1,0,0:0:0:0:
448,192,1549,1,0,0:0:0:0:
320,192,1796,1,0,0:0:0:0:
448,192,1858,1,0,0:0:0:0:
320,192,1919,1,0,0:0:0:0:
448,192,1981,1,0,0:0:0:0:
64,192,2043,1,0,0:0:0:0:
320,192,2104,1,0,0:0:0:0:
64,192,2166,1,0,0:0:0:0:
448,192,2166,1,0,0:0:0:0:
192,192,2228,1,0,0:0:0:0:
64,192,2289,1,0,0:0:0:0:
192,192,2351,1,0,0:0:0:0:
448,192,2413,1,0,0:0:0:0:
64,192,2413,1,0,0:0:0:0:
320,192,2475,1,0,0:0:0:0:
192,192,2536,1,0,0:0:0:0:
64,192,2536,1,0,0:0:0:0:
448,192,2598,1,0,0:0:0:0:
320,192,2660,1,0,0:0:0:0:
64,192,2660,1,0,0:0:0:0:
192,192,2721,1,0,0:0:0:0:
320,192,2783,1,0,0:0:0:0:
448,192,2783,1,0,0:0:0:0:
192,192,2845,1,0,0:0:0:0:
64,192,2907,1,0,0:0:0:0:
320,192,2907,1,0,0:0:0:0:
448,192,2968,1,0,0:0:0:0:
320,192,3030,1,0,0:0:0:0:
192,192,3030,1,0,0:0:0:0:
64,192,3092,1,0,0:0:0:0:
192,192,3153,1,0,0:0:0:0:
448,192,3153,1,0,0:0:0:0:
320,192,3153,1,0,0:0:0:0:
64,192,3215,1,0,0:0:0:0:
192,192,3277,1,0,0:0:0:0:
64,192,3338,1,0,0:0:0:0:
192,192,3400,1,0,0:0:0:0:
448,192,3400,1,0,0:0:0:0:
320,192,3462,1,0,0:0:0:0:
192,192,3524,1,0,0:0:0:0:
64,192,3524,1,0,0:0:0:0:
448,192,3585,1,0,0:0:0:0:
320,192,3647,1,0,0:0:0:0:
64,192,3647,1,0,0:0:0:0:
192,192,3709,1,0,0:0:0:0:
320,192,3770,1,0,0:0:0:0:
448,192,3770,1,0,0:0:0:0:
192,192,3832,1,0,0:0:0:0:
320,192,3894,1,0,0:0:0:0:
448,192,3894,1,0,0:0:0:0:
192,192,3956,1,0,0:0:0:0:
64,192,4017,1,0,0:0:0:0:
320,192,4017,1,0,0:0:0:0:
448,192,4079,1,0,0:0:0:0:
192,192,4141,1,0,0:0:0:0:
64,192,4141,1,0,0:0:0:0:
320,192,4141,1,0,0:0:0:0:
448,192,4202,1,0,0:0:0:0:
320,192,4264,1,0,0:0:0:0:
192,192,4326,1,0,0:0:0:0:
64,192,4387,1,0,0:0:0:0:
448,192,4387,1,0,0:0:0:0:
320,192,4449,1,0,0:0:0:0:
192,192,4511,1,0,0:0:0:0:
448,192,4511,1,0,0:0:0:0:
64,192,4573,1,0,0:0:0:0:
320,192,4634,1,0,0:0:0:0:
448,192,4634,1,0,0:0:0:0:
192,192,4634,1,0,0:0:0:0:
64,192,4696,1,0,0:0:0:0:
192,192,4758,1,0,0:0:0:0:
320,192,4819,1,0,0:0:0:0:
64,192,4881,1,0,0:0:0:0:
448,192,4881,1,0,0:0:0:0:
192,192,4943,1,0,0:0:0:0:
64,192,5005,1,0,0:0:0:0:
320,192,5005,1,0,0:0:0:0:
448,192,5066,1,0,0:0:0:0:
320,192,5128,1,0,0:0:0:0:
64,192,5128,1,0,0:0:0:0:
192,192,5128,1,0,0:0:0:0:
448,192,5190,1,0,0:0:0:0:
192,192,5251,1,0,0:0:0:0:
320,192,5251,1,0,0:0:0:0:
448,192,5313,1,0,0:0:0:0:
64,192,5313,1,0,0:0:0:0:
320,192,5375,1,0,0:0:0:0:
64,192,5436,1,0,0:0:0:0:
192,192,5498,1,0,0:0:0:0:
448,192,5498,1,0,0:0:0:0:
320,192,5560,1,0,0:0:0:0:
192,192,5622,1,0,0:0:0:0:
64,192,5622,1,0,0:0:0:0:
320,192,5683,1,0,0:0:0:0:
448,192,5683,1,0,0:0:0:0:
192,192,5745,1,0,0:0:0:0:
64,192,5745,1,0,0:0:0:0:
320,192,5807,1,0,0:0:0:0:
448,192,5807,1,0,0:0:0:0:
64,192,5868,1,0,0:0:0:0:
192,192,5899,1,0,0:0:0:0:
448,192,5930,1,0,0:0:0:0:
320,192,5961,1,0,0:0:0:0:
64,192,5992,1,0,0:0:0:0:
192,192,6023,1,0,0:0:0:0:
448,192,6054,1,0,0:0:0:0:
320,192,6084,1,0,0:0:0:0:
64,192,6115,1,0,0:0:0:0:
192,192,6115,1,0,0:0:0:0:
320,192,6177,1,0,0:0:0:0:
64,192,6239,1,0,0:0:0:0:
448,192,6239,1,0,0:0:0:0:
192,192,6300,1,0,0:0:0:0:
320,192,6362,1,0,0:0:0:0:
448,192,6362,1,0,0:0:0:0:
192,192,6424,1,0,0:0:0:0:
64,192,6485,1,0,0:0:0:0:
320,192,6485,1,0,0:0:0:0:
448,192,6547,1,0,0:0:0:0:
192,192,6609,1,0,0:0:0:0:
64,192,6609,1,0,0:0:0:0:
320,192,6671,1,0,0:0:0:0:
192,192,6732,1,0,0:0:0:0:
64,192,6732,1,0,0:0:0:0:
320,192,6794,1,0,0:0:0:0:
448,192,6794,1,0,0:0:0:0:
192,192,6856,1,0,0:0:0:0:
320,192,6917,1,0,0:0:0:0:
64,192,6917,1,0,0:0:0:0:
192,192,6979,1,0,0:0:0:0:
448,192,6979,1,0,0:0:0:0:
320,192,7041,1,0,0:0:0:0:
192,192,7103,1,0,0:0:0:0:
64,192,7103,1,0,0:0:0:0:
448,192,7103,1,0,0:0:0:0:
320,192,7164,1,0,0:0:0:0:
192,192,7226,1,0,0:0:0:0:
64,192,7226,1,0,0:0:0:0:
320,192,7288,1,0,0:0:0:0:
448,192,7288,1,0,0:0:0:0:
192,192,7349,1,0,0:0:0:0:
320,192,7411,1,0,0:0:0:0:
448,192,7411,1,0,0:0:0:0:
192,192,7473,1,0,0:0:0:0:
64,192,7473,1,0,0:0:0:0:
320,192,7534,1,0,0:0:0:0:
192,192,7596,1,0,0:0:0:0:
448,192,7596,1,0,0:0:0:0:
64,192,7658,1,0,0:0:0:0:
192,192,7720,1,0,0:0:0:0:
320,192,7781,1,0,0:0:0:0:
448,192,7843,1,0,0:0:0:0:
192,192,7843,1,0,0:0:0:0:
64,192,7905,1,0,0:0:0:0:
192,192,7966,1,0,0:0:0:0:
320,192,8028,1,0,0:0:0:0:
192,192,8090,1,0,0:0:0:0:
64,192,8090,1,0,0:0:0:0:
448,192,8090,1,0,0:0:0:0:
320,192,8152,1,0,0:0:0:0:
192,192,8213,1,0,0:0:0:0:
64,192,8213,1,0,0:0:0:0:
320,192,8275,1,0,0:0:0:0:
448,192,8337,1,0,0:0:0:0:
64,192,8337,1,0,0:0:0:0:
192,192,8398,1,0,0:0:0:0:
64,192,8460,1,0,0:0:0:0:
320,192,8460,1,0,0:0:0:0:
448,192,8522,1,0,0:0:0:0:
320,192,8583,1,0,0:0:0:0:
192,192,8583,1,0,0:0:0:0:
64,192,8645,1,0,0:0:0:0:
448,192,8707,1,0,0:0:0:0:
320,192,8707,1,0,0:0:0:0:
192,192,8769,1,0,0:0:0:0:
64,192,8769,1,0,0:0:0:0:
320,192,8830,1,0,0:0:0:0:
192,192,8892,1,0,0:0:0:0:
448,192,8892,1,0,0:0:0:0:
320,192,8954,1,0,0:0:0:0:
64,192,8954,1,0,0:0:0:0:
192,192,9015,1,0,0:0:0:0:
320,192,9077,1,0,0:0:0:0:
448,192,9077,1,0,0:0:0:0:
64,192,9077,1,0,0:0:0:0:
192,192,9139,1,0,0:0:0:0:
64,192,9201,1,0,0:0:0:0:
320,192,9201,1,0,0:0:0:0:
192,192,9262,1,0,0:0:0:0:
448,192,9262,1,0,0:0:0:0:
64,192,9324,1,0,0:0:0:0:
320,192,9386,1,0,0:0:0:0:
448,192,9386,1,0,0:0:0:0:
192,192,9447,1,0,0:0:0:0:
64,192,9447,1,0,0:0:0:0:
320,192,9509,1,0,0:0:0:0:
192,192,9571,1,0,0:0:0:0:
448,192,9571,1,0,0:0:0:0:
64,192,9632,1,0,0:0:0:0:
320,192,9694,1,0,0:0:0:0:
448,192,9694,1,0,0:0:0:0:
192,192,9756,1,0,0:0:0:0:
64,192,9818,1,0,0:0:0:0:
320,192,9818,1,0,0:0:0:0:
448,192,9879,1,0,0:0:0:0:
320,192,9941,1,0,0:0:0:0:
64,192,9941,1,0,0:0:0:0:
192,192,10003,1,0,0:0:0:0:
320,192,10064,1,0,0:0:0:0:
448,192,10064,1,0,0:0:0:0:
64,192,10064,1,0,0:0:0:0:
192,192,10126,1,0,0:0:0:0:
64,192,10188,1,0,0:0:0:0:
320,192,10188,1,0,0:0:0:0:
448,192,10250,1,0,0:0:0:0:
320,192,10311,1,0,0:0:0:0:
192,192,10311,1,0,0:0:0:0:
64,192,10373,1,0,0:0:0:0:
192,192,10435,1,0,0:0:0:0:
448,192,10435,1,0,0:0:0:0:
320,192,10496,1,0,0:0:0:0:
192,192,10558,1,0,0:0:0:0:
64,192,10558,1,0,0:0:0:0:
320,192,10620,1,0,0:0:0:0:
192,192,10681,1,0,0:0:0:0:
448,192,10681,1,0,0:0:0:0:
320,192,10743,1,0,0:0:0:0:
64,192,10743,1,0,0:0:0:0:
192,192,10805,1,0,0:0:0:0:
320,192,10867,1,0,0:0:0:0:
448,192,10928,1,0,0:0:0:0:
192,192,10928,1,0,0:0:0:0:
64,192,10990,1,0,0:0:0:0:
320,192,11052,1,0,0:0:0:0:
448,192,11052,1,0,0:0:0:0:
192,192,11052,1,0,0:0:0:0:
64,192,11113,1,0,0:0:0:0:
320,192,11175,1,0,0:0:0:0:
448,192,11175,1,0,0:0:0:0:
192,192,11237,1,0,0:0:0:0:
64,192,11237,1,0,0:0:0:0:
320,192,11298,1,0,0:0:0:0:
192,192,11360,1,0,0:0:0:0:
448,192,11360,1,0,0:0:0:0:
320,192,11422,1,0,0:0:0:0:
64,192,11422,1,0,0:0:0:0:
448,192,11484,1,0,0:0:0:0:
192,192,11545,1,0,0:0:0:0:
64,192,11545,1,0,0:0:0:0:
320,192,11607,1,0,0:0:0:0:
192,192,11669,1,0,0:0:0:0:
64,192,11730,1,0,0:0:0:0:
192,192,11792,1,0,0:0:0:0:
448,192,11792,1,0,0:0:0:0:
320,192,11854,1,0,0:0:0:0:
192,192,11916,1,0,0:0:0:0:
320,192,11977,1,0,0:0:0:0:
192,192,12039,1,0,0:0:0:0:
64,192,12039,1,0,0:0:0:0:
448,192,12039,1,0,0:0:0:0:
320,192,12101,1,0,0:0:0:0:
64,192,12162,1,0,0:0:0:0:
192,192,12162,1,0,0:0:0:0:
448,192,12224,1,0,0:0:0:0:
320,192,12286,1,0,0:0:0:0:
64,192,12286,1,0,0:0:0:0:
192,192,12347,1,0,0:0:0:0:
320,192,12409,1,0,0:0:0:0:
448,192,12409,1,0,0:0:0:0:
64,192,12471,1,0,0:0:0:0:
192,192,12533,1,0,0:0:0:0:
448,192,12533,1,0,0:0:0:0:
320,192,12594,1,0,0:0:0:0:
192,192,12656,1,0,0:0:0:0:
64,192,12656,1,0,0:0:0:0:
320,192,12718,1,0,0:0:0:0:
448,192,12718,1,0,0:0:0:0:
192,192,12779,1,0,0:0:0:0:
320,192,12841,1,0,0:0:0:0:
448,192,12841,1,0,0:0:0:0:
192,192,12903,1,0,0:0:0:0:
64,192,12903,1,0,0:0:0:0:
320,192,12965,1,0,0:0:0:0:
192,192,13026,1,0,0:0:0:0:
448,192,13026,1,0,0:0:0:0:
64,192,13026,1,0,0:0:0:0:
320,192,13088,1,0,0:0:0:0:
448,192,13150,1,0,0:0:0:0:
64,192,13150,1,0,0:0:0:0:
192,192,13211,1,0,0:0:0:0:
64,192,13273,1,0,0:0:0:0:
320,192,13273,1,0,0:0:0:0:
448,192,13335,1,0,0:0:0:0:
192,192,13396,1,0,0:0:0:0:
64,192,13396,1,0,0:0:0:0:
320,192,13458,1,0,0:0:0:0:
192,192,13520,1,0,0:0:0:0:
448,192,13520,1,0,0:0:0:0:
64,192,13582,1,0,0:0:0:0:
320,192,13643,1,0,0:0:0:0:
448,192,13643,1,0,0:0:0:0:
192,192,13705,1,0,0:0:0:0:
64,192,13705,1,0,0:0:0:0:
320,192,13767,1,0,0:0:0:0:
192,192,13828,1,0,0:0:0:0:
448,192,13828,1,0,0:0:0:0:
320,192,13890,1,0,0:0:0:0:
64,192,13890,1,0,0:0:0:0:
448,192,13952,1,0,0:0:0:0:
320,192,14014,1,0,0:0:0:0:
64,192,14014,1,0,0:0:0:0:
192,192,14014,128,0,14260:0:0:0:0:
448,192,14075,1,0,0:0:0:0:
320,192,14137,1,0,0:0:0:0:
64,192,14199,1,0,0:0:0:0:
448,192,14260,128,0,14507:0:0:0:0:
320,192,14260,1,0,0:0:0:0:
64,192,14322,1,0,0:0:0:0:
192,192,14384,1,0,0:0:0:0:
320,192,14445,1,0,0:0:0:0:
192,192,14507,128,0,14754:0:0:0:0:
64,192,14507,1,0,0:0:0:0:
320,192,14569,1,0,0:0:0:0:
448,192,14631,1,0,0:0:0:0:
320,192,14692,1,0,0:0:0:0:
448,192,14754,128,0,15001:0:0:0:0:
64,192,14754,1,0,0:0:0:0:
192,192,14816,1,0,0:0:0:0:
320,192,14877,1,0,0:0:0:0:
192,192,14939,1,0,0:0:0:0:
64,192,15001,128,0,15186:0:0:0:0:
320,192,15001,1,0,0:0:0:0:
192,192,15063,1,0,0:0:0:0:
448,192,15124,1,0,0:0:0:0:
320,192,15186,128,0,15371:0:0:0:0:
192,192,15186,1,0,0:0:0:0:
64,192,15248,1,0,0:0:0:0:
192,192,15309,1,0,0:0:0:0:
448,192,15371,128,0,15741:0:0:0:0:
64,192,15371,1,0,0:0:0:0:
192,192,15433,1,0,0:0:0:0:
64,192,15494,1,0,0:0:0:0:
192,192,15556,1,0,0:0:0:0:
320,192,15618,1,0,0:0:0:0:
64,192,15680,1,0,0:0:0:0:
320,192,15741,1,0,0:0:0:0:
192,192,15803,1,0,0:0:0:0:
64,192,15865,1,0,0:0:0:0:
192,192,15926,1,0,0:0:0:0:
320,192,15988,1,0,0:0:0:0:
448,192,15988,128,0,16235:0:0:0:0:
192,192,16050,1,0,0:0:0:0:
64,192,16112,1,0,0:0:0:0:
320,192,16173,1,0,0:0:0:0:
192,192,16235,128,0,16482:0:0:0:0:
64,192,16235,1,0,0:0:0:0:
320,192,16297,1,0,0:0:0:0:
448,192,16358,1,0,0:0:0:0:
320,192,16420,1,0,0:0:0:0:
448,192,16482,128,0,16729:0:0:0:0:
64,192,16482,1,0,0:0:0:0:
192,192,16543,1,0,0:0:0:0:
320,192,16605,1,0,0:0:0:0:
64,192,16667,1,0,0:0:0:0:
192,192,16729,128,0,16975:0:0:0:0:
320,192,16729,1,0,0:0:0:0:
448,192,16790,1,0,0:0:0:0:
320,192,16852,1,0,0:0:0:0:
64,192,16914,1,0,0:0:0:0:
448,192,16975,128,0,17161:0:0:0:0:
320,192,16975,1,0,0:0:0:0:
192,192,17037,1,0,0:0:0:0:
64,192,17099,1,0,0:0:0:0:
192,192,17161,128,0,17346:0:0:0:0:
320,192,17161,1,0,0:0:0:0:
448,192,17222,1,0,0:0:0:0:
320,192,17284,1,0,0:0:0:0:
64,192,17346,128,0,17592:0:0:0:0:
448,192,17346,1,0,0:0:0:0:
320,192,17407,1,0,0:0:0:0:
192,192,17469,1,0,0:0:0:0:
448,192,17531,1,0,0:0:0:0:
192,192,17592,128,0,17716:0:0:0:0:
320,192,17592,1,0,0:0:0:0:
64,192,17654,1,0,0:0:0:0:
448,192,17716,128,0,17839:0:0:0:0:
320,192,17716,1,0,0:0:0:0:
192,192,17778,1,0,0:0:0:0:
64,192,17839,128,0,17963:0:0:0:0:
320,192,17839,1,0,0:0:0:0:
192,192,17901,1,0,0:0:0:0:
320,192,17963,128,0,18210:0:0:0:0:
448,192,17963,1,0,0:0:0:0:
192,192,18024,1,0,0:0:0:0:
64,192,18086,1,0,0:0:0:0:
192,192,18148,1,0,0:0:0:0:
64,192,18210,128,0,18456:0:0:0:0:
448,192,18210,1,0,0:0:0:0:
320,192,18271,1,0,0:0:0:0:
192,192,18333,1,0,0:0:0:0:
320,192,18395,1,0,0:0:0:0:
448,192,18456,128,0,18703:0:0:0:0:
192,192,18456,1,0,0:0:0:0:
64,192,18518,1,0,0:0:0:0:
192,192,18580,1,0,0:0:0:0:
320,192,18641,1,0,0:0:0:0:
192,192,18703,128,0,18950:0:0:0:0:
64,192,18703,1,0,0:0:0:0:
320,192,18765,1,0,0:0:0:0:
448,192,18827,1,0,0:0:0:0:
320,192,18888,1,0,0:0:0:0:
64,192,18950,128,0,19135:0:0:0:0:
448,192,18950,1,0,0:0:0:0:
320,192,19012,1,0,0:0:0:0:
192,192,19073,1,0,0:0:0:0:
448,192,19135,128,0,19320:0:0:0:0:
320,192,19135,1,0,0:0:0:0:
192,192,19197,1,0,0:0:0:0:
64,192,19259,1,0,0:0:0:0:
192,192,19320,128,0,19567:0:0:0:0:
320,192,19320,1,0,0:0:0:0:
64,192,19382,1,0,0:0:0:0:
448,192,19444,1,0,0:0:0:0:
320,192,19505,1,0,0:0:0:0:
64,192,19567,1,0,0:0:0:0:
448,192,19567,1,0,0:0:0:0:
320,192,19629,1,0,0:0:0:0:
192,192,19690,1,0,0:0:0:0:
64,192,19690,1,0,0:0:0:0:
320,192,19752,1,0,0:0:0:0:
192,192,19814,1,0,0:0:0:0:
448,192,19814,1,0,0:0:0:0:
64,192,19876,1,0,0:0:0:0:
320,192,19937,1,0,0:0:0:0:
448,192,19937,1,0,0:0:0:0:
192,192,19937,1,0,0:0:0:0:
64,192,19999,1,0,0:0:0:0:
192,192,20061,1,0,0:0:0:0:
320,192,20061,1,0,0:0:0:0:
448,192,20122,1,0,0:0:0:0:
192,192,20184,1,0,0:0:0:0:
64,192,20184,1,0,0:0:0:0:
320,192,20246,1,0,0:0:0:0:
192,192,20308,1,0,0:0:0:0:
448,192,20308,1,0,0:0:0:0:
64,192,20369,1,0,0:0:0:0:
320,192,20431,1,0,0:0:0:0:
448,192,20431,1,0,0:0:0:0:
192,192,20493,1,0,0:0:0:0:
320,192,20554,1,0,0:0:0:0:
64,192,20554,1,0,0:0:0:0:
448,192,20616,1,0,0:0:0:0:
192,192,20678,1,0,0:0:0:0:
64,192,20678,1,0,0:0:0:0:
320,192,20739,1,0,0:0:0:0:
192,192,20801,1,0,0:0:0:0:
64,192,20801,1,0,0:0:0:0:
448,192,20863,1,0,0:0:0:0:
320,192,20925,1,0,0:0:0:0:
192,192,20925,1,0,0:0:0:0:
64,192,20925,1,0,0:0:0:0:
448,192,20986,1,0,0:0:0:0:
320,192,21048,1,0,0:0:0:0:
64,192,21048,1,0,0:0:0:0:
192,192,21110,1,0,0:0:0:0:
320,192,21171,1,0,0:0:0:0:
448,192,21171,1,0,0:0:0:0:
192,192,21233,1,0,0:0:0:0:
64,192,21295,1,0,0:0:0:0:
320,192,21295,1,0,0:0:0:0:
448,192,21357,1,0,0:0:0:0:
192,192,21418,1,0,0:0:0:0:
64,192,21418,1,0,0:0:0:0:
320,192,21480,1,0,0:0:0:0:
192,192,21542,1,0,0:0:0:0:
64,192,21542,1,0,0:0:0:0:
448,192,21603,1,0,0:0:0:0:
320,192,21665,1,0,0:0:0:0:
64,192,21665,1,0,0:0:0:0:
448,192,21727,1,0,0:0:0:0:
320,192,21788,1,0,0:0:0:0:
64,192,21788,1,0,0:0:0:0:
192,192,21850,1,0,0:0:0:0:
64,192,21912,1,0,0:0:0:0:
320,192,21912,1,0,0:0:0:0:
448,192,21912,1,0,0:0:0:0:
320,192,22035,1,0,0:0:0:0:
192,192,22035,1,0,0:0:0:0:
192,192,22097,1,0,0:0:0:0:
64,192,22097,1,0,0:0:0:0:
448,192,22097,1,0,0:0:0:0:
320,192,22282,1,0,0:0:0:0:
64,192,22282,1,0,0:0:0:0:
448,192,22282,128,0,22529:0:0:0:0:
192,192,22282,1,0,0:0:0:0:
192,192,22405,1,0,0:0:0:0:
64,192,22405,1,0,0:0:0:0:
64,192,22529,128,0,22652:0:0:0:0:
320,192,22529,1,0,0:0:0:0:
192,192,22591,1,0,0:0:0:0:
448,192,22652,128,0,22776:0:0:0:0:
320,192,22652,1,0,0:0:0:0:
192,192,22714,1,0,0:0:0:0:
64,192,22776,128,0,22899:0:0:0:0:
320,192,22776,1,0,0:0:0:0:
192,192,22837,1,0,0:0:0:0:
320,192,22899,1,0,0:0:0:0:
448,192,22899,1,0,0:0:0:0:
192,192,22961,1,0,0:0:0:0:
64,192,23023,1,0,0:0:0:0:
320,192,23023,1,0,0:0:0:0:
192,192,23084,1,0,0:0:0:0:
448,192,23084,1,0,0:0:0:0:
64,192,23146,1,0,0:0:0:0:
192,192,23208,1,0,0:0:0:0:
320,192,23269,1,0,0:0:0:0:
448,192,23269,1,0,0:0:0:0:
192,192,23331,1,0,0:0:0:0:
64,192,23393,1,0,0:0:0:0:
320,192,23393,1,0,0:0:0:0:
192,192,23454,1,0,0:0:0:0:
448,192,23454,1,0,0:0:0:0:
64,192,23516,1,0,0:0:0:0:
192,192,23578,1,0,0:0:0:0:
320,192,23640,1,0,0:0:0:0:
448,192,23640,1,0,0:0:0:0:
192,192,23701,1,0,0:0:0:0:
64,192,23763,1,0,0:0:0:0:
320,192,23763,1,0,0:0:0:0:
448,192,23825,1,0,0:0:0:0:
192,192,23886,1,0,0:0:0:0:
320,192,23886,1,0,0:0:0:0:
64,192,23886,128,0,24133:0:0:0:0:
448,192,23948,1,0,0:0:0:0:
192,192,24010,1,0,0:0:0:0:
320,192,24010,1,0,0:0:0:0:
448,192,24072,1,0,0:0:0:0:
320,192,24133,1,0,0:0:0:0:
192,192,24133,1,0,0:0:0:0:
448,192,24195,1,0,0:0:0:0:
64,192,24195,1,0,0:0:0:0:
192,192,24257,1,0,0:0:0:0:
320,192,24318,1,0,0:0:0:0:
192,192,24380,1,0,0:0:0:0:
64,192,24380,1,0,0:0:0:0:
448,192,24442,1,0,0:0:0:0:
64,192,24503,1,0,0:0:0:0:
192,192,24503,1,0,0:0:0:0:
320,192,24565,1,0,0:0:0:0:
192,192,24627,1,0,0:0:0:0:
64,192,24627,1,0,0:0:0:0:
320,192,24689,1,0,0:0:0:0:
448,192,24689,1,0,0:0:0:0:
192,192,24750,1,0,0:0:0:0:
320,192,24812,1,0,0:0:0:0:
192,192,24874,1,0,0:0:0:0:
64,192,24874,1,0,0:0:0:0:
448,192,24874,1,0,0:0:0:0:
320,192,24935,1,0,0:0:0:0:
64,192,24997,1,0,0:0:0:0:
448,192,24997,1,0,0:0:0:0:
192,192,25059,1,0,0:0:0:0:
320,192,25121,1,0,0:0:0:0:
448,192,25121,1,0,0:0:0:0:
192,192,25182,1,0,0:0:0:0:
64,192,25244,1,0,0:0:0:0:
448,192,25244,1,0,0:0:0:0:
320,192,25306,1,0,0:0:0:0:
192,192,25367,1,0,0:0:0:0:
64,192,25367,1,0,0:0:0:0:
320,192,25429,1,0,0:0:0:0:
192,192,25491,1,0,0:0:0:0:
448,192,25491,1,0,0:0:0:0:
64,192,25552,1,0,0:0:0:0:
320,192,25614,1,0,0:0:0:0:
448,192,25614,1,0,0:0:0:0:
192,192,25676,1,0,0:0:0:0:
320,192,25738,1,0,0:0:0:0:
448,192,25738,1,0,0:0:0:0:
64,192,25799,1,0,0:0:0:0:
192,192,25861,1,0,0:0:0:0:
320,192,25861,1,0,0:0:0:0:
448,192,25861,1,0,0:0:0:0:
64,192,25923,1,0,0:0:0:0:
192,192,25984,1,0,0:0:0:0:
448,192,25984,1,0,0:0:0:0:
64,192,26046,1,0,0:0:0:0:
320,192,26108,1,0,0:0:0:0:
448,192,26108,1,0,0:0:0:0:
192,192,26170,1,0,0:0:0:0:
64,192,26231,1,0,0:0:0:0:
320,192,26231,1,0,0:0:0:0:
448,192,26293,1,0,0:0:0:0:
192,192,26355,1,0,0:0:0:0:
64,192,26355,1,0,0:0:0:0:
320,192,26416,1,0,0:0:0:0:
192,192,26478,1,0,0:0:0:0:
448,192,26478,1,0,0:0:0:0:
64,192,26540,1,0,0:0:0:0:
320,192,26601,1,0,0:0:0:0:
448,192,26601,1,0,0:0:0:0:
192,192,26663,1,0,0:0:0:0:
64,192,26725,1,0,0:0:0:0:
320,192,26725,1,0,0:0:0:0:
448,192,26787,1,0,0:0:0:0:
192,192,26848,1,0,0:0:0:0:
64,192,26848,1,0,0:0:0:0:
320,192,26848,1,0,0:0:0:0:
448,192,26910,1,0,0:0:0:0:
192,192,26972,1,0,0:0:0:0:
320,192,26972,1,0,0:0:0:0:
448,192,27033,1,0,0:0:0:0:
64,192,27033,1,0,0:0:0:0:
320,192,27095,1,0,0:0:0:0:
192,192,27157,1,0,0:0:0:0:
64,192,27157,1,0,0:0:0:0:
320,192,27219,1,0,0:0:0:0:
192,192,27280,1,0,0:0:0:0:
64,192,27342,1,0,0:0:0:0:
320,192,27342,1,0,0:0:0:0:
192,192,27404,1,0,0:0:0:0:
448,192,27404,1,0,0:0:0:0:
64,192,27465,1,0,0:0:0:0:
192,192,27527,1,0,0:0:0:0:
320,192,27589,1,0,0:0:0:0:
448,192,27589,1,0,0:0:0:0:
64,192,27650,1,0,0:0:0:0:
320,192,27712,1,0,0:0:0:0:
448,192,27712,1,0,0:0:0:0:
192,192,27774,1,0,0:0:0:0:
64,192,27836,1,0,0:0:0:0:
320,192,27836,1,0,0:0:0:0:
448,192,27836,128,0,28082:0:0:0:0:
192,192,27897,1,0,0:0:0:0:
64,192,27959,1,0,0:0:0:0:
320,192,27959,1,0,0:0:0:0:
192,192,28021,1,0,0:0:0:0:
64,192,28082,1,0,0:0:0:0:
320,192,28082,1,0,0:0:0:0:
192,192,28144,1,0,0:0:0:0:
448,192,28144,1,0,0:0:0:0:
64,192,28206,1,0,0:0:0:0:
192,192,28268,1,0,0:0:0:0:
320,192,28329,1,0,0:0:0:0:
448,192,28329,1,0,0:0:0:0:
192,192,28391,1,0,0:0:0:0:
64,192,28453,1,0,0:0:0:0:
320,192,28453,1,0,0:0:0:0:
448,192,28514,1,0,0:0:0:0:
192,192,28576,1,0,0:0:0:0:
64,192,28576,1,0,0:0:0:0:
448,192,28638,1,0,0:0:0:0:
320,192,28638,1,0,0:0:0:0:
192,192,28699,1,0,0:0:0:0:
320,192,28761,1,0,0:0:0:0:
192,192,28823,1,0,0:0:0:0:
64,192,28823,1,0,0:0:0:0:
448,192,28823,1,0,0:0:0:0:
320,192,28885,1,0,0:0:0:0:
64,192,28946,1,0,0:0:0:0:
448,192,28946,1,0,0:0:0:0:
192,192,29008,1,0,0:0:0:0:
320,192,29070,1,0,0:0:0:0:
448,192,29070,1,0,0:0:0:0:
192,192,29131,1,0,0:0:0:0:
320,192,29193,1,0,0:0:0:0:
448,192,29193,1,0,0:0:0:0:
64,192,29255,1,0,0:0:0:0:
192,192,29317,1,0,0:0:0:0:
320,192,29317,1,0,0:0:0:0:
448,192,29378,1,0,0:0:0:0:
64,192,29440,1,0,0:0:0:0:
320,192,29440,1,0,0:0:0:0:
192,192,29502,1,0,0:0:0:0:
320,192,29563,1,0,0:0:0:0:
448,192,29563,1,0,0:0:0:0:
64,192,29625,1,0,0:0:0:0:
192,192,29687,1,0,0:0:0:0:
448,192,29687,1,0,0:0:0:0:
64,192,29748,1,0,0:0:0:0:
320,192,29810,1,0,0:0:0:0:
448,192,29810,1,0,0:0:0:0:
192,192,29810,1,0,0:0:0:0:
64,192,29872,1,0,0:0:0:0:
192,192,29934,1,0,0:0:0:0:
448,192,29934,1,0,0:0:0:0:
320,192,29995,1,0,0:0:0:0:
192,192,30057,1,0,0:0:0:0:
64,192,30057,1,0,0:0:0:0:
448,192,30119,1,0,0:0:0:0:
320,192,30180,1,0,0:0:0:0:
64,192,30180,1,0,0:0:0:0:
192,192,30242,1,0,0:0:0:0:
320,192,30304,1,0,0:0:0:0:
448,192,30304,1,0,0:0:0:0:
64,192,30366,1,0,0:0:0:0:
192,192,30427,1,0,0:0:0:0:
320,192,30427,1,0,0:0:0:0:
448,192,30489,1,0,0:0:0:0:
64,192,30551,1,0,0:0:0:0:
320,192,30551,1,0,0:0:0:0:
192,192,30612,1,0,0:0:0:0:
320,192,30674,1,0,0:0:0:0:
448,192,30674,1,0,0:0:0:0:
192,192,30736,1,0,0:0:0:0:
64,192,30736,1,0,0:0:0:0:
448,192,30797,1,0,0:0:0:0:
320,192,30797,128,0,31291:0:0:0:0:
192,192,30859,1,0,0:0:0:0:
64,192,30921,1,0,0:0:0:0:
448,192,30983,1,0,0:0:0:0:
64,192,31044,1,0,0:0:0:0:
192,192,31106,1,0,0:0:0:0:
448,192,31168,1,0,0:0:0:0:
64,192,31229,1,0,0:0:0:0:
448,192,31291,1,0,0:0:0:0:
192,192,31291,1,0,0:0:0:0:
64,192,31353,1,0,0:0:0:0:
320,192,31415,1,0,0:0:0:0:
448,192,31415,1,0,0:0:0:0:
192,192,31476,1,0,0:0:0:0:
64,192,31538,1,0,0:0:0:0:
320,192,31538,1,0,0:0:0:0:
448,192,31600,1,0,0:0:0:0:
192,192,31661,1,0,0:0:0:0:
64,192,31661,1,0,0:0:0:0:
320,192,31723,1,0,0:0:0:0:
448,192,31723,1,0,0:0:0:0:
64,192,31785,1,0,0:0:0:0:
192,192,31785,128,0,32278:0:0:0:0:
320,192,31846,1,0,0:0:0:0:
448,192,31908,1,0,0:0:0:0:
64,192,31970,1,0,0:0:0:0:
448,192,32032,1,0,0:0:0:0:
320,192,32093,1,0,0:0:0:0:
64,192,32155,1,0,0:0:0:0:
448,192,32217,1,0,0:0:0:0:
64,192,32278,1,0,0:0:0:0:
320,192,32278,128,0,32772:0:0:0:0:
192,192,32340,1,0,0:0:0:0:
448,192,32402,1,0,0:0:0:0:
64,192,32463,1,0,0:0:0:0:
192,192,32525,1,0,0:0:0:0:
448,192,32587,1,0,0:0:0:0:
192,192,32649,1,0,0:0:0:0:
64,192,32710,1,0,0:0:0:0:
192,192,32772,1,0,0:0:0:0:
448,192,32772,1,0,0:0:0:0:
64,192,32834,1,0,0:0:0:0:
192,192,32895,1,0,0:0:0:0:
320,192,32957,1,0,0:0:0:0:
448,192,32957,1,0,0:0:0:0:
64,192,32957,1,0,0:0:0:0:
192,192,33019,1,0,0:0:0:0:
320,192,33081,1,0,0:0:0:0:
192,192,33142,1,0,0:0:0:0:
64,192,33142,1,0,0:0:0:0:
448,192,33142,1,0,0:0:0:0:
320,192,33204,1,0,0:0:0:0:
192,192,33266,1,0,0:0:0:0:
448,192,33266,1,0,0:0:0:0:
64,192,33266,1,0,0:0:0:0:
320,192,33327,1,0,0:0:0:0:
192,192,33389,1,0,0:0:0:0:
320,192,33451,1,0,0:0:0:0:
448,192,33451,1,0,0:0:0:0:
64,192,33451,1,0,0:0:0:0:
192,192,33512,1,0,0:0:0:0:
64,192,33574,1,0,0:0:0:0:
320,192,33636,1,0,0:0:0:0:
448,192,33636,1,0,0:0:0:0:
192,192,33636,1,0,0:0:0:0:
64,192,33698,1,0,0:0:0:0:
320,192,33759,1,0,0:0:0:0:
448,192,33759,1,0,0:0:0:0:
192,192,33759,1,0,0:0:0:0:
64,192,33821,1,0,0:0:0:0:
320,192,33883,1,0,0:0:0:0:
192,192,33944,1,0,0:0:0:0:
64,192,33944,1,0,0:0:0:0:
320,192,34006,1,0,0:0:0:0:
192,192,34068,1,0,0:0:0:0:
320,192,34130,1,0,0:0:0:0:
448,192,34130,1,0,0:0:0:0:
64,192,34130,128,0,34747:0:0:0:0:
192,192,34191,1,0,0:0:0:0:
448,192,34253,1,0,0:0:0:0:
192,192,34315,1,0,0:0:0:0:
320,192,34376,1,0,0:0:0:0:
192,192,34438,1,0,0:0:0:0:
448,192,34500,1,0,0:0:0:0:
192,192,34561,1,0,0:0:0:0:
320,192,34623,1,0,0:0:0:0:
448,192,34685,1,0,0:0:0:0:
320,192,34747,1,0,0:0:0:0:
192,192,34747,1,0,0:0:0:0:
448,192,34808,1,0,0:0:0:0:
320,192,34870,1,0,0:0:0:0:
192,192,34932,1,0,0:0:0:0:
64,192,34993,1,0,0:0:0:0:
320,192,34993,1,0,0:0:0:0:
448,192,35055,1,0,0:0:0:0:
64,192,35117,1,0,0:0:0:0:
192,192,35179,1,0,0:0:0:0:
320,192,35240,1,0,0:0:0:0:
448,192,35240,1,0,0:0:0:0:
192,192,35302,1,0,0:0:0:0:
64,192,35364,1,0,0:0:0:0:
320,192,35364,1,0,0:0:0:0:
448,192,35425,1,0,0:0:0:0:
320,192,35487,1,0,0:0:0:0:
192,192,35487,1,0,0:0:0:0:
64,192,35549,1,0,0:0:0:0:
320,192,35610,1,0,0:0:0:0:
448,192,35610,1,0,0:0:0:0:
192,192,35672,1,0,0:0:0:0:
64,192,35734,1,0,0:0:0:0:
320,192,35734,1,0,0:0:0:0:
448,192,35734,1,0,0:0:0:0:
192,192,35796,1,0,0:0:0:0:
320,192,35857,1,0,0:0:0:0:
448,192,35857,1,0,0:0:0:0:
64,192,35919,1,0,0:0:0:0:
192,192,35981,1,0,0:0:0:0:
320,192,35981,1,0,0:0:0:0:
64,192,36042,1,0,0:0:0:0:
448,192,36042,1,0,0:0:0:0:
320,192,36104,1,0,0:0:0:0:
192,192,36166,1,0,0:0:0:0:
64,192,36228,1,0,0:0:0:0:
320,192,36228,1,0,0:0:0:0:
448,192,36289,1,0,0:0:0:0:
320,192,36351,1,0,0:0:0:0:
64,192,36351,1,0,0:0:0:0:
192,192,36413,1,0,0:0:0:0:
320,192,36474,1,0,0:0:0:0:
448,192,36536,1,0,0:0:0:0:
320,192,36598,1,0,0:0:0:0:
192,192,36659,1,0,0:0:0:0:
320,192,36721,1,0,0:0:0:0:
64,192,36721,1,0,0:0:0:0:
448,192,36721,1,0,0:0:0:0:
192,192,36783,1,0,0:0:0:0:
320,192,36845,1,0,0:0:0:0:
448,192,36845,1,0,0:0:0:0:
64,192,36906,1,0,0:0:0:0:
320,192,36968,1,0,0:0:0:0:
448,192,36968,1,0,0:0:0:0:
192,192,37030,1,0,0:0:0:0:
320,192,37091,1,0,0:0:0:0:
448,192,37091,1,0,0:0:0:0:
64,192,37153,1,0,0:0:0:0:
192,192,37215,1,0,0:0:0:0:
320,192,37215,1,0,0:0:0:0:
448,192,37277,1,0,0:0:0:0:
192,192,37338,1,0,0:0:0:0:
64,192,37338,1,0,0:0:0:0:
320,192,37400,1,0,0:0:0:0:
192,192,37462,1,0,0:0:0:0:
448,192,37462,1,0,0:0:0:0:
64,192,37523,1,0,0:0:0:0:
320,192,37585,1,0,0:0:0:0:
448,192,37585,1,0,0:0:0:0:
192,192,37647,1,0,0:0:0:0:
64,192,37708,1,0,0:0:0:0:
320,192,37708,1,0,0:0:0:0:
448,192,37708,1,0,0:0:0:0:
192,192,37832,1,0,0:0:0:0:
64,192,37832,1,0,0:0:0:0:
448,192,37832,1,0,0:0:0:0:
64,192,37955,1,0,0:0:0:0:
448,192,37955,1,0,0:0:0:0:
320,192,37955,1,0,0:0:0:0:
192,192,38079,1,0,0:0:0:0:
64,192,38079,1,0,0:0:0:0:
448,192,38079,1,0,0:0:0:0:
320,192,38202,1,0,0:0:0:0:
448,192,38202,1,0,0:0:0:0:
64,192,38264,1,0,0:0:0:0:
192,192,38264,1,0,0:0:0:0:
448,192,38326,1,0,0:0:0:0:
320,192,38326,1,0,0:0:0:0:
192,192,38387,1,0,0:0:0:0:
64,192,38387,1,0,0:0:0:0:
448,192,38449,1,0,0:0:0:0:
320,192,38480,1,0,0:0:0:0:
64,192,38511,1,0,0:0:0:0:
192,192,38541,1,0,0:0:0:0:
448,192,38572,1,0,0:0:0:0:
320,192,38603,1,0,0:0:0:0:
64,192,38634,1,0,0:0:0:0:
192,192,38665,1,0,0:0:0:0:
448,192,38696,1,0,0:0:0:0:
320,192,38696,1,0,0:0:0:0:
192,192,38757,1,0,0:0:0:0:
320,192,38819,1,0,0:0:0:0:
64,192,38819,1,0,0:0:0:0:
448,192,38881,1,0,0:0:0:0:
320,192,38943,1,0,0:0:0:0:
64,192,38943,1,0,0:0:0:0:
192,192,39004,1,0,0:0:0:0:
320,192,39066,1,0,0:0:0:0:
448,192,39128,1,0,0:0:0:0:
192,192,39189,1,0,0:0:0:0:
64,192,39189,1,0,0:0:0:0:
448,192,39251,1,0,0:0:0:0:
320,192,39313,1,0,0:0:0:0:
64,192,39313,1,0,0:0:0:0:
192,192,39375,1,0,0:0:0:0:
448,192,39375,1,0,0:0:0:0:
320,192,39436,1,0,0:0:0:0:
64,192,39498,1,0,0:0:0:0:
448,192,39498,1,0,0:0:0:0:
192,192,39560,1,0,0:0:0:0:
320,192,39560,1,0,0:0:0:0:
64,192,39621,1,0,0:0:0:0:
192,192,39683,1,0,0:0:0:0:
448,192,39683,1,0,0:0:0:0:
320,192,39683,1,0,0:0:0:0:
64,192,39745,1,0,0:0:0:0:
320,192,39806,1,0,0:0:0:0:
448,192,39806,1,0,0:0:0:0:
192,192,39868,1,0,0:0:0:0:
64,192,39868,1,0,0:0:0:0:
320,192,39930,1,0,0:0:0:0:
192,192,39992,1,0,0:0:0:0:
448,192,39992,1,0,0:0:0:0:
320,192,40053,1,0,0:0:0:0:
64,192,40053,1,0,0:0:0:0:
192,192,40115,1,0,0:0:0:0:
320,192,40177,1,0,0:0:0:0:
448,192,40177,1,0,0:0:0:0:
64,192,40238,1,0,0:0:0:0:
192,192,40300,1,0,0:0:0:0:
320,192,40362,1,0,0:0:0:0:
192,192,40424,1,0,0:0:0:0:
448,192,40424,1,0,0:0:0:0:
64,192,40485,1,0,0:0:0:0:
192,192,40547,1,0,0:0:0:0:
320,192,40609,1,0,0:0:0:0:
192,192,40670,1,0,0:0:0:0:
64,192,40670,1,0,0:0:0:0:
448,192,40670,1,0,0:0:0:0:
320,192,40732,1,0,0:0:0:0:
64,192,40794,1,0,0:0:0:0:
448,192,40794,1,0,0:0:0:0:
192,192,40855,1,0,0:0:0:0:
320,192,40917,1,0,0:0:0:0:
448,192,40917,1,0,0:0:0:0:
64,192,40979,1,0,0:0:0:0:
192,192,41041,1,0,0:0:0:0:
320,192,41041,1,0,0:0:0:0:
448,192,41102,1,0,0:0:0:0:
64,192,41164,1,0,0:0:0:0:
320,192,41164,1,0,0:0:0:0:
192,192,41226,1,0,0:0:0:0:
320,192,41287,1,0,0:0:0:0:
448,192,41287,1,0,0:0:0:0:
192,192,41349,1,0,0:0:0:0:
64,192,41349,1,0,0:0:0:0:
320,192,41411,1,0,0:0:0:0:
192,192,41473,1,0,0:0:0:0:
448,192,41473,1,0,0:0:0:0:
320,192,41534,1,0,0:0:0:0:
64,192,41534,1,0,0:0:0:0:
192,192,41596,1,0,0:0:0:0:
320,192,41658,1,0,0:0:0:0:
448,192,41658,1,0,0:0:0:0:
64,192,41658,1,0,0:0:0:0:
192,192,41719,1,0,0:0:0:0:
64,192,41781,1,0,0:0:0:0:
320,192,41781,1,0,0:0:0:0:
192,192,41843,1,0,0:0:0:0:
448,192,41843,1,0,0:0:0:0:
64,192,41904,1,0,0:0:0:0:
320,192,41966,1,0,0:0:0:0:
448,192,41966,1,0,0:0:0:0:
192,192,42028,1,0,0:0:0:0:
64,192,42028,1,0,0:0:0:0:
320,192,42090,1,0,0:0:0:0:
192,192,42151,1,0,0:0:0:0:
448,192,42151,1,0,0:0:0:0:
64,192,42213,1,0,0:0:0:0:
320,192,42275,1,0,0:0:0:0:
448,192,42275,1,0,0:0:0:0:
192,192,42336,1,0,0:0:0:0:
320,192,42398,1,0,0:0:0:0:
448,192,42398,1,0,0:0:0:0:
64,192,42460,1,0,0:0:0:0:
320,192,42522,1,0,0:0:0:0:
448,192,42522,1,0,0:0:0:0:
192,192,42583,1,0,0:0:0:0:
64,192,42645,1,0,0:0:0:0:
320,192,42645,1,0,0:0:0:0:
448,192,42645,1,0,0:0:0:0:
192,192,42707,1,0,0:0:0:0:
320,192,42768,1,0,0:0:0:0:
448,192,42768,1,0,0:0:0:0:
64,192,42830,1,0,0:0:0:0:
192,192,42892,1,0,0:0:0:0:
448,192,42892,1,0,0:0:0:0:
320,192,42953,1,0,0:0:0:0:
192,192,43015,1,0,0:0:0:0:
64,192,43015,1,0,0:0:0:0:
448,192,43077,1,0,0:0:0:0:
320,192,43139,1,0,0:0:0:0:
64,192,43139,1,0,0:0:0:0:
192,192,43200,1,0,0:0:0:0:
320,192,43262,1,0,0:0:0:0:
448,192,43262,1,0,0:0:0:0:
192,192,43324,1,0,0:0:0:0:
64,192,43324,1,0,0:0:0:0:
320,192,43385,1,0,0:0:0:0:
192,192,43447,1,0,0:0:0:0:
448,192,43447,1,0,0:0:0:0:
320,192,43509,1,0,0:0:0:0:
64,192,43509,1,0,0:0:0:0:
448,192,43570,1,0,0:0:0:0:
192,192,43632,1,0,0:0:0:0:
64,192,43632,1,0,0:0:0:0:
320,192,43632,1,0,0:0:0:0:
448,192,43694,1,0,0:0:0:0:
192,192,43756,1,0,0:0:0:0:
320,192,43756,1,0,0:0:0:0:
448,192,43817,1,0,0:0:0:0:
64,192,43817,1,0,0:0:0:0:
320,192,43879,1,0,0:0:0:0:
192,192,43941,1,0,0:0:0:0:
64,192,43941,1,0,0:0:0:0:
320,192,44002,1,0,0:0:0:0:
448,192,44002,1,0,0:0:0:0:
192,192,44064,1,0,0:0:0:0:
320,192,44126,1,0,0:0:0:0:
448,192,44126,1,0,0:0:0:0:
64,192,44188,1,0,0:0:0:0:
192,192,44249,1,0,0:0:0:0:
320,192,44311,1,0,0:0:0:0:
192,192,44373,1,0,0:0:0:0:
64,192,44373,1,0,0:0:0:0:
448,192,44434,1,0,0:0:0:0:
320,192,44496,1,0,0:0:0:0:
192,192,44558,1,0,0:0:0:0:
320,192,44619,1,0,0:0:0:0:
448,192,44619,1,0,0:0:0:0:
64,192,44619,1,0,0:0:0:0:
192,192,44681,1,0,0:0:0:0:
320,192,44743,1,0,0:0:0:0:
448,192,44743,1,0,0:0:0:0:
64,192,44805,1,0,0:0:0:0:
192,192,44866,1,0,0:0:0:0:
448,192,44866,1,0,0:0:0:0:
320,192,44928,1,0,0:0:0:0:
192,192,44990,1,0,0:0:0:0:
64,192,44990,1,0,0:0:0:0:
448,192,45051,1,0,0:0:0:0:
320,192,45113,1,0,0:0:0:0:
64,192,45113,1,0,0:0:0:0:
192,192,45175,1,0,0:0:0:0:
320,192,45237,1,0,0:0:0:0:
448,192,45237,1,0,0:0:0:0:
192,192,45298,1,0,0:0:0:0:
64,192,45298,1,0,0:0:0:0:
320,192,45360,1,0,0:0:0:0:
192,192,45422,1,0,0:0:0:0:
448,192,45422,1,0,0:0:0:0:
320,192,45483,1,0,0:0:0:0:
64,192,45483,1,0,0:0:0:0:
192,192,45545,1,0,0:0:0:0:
320,192,45607,1,0,0:0:0:0:
448,192,45607,1,0,0:0:0:0:
64,192,45607,1,0,0:0:0:0:
192,192,45668,1,0,0:0:0:0:
448,192,45730,1,0,0:0:0:0:
64,192,45730,1,0,0:0:0:0:
320,192,45792,1,0,0:0:0:0:
192,192,45854,1,0,0:0:0:0:
64,192,45854,1,0,0:0:0:0:
320,192,45915,1,0,0:0:0:0:
192,192,45977,1,0,0:0:0:0:
448,192,45977,1,0,0:0:0:0:
64,192,46039,1,0,0:0:0:0:
192,192,46100,1,0,0:0:0:0:
320,192,46100,1,0,0:0:0:0:
448,192,46162,1,0,0:0:0:0:
320,192,46224,1,0,0:0:0:0:
64,192,46224,1,0,0:0:0:0:
192,192,46286,1,0,0:0:0:0:
448,192,46286,1,0,0:0:0:0:
64,192,46347,1,0,0:0:0:0:
320,192,46409,1,0,0:0:0:0:
448,192,46409,1,0,0:0:0:0:
192,192,46471,1,0,0:0:0:0:
64,192,46471,1,0,0:0:0:0:
320,192,46532,1,0,0:0:0:0:
192,192,46594,1,0,0:0:0:0:
64,192,46594,1,0,0:0:0:0:
448,192,46594,128,0,46841:0:0:0:0:
320,192,46656,1,0,0:0:0:0:
192,192,46717,1,0,0:0:0:0:
64,192,46779,1,0,0:0:0:0:
192,192,46841,128,0,47088:0:0:0:0:
320,192,46841,1,0,0:0:0:0:
64,192,46903,1,0,0:0:0:0:
448,192,46964,1,0,0:0:0:0:
320,192,47026,1,0,0:0:0:0:
448,192,47088,128,0,47335:0:0:0:0:
64,192,47088,1,0,0:0:0:0:
192,192,47149,1,0,0:0:0:0:
64,192,47211,1,0,0:0:0:0:
192,192,47273,1,0,0:0:0:0:
64,192,47335,128,0,47581:0:0:0:0:
320,192,47335,1,0,0:0:0:0:
448,192,47396,1,0,0:0:0:0:
320,192,47458,1,0,0:0:0:0:
192,192,47520,1,0,0:0:0:0:
448,192,47581,128,0,47828:0:0:0:0:
320,192,47581,1,0,0:0:0:0:
192,192,47643,1,0,0:0:0:0:
64,192,47705,1,0,0:0:0:0:
192,192,47766,128,0,47952:0:0:0:0:
320,192,47766,1,0,0:0:0:0:
64,192,47828,1,0,0:0:0:0:
320,192,47890,1,0,0:0:0:0:
64,192,47952,128,0,48322:0:0:0:0:
448,192,47952,1,0,0:0:0:0:
320,192,48013,1,0,0:0:0:0:
192,192,48075,1,0,0:0:0:0:
320,192,48137,1,0,0:0:0:0:
448,192,48198,1,0,0:0:0:0:
320,192,48260,1,0,0:0:0:0:
192,192,48322,1,0,0:0:0:0:
448,192,48384,1,0,0:0:0:0:
320,192,48445,1,0,0:0:0:0:
64,192,48507,1,0,0:0:0:0:
320,192,48569,1,0,0:0:0:0:
192,192,48569,128,0,48815:0:0:0:0:
448,192,48630,1,0,0:0:0:0:
320,192,48692,1,0,0:0:0:0:
64,192,48754,1,0,0:0:0:0:
448,192,48815,128,0,49062:0:0:0:0:
320,192,48815,1,0,0:0:0:0:
192,192,48877,1,0,0:0:0:0:
64,192,48939,1,0,0:0:0:0:
320,192,49001,1,0,0:0:0:0:
64,192,49062,128,0,49309:0:0:0:0:
192,192,49062,1,0,0:0:0:0:
320,192,49124,1,0,0:0:0:0:
448,192,49186,1,0,0:0:0:0:
320,192,49247,1,0,0:0:0:0:
448,192,49309,128,0,49556:0:0:0:0:
192,192,49309,1,0,0:0:0:0:
320,192,49371,1,0,0:0:0:0:
64,192,49433,1,0,0:0:0:0:
192,192,49494,1,0,0:0:0:0:
64,192,49556,128,0,49741:0:0:0:0:
320,192,49556,1,0,0:0:0:0:
192,192,49618,1,0,0:0:0:0:
448,192,49679,1,0,0:0:0:0:
320,192,49741,128,0,49926:0:0:0:0:
192,192,49741,1,0,0:0:0:0:
64,192,49803,1,0,0:0:0:0:
192,192,49864,1,0,0:0:0:0:
448,192,49926,128,0,50173:0:0:0:0:
64,192,49926,1,0,0:0:0:0:
320,192,49988,1,0,0:0:0:0:
192,192,50050,1,0,0:0:0:0:
64,192,50111,1,0,0:0:0:0:
320,192,50173,1,0,0:0:0:0:
192,192,50173,128,0,50296:0:0:0:0:
64,192,50235,1,0,0:0:0:0:
320,192,50296,1,0,0:0:0:0:
448,192,50296,128,0,50420:0:0:0:0:
192,192,50358,1,0,0:0:0:0:
64,192,50420,128,0,50543:0:0:0:0:
320,192,50420,1,0,0:0:0:0:
192,192,50482,1,0,0:0:0:0:
320,192,50543,128,0,50790:0:0:0:0:
448,192,50543,1,0,0:0:0:0:
192,192,50605,1,0,0:0:0:0:
64,192,50667,1,0,0:0:0:0:
448,192,50728,1,0,0:0:0:0:
64,192,50790,128,0,51037:0:0:0:0:
192,192,50790,1,0,0:0:0:0:
320,192,50852,1,0,0:0:0:0:
448,192,50913,1,0,0:0:0:0:
320,192,50975,1,0,0:0:0:0:
448,192,51037,128,0,51284:0:0:0:0:
192,192,51037,1,0,0:0:0:0:
320,192,51099,1,0,0:0:0:0:
192,192,51160,1,0,0:0:0:0:
64,192,51222,1,0,0:0:0:0:
192,192,51284,128,0,51531:0:0:0:0:
320,192,51284,1,0,0:0:0:0:
448,192,51345,1,0,0:0:0:0:
320,192,51407,1,0,0:0:0:0:
64,192,51469,1,0,0:0:0:0:
448,192,51531,128,0,51716:0:0:0:0:
320,192,51531,1,0,0:0:0:0:
64,192,51592,1,0,0:0:0:0:
320,192,51654,1,0,0:0:0:0:
64,192,51716,128,0,51901:0:0:0:0:
192,192,51716,1,0,0:0:0:0:
448,192,51777,1,0,0:0:0:0:
192,192,51839,1,0,0:0:0:0:
320,192,51901,128,0,52148:0:0:0:0:
448,192,51901,1,0,0:0:0:0:
192,192,51962,1,0,0:0:0:0:
64,192,52024,1,0,0:0:0:0:
448,192,52086,1,0,0:0:0:0:
192,192,52148,1,0,0:0:0:0:
64,192,52148,128,0,52271:0:0:0:0:
320,192,52209,1,0,0:0:0:0:
448,192,52271,128,0,52394:0:0:0:0:
192,192,52271,1,0,0:0:0:0:
320,192,52333,1,0,0:0:0:0:
192,192,52394,1,0,0:0:0:0:
64,192,52394,128,0,52518:0:0:0:0:
448,192,52456,1,0,0:0:0:0:
320,192,52518,1,0,0:0:0:0:
192,192,52518,1,0,0:0:0:0:
448,192,52580,1,0,0:0:0:0:
64,192,52641,1,0,0:0:0:0:
192,192,52703,1,0,0:0:0:0:
320,192,52765,1,0,0:0:0:0:
64,192,52765,1,0,0:0:0:0:
448,192,52826,1,0,0:0:0:0:
320,192,52888,1,0,0:0:0:0:
192,192,52950,1,0,0:0:0:0:
320,192,53011,1,0,0:0:0:0:
448,192,53011,1,0,0:0:0:0:
64,192,53073,1,0,0:0:0:0:
192,192,53135,1,0,0:0:0:0:
320,192,53197,1,0,0:0:0:0:
192,192,53258,1,0,0:0:0:0:
64,192,53258,1,0,0:0:0:0:
448,192,53320,1,0,0:0:0:0:
192,192,53382,1,0,0:0:0:0:
64,192,53382,1,0,0:0:0:0:
320,192,53443,1,0,0:0:0:0:
192,192,53505,1,0,0:0:0:0:
64,192,53505,1,0,0:0:0:0:
448,192,53505,1,0,0:0:0:0:
320,192,53567,1,0,0:0:0:0:
192,192,53628,1,0,0:0:0:0:
320,192,53690,1,0,0:0:0:0:
192,192,53752,1,0,0:0:0:0:
64,192,53752,1,0,0:0:0:0:
448,192,53752,1,0,0:0:0:0:
320,192,53814,1,0,0:0:0:0:
64,192,53875,1,0,0:0:0:0:
192,192,53937,1,0,0:0:0:0:
320,192,53999,1,0,0:0:0:0:
448,192,53999,1,0,0:0:0:0:
64,192,53999,1,0,0:0:0:0:
192,192,54060,1,0,0:0:0:0:
448,192,54122,1,0,0:0:0:0:
320,192,54184,1,0,0:0:0:0:
64,192,54246,1,0,0:0:0:0:
448,192,54246,1,0,0:0:0:0:
192,192,54246,1,0,0:0:0:0:
320,192,54307,1,0,0:0:0:0:
192,192,54369,1,0,0:0:0:0:
64,192,54431,1,0,0:0:0:0:
192,192,54492,1,0,0:0:0:0:
320,192,54492,1,0,0:0:0:0:
448,192,54492,1,0,0:0:0:0:
320,192,54677,1,0,0:0:0:0:
192,192,54677,1,0,0:0:0:0:
192,192,54739,1,0,0:0:0:0:
64,192,54739,1,0,0:0:0:0:
448,192,54739,1,0,0:0:0:0:
320,192,54863,1,0,0:0:0:0:
64,192,54863,1,0,0:0:0:0:
448,192,54863,1,0,0:0:0:0:
64,192,54986,1,0,0:0:0:0:
192,192,54986,1,0,0:0:0:0:
448,192,54986,1,0,0:0:0:0:
320,192,55048,1,0,0:0:0:0:
64,192,55109,1,0,0:0:0:0:
448,192,55109,1,0,0:0:0:0:
192,192,55171,1,0,0:0:0:0:
320,192,55233,1,0,0:0:0:0:
448,192,55233,1,0,0:0:0:0:
192,192,55295,1,0,0:0:0:0:
64,192,55295,1,0,0:0:0:0:
320,192,55356,1,0,0:0:0:0:
448,192,55356,1,0,0:0:0:0:
192,192,55418,1,0,0:0:0:0:
64,192,55418,1,0,0:0:0:0:
320,192,55480,1,0,0:0:0:0:
448,192,55480,1,0,0:0:0:0:
64,192,55480,1,0,0:0:0:0:
192,192,55541,1,0,0:0:0:0:
320,192,55603,1,0,0:0:0:0:
448,192,55603,1,0,0:0:0:0:
192,192,55665,1,0,0:0:0:0:
64,192,55665,1,0,0:0:0:0:
320,192,55726,1,0,0:0:0:0:
192,192,55788,1,0,0:0:0:0:
448,192,55788,1,0,0:0:0:0:
320,192,55850,1,0,0:0:0:0:
64,192,55850,1,0,0:0:0:0:
448,192,55912,1,0,0:0:0:0:
192,192,55973,1,0,0:0:0:0:
64,192,55973,1,0,0:0:0:0:
448,192,56035,1,0,0:0:0:0:
320,192,56097,1,0,0:0:0:0:
64,192,56097,1,0,0:0:0:0:
192,192,56158,1,0,0:0:0:0:
320,192,56220,1,0,0:0:0:0:
448,192,56220,1,0,0:0:0:0:
192,192,56282,1,0,0:0:0:0:
320,192,56344,1,0,0:0:0:0:
448,192,56344,1,0,0:0:0:0:
64,192,56405,1,0,0:0:0:0:
192,192,56467,1,0,0:0:0:0:
448,192,56467,1,0,0:0:0:0:
320,192,56467,1,0,0:0:0:0:
64,192,56529,1,0,0:0:0:0:
192,192,56590,1,0,0:0:0:0:
320,192,56590,1,0,0:0:0:0:
448,192,56652,1,0,0:0:0:0:
320,192,56714,1,0,0:0:0:0:
64,192,56775,1,0,0:0:0:0:
192,192,56775,1,0,0:0:0:0:
448,192,56837,1,0,0:0:0:0:
320,192,56837,1,0,0:0:0:0:
192,192,56899,1,0,0:0:0:0:
64,192,56961,1,0,0:0:0:0:
320,192,56961,1,0,0:0:0:0:
448,192,57022,1,0,0:0:0:0:
320,192,57084,1,0,0:0:0:0:
64,192,57084,1,0,0:0:0:0:
192,192,57146,1,0,0:0:0:0:
320,192,57207,1,0,0:0:0:0:
448,192,57207,1,0,0:0:0:0:
64,192,57269,1,0,0:0:0:0:
192,192,57269,1,0,0:0:0:0:
320,192,57331,1,0,0:0:0:0:
192,192,57393,1,0,0:0:0:0:
64,192,57454,1,0,0:0:0:0:
320,192,57454,1,0,0:0:0:0:
448,192,57454,1,0,0:0:0:0:
192,192,57516,1,0,0:0:0:0:
320,192,57578,1,0,0:0:0:0:
448,192,57639,1,0,0:0:0:0:
192,192,57701,1,0,0:0:0:0:
64,192,57701,1,0,0:0:0:0:
448,192,57763,1,0,0:0:0:0:
320,192,57824,1,0,0:0:0:0:
192,192,57886,1,0,0:0:0:0:
320,192,57948,1,0,0:0:0:0:
448,192,57948,1,0,0:0:0:0:
64,192,58010,1,0,0:0:0:0:
192,192,58071,1,0,0:0:0:0:
448,192,58133,1,0,0:0:0:0:
320,192,58195,1,0,0:0:0:0:
64,192,58195,1,0,0:0:0:0:
192,192,58256,1,0,0:0:0:0:
320,192,58318,1,0,0:0:0:0:
448,192,58318,1,0,0:0:0:0:
64,192,58380,1,0,0:0:0:0:
320,192,58442,1,0,0:0:0:0:
448,192,58442,1,0,0:0:0:0:
192,192,58442,1,0,0:0:0:0:
64,192,58503,1,0,0:0:0:0:
448,192,58565,1,0,0:0:0:0:
192,192,58565,1,0,0:0:0:0:
320,192,58627,1,0,0:0:0:0:
64,192,58627,1,0,0:0:0:0:
448,192,58688,1,0,0:0:0:0:
320,192,58750,1,0,0:0:0:0:
64,192,58812,1,0,0:0:0:0:
192,192,58873,1,0,0:0:0:0:
320,192,58935,1,0,0:0:0:0:
448,192,58935,1,0,0:0:0:0:
64,192,58997,1,0,0:0:0:0:
320,192,59059,1,0,0:0:0:0:
448,192,59059,1,0,0:0:0:0:
192,192,59120,1,0,0:0:0:0:
320,192,59182,1,0,0:0:0:0:
64,192,59182,1,0,0:0:0:0:
448,192,59244,1,0,0:0:0:0:
192,192,59305,1,0,0:0:0:0:
64,192,59305,1,0,0:0:0:0:
320,192,59367,1,0,0:0:0:0:
192,192,59429,1,0,0:0:0:0:
448,192,59429,1,0,0:0:0:0:
64,192,59429,1,0,0:0:0:0:
320,192,59491,1,0,0:0:0:0:
192,192,59552,1,0,0:0:0:0:
448,192,59552,1,0,0:0:0:0:
320,192,59614,1,0,0:0:0:0:
64,192,59614,1,0,0:0:0:0:
448,192,59676,1,0,0:0:0:0:
192,192,59737,1,0,0:0:0:0:
320,192,59799,1,0,0:0:0:0:
448,192,59799,1,0,0:0:0:0:
64,192,59861,1,0,0:0:0:0:
192,192,59922,1,0,0:0:0:0:
448,192,59922,1,0,0:0:0:0:
320,192,59984,1,0,0:0:0:0:
64,192,59984,1,0,0:0:0:0:
448,192,60046,1,0,0:0:0:0:
320,192,60108,1,0,0:0:0:0:
192,192,60169,1,0,0:0:0:0:
64,192,60169,1,0,0:0:0:0:
448,192,60231,1,0,0:0:0:0:
320,192,60293,1,0,0:0:0:0:
64,192,60293,1,0,0:0:0:0:
448,192,60354,1,0,0:0:0:0:
64,192,60416,1,0,0:0:0:0:
192,192,60416,1,0,0:0:0:0:
320,192,60416,1,0,0:0:0:0:
448,192,60478,1,0,0:0:0:0:
64,192,60540,1,0,0:0:0:0:
320,192,60540,1,0,0:0:0:0:
192,192,60601,1,0,0:0:0:0:
64,192,60663,1,0,0:0:0:0:
320,192,60663,1,0,0:0:0:0:
448,192,60725,1,0,0:0:0:0:
192,192,60725,1,0,0:0:0:0:
64,192,60786,1,0,0:0:0:0:
192,192,60848,1,0,0:0:0:0:
320,192,60910,1,0,0:0:0:0:
448,192,60910,1,0,0:0:0:0:
192,192,60971,1,0,0:0:0:0:
64,192,61033,1,0,0:0:0:0:
320,192,61033,1,0,0:0:0:0:
448,192,61095,1,0,0:0:0:0:
192,192,61157,1,0,0:0:0:0:
64,192,61157,1,0,0:0:0:0:
320,192,61218,1,0,0:0:0:0:
448,192,61218,1,0,0:0:0:0:
192,192,61280,1,0,0:0:0:0:
320,192,61342,1,0,0:0:0:0:
192,192,61403,1,0,0:0:0:0:
64,192,61403,1,0,0:0:0:0:
448,192,61403,1,0,0:0:0:0:
320,192,61465,1,0,0:0:0:0:
192,192,61527,1,0,0:0:0:0:
320,192,61589,1,0,0:0:0:0:
192,192,61650,1,0,0:0:0:0:
64,192,61650,1,0,0:0:0:0:
448,192,61712,1,0,0:0:0:0:
320,192,61774,1,0,0:0:0:0:
192,192,61835,1,0,0:0:0:0:
320,192,61897,1,0,0:0:0:0:
448,192,61897,1,0,0:0:0:0:
64,192,61959,1,0,0:0:0:0:
192,192,62020,1,0,0:0:0:0:
320,192,62082,1,0,0:0:0:0:
192,192,62144,1,0,0:0:0:0:
64,192,62144,1,0,0:0:0:0:
320,192,62206,1,0,0:0:0:0:
192,192,62267,1,0,0:0:0:0:
448,192,62267,1,0,0:0:0:0:
64,192,62329,1,0,0:0:0:0:
320,192,62391,1,0,0:0:0:0:
448,192,62391,1,0,0:0:0:0:
192,192,62391,1,0,0:0:0:0:
64,192,62452,1,0,0:0:0:0:
192,192,62514,1,0,0:0:0:0:
320,192,62514,1,0,0:0:0:0:
448,192,62576,1,0,0:0:0:0:
192,192,62638,1,0,0:0:0:0:
64,192,62638,1,0,0:0:0:0:
320,192,62699,1,0,0:0:0:0:
448,192,62761,1,0,0:0:0:0:
64,192,62823,1,0,0:0:0:0:
192,192,62884,1,0,0:0:0:0:
320,192,62884,1,0,0:0:0:0:
448,192,62946,1,0,0:0:0:0:
64,192,63008,1,0,0:0:0:0:
192,192,63069,1,0,0:0:0:0:
320,192,63131,1,0,0:0:0:0:
448,192,63131,1,0,0:0:0:0:
192,192,63193,1,0,0:0:0:0:
64,192,63255,1,0,0:0:0:0:
320,192,63255,1,0,0:0:0:0:
192,192,63316,1,0,0:0:0:0:
448,192,63316,1,0,0:0:0:0:
320,192,63378,1,0,0:0:0:0:
64,192,63378,1,0,0:0:0:0:
192,192,63378,1,0,0:0:0:0:
448,192,63440,1,0,0:0:0:0:
320,192,63501,1,0,0:0:0:0:
192,192,63563,1,0,0:0:0:0:
320,192,63625,1,0,0:0:0:0:
448,192,63625,1,0,0:0:0:0:
64,192,63687,1,0,0:0:0:0:
192,192,63748,1,0,0:0:0:0:
320,192,63810,1,0,0:0:0:0:
192,192,63872,1,0,0:0:0:0:
64,192,63872,1,0,0:0:0:0:
448,192,63933,1,0,0:0:0:0:
320,192,63995,1,0,0:0:0:0:
192,192,64057,1,0,0:0:0:0:
64,192,64118,1,0,0:0:0:0:
320,192,64118,1,0,0:0:0:0:
448,192,64180,1,0,0:0:0:0:
320,192,64242,1,0,0:0:0:0:
64,192,64242,1,0,0:0:0:0:
192,192,64304,1,0,0:0:0:0:
448,192,64304,1,0,0:0:0:0:
320,192,64365,1,0,0:0:0:0:
64,192,64365,1,0,0:0:0:0:
192,192,64365,1,0,0:0:0:0:
448,192,64427,1,0,0:0:0:0:
320,192,64489,1,0,0:0:0:0:
192,192,64550,1,0,0:0:0:0:
320,192,64612,1,0,0:0:0:0:
448,192,64612,1,0,0:0:0:0:
64,192,64674,1,0,0:0:0:0:
448,192,64735,1,0,0:0:0:0:
320,192,64797,1,0,0:0:0:0:
192,192,64859,1,0,0:0:0:0:
64,192,64859,1,0,0:0:0:0:
448,192,64859,1,0,0:0:0:0:
320,192,64921,1,0,0:0:0:0:
448,192,64982,1,0,0:0:0:0:
192,192,65044,1,0,0:0:0:0:
64,192,65106,1,0,0:0:0:0:
320,192,65106,1,0,0:0:0:0:
448,192,65167,1,0,0:0:0:0:
320,192,65229,1,0,0:0:0:0:
192,192,65291,1,0,0:0:0:0:
64,192,65353,1,0,0:0:0:0:
320,192,65353,1,0,0:0:0:0:
448,192,65353,128,0,65538:0:0:0:0:
192,192,65414,1,0,0:0:0:0:
320,192,65476,1,0,0:0:0:0:
64,192,65538,128,0,65723:0:0:0:0:
192,192,65538,1,0,0:0:0:0:
448,192,65599,1,0,0:0:0:0:
320,192,65661,1,0,0:0:0:0:
448,192,65723,128,0,65846:0:0:0:0:
192,192,65723,1,0,0:0:0:0:
64,192,65784,1,0,0:0:0:0:
320,192,65846,128,0,66031:0:0:0:0:
192,192,65846,1,0,0:0:0:0:
448,192,65908,1,0,0:0:0:0:
192,192,65970,1,0,0:0:0:0:
64,192,66031,128,0,66216:0:0:0:0:
448,192,66031,1,0,0:0:0:0:
192,192,66093,1,0,0:0:0:0:
320,192,66155,1,0,0:0:0:0:
448,192,66216,128,0,66340:0:0:0:0:
192,192,66216,1,0,0:0:0:0:
64,192,66278,1,0,0:0:0:0:
192,192,66340,128,0,66525:0:0:0:0:
320,192,66340,1,0,0:0:0:0:
64,192,66402,1,0,0:0:0:0:
320,192,66463,1,0,0:0:0:0:
448,192,66525,128,0,66710:0:0:0:0:
64,192,66525,1,0,0:0:0:0:
320,192,66587,1,0,0:0:0:0:
192,192,66648,1,0,0:0:0:0:
64,192,66710,128,0,66957:0:0:0:0:
320,192,66710,1,0,0:0:0:0:
192,192,66772,1,0,0:0:0:0:
448,192,66833,1,0,0:0:0:0:
192,192,66895,1,0,0:0:0:0:
448,192,66957,128,0,67019:0:0:0:0:
320,192,66957,1,0,0:0:0:0:
64,192,67019,128,0,67080:0:0:0:0:
192,192,67019,1,0,0:0:0:0:
320,192,67080,128,0,67142:0:0:0:0:
448,192,67080,1,0,0:0:0:0:
64,192,67142,128,0,67204:0:0:0:0:
192,192,67142,1,0,0:0:0:0:
320,192,67204,1,0,0:0:0:0:
448,192,67204,128,0,67265:0:0:0:0:
64,192,67265,1,0,0:0:0:0:
320,192,67265,128,0,67327:0:0:0:0:
448,192,67327,128,0,67451:0:0:0:0:
192,192,67327,1,0,0:0:0:0:
320,192,67420,1,0,0:0:0:0:
64,192,67451,128,0,67821:0:0:0:0:
192,192,67451,1,0,0:0:0:0:
320,192,67512,1,0,0:0:0:0:
448,192,67574,1,0,0:0:0:0:
192,192,67636,1,0,0:0:0:0:
320,192,67697,1,0,0:0:0:0:
448,192,67759,1,0,0:0:0:0:
192,192,67821,1,0,0:0:0:0:
320,192,67821,1,0,0:0:0:0:
448,192,67882,1,0,0:0:0:0:
320,192,67944,1,0,0:0:0:0:
192,192,68006,1,0,0:0:0:0:
64,192,68068,1,0,0:0:0:0:
320,192,68068,1,0,0:0:0:0:
448,192,68129,1,0,0:0:0:0:
64,192,68191,1,0,0:0:0:0:
192,192,68191,1,0,0:0:0:0:
448,192,68222,1,0,0:0:0:0:
320,192,68222,1,0,0:0:0:0:
192,192,68253,1,0,0:0:0:0:
64,192,68253,1,0,0:0:0:0:
320,192,68284,1,0,0:0:0:0:
448,192,68284,1,0,0:0:0:0:
192,192,68314,1,0,0:0:0:0:
64,192,68314,1,0,0:0:0:0:
320,192,68376,1,0,0:0:0:0:
448,192,68438,1,0,0:0:0:0:
320,192,68500,1,0,0:0:0:0:
64,192,68561,1,0,0:0:0:0:
192,192,68561,128,0,68623:0:0:0:0:
448,192,68623,128,0,68685:0:0:0:0:
320,192,68623,1,0,0:0:0:0:
192,192,68685,1,0,0:0:0:0:
64,192,68685,128,0,68746:0:0:0:0:
320,192,68746,128,0,68808:0:0:0:0:
448,192,68746,1,0,0:0:0:0:
64,192,68808,128,0,68870:0:0:0:0:
192,192,68808,1,0,0:0:0:0:
320,192,68870,128,0,68931:0:0:0:0:
448,192,68870,1,0,0:0:0:0:
64,192,68931,128,0,68993:0:0:0:0:
192,192,68931,1,0,0:0:0:0:
320,192,68993,1,0,0:0:0:0:
448,192,68993,128,0,69055:0:0:0:0:
192,192,69055,128,0,69117:0:0:0:0:
64,192,69055,1,0,0:0:0:0:
448,192,69117,128,0,69178:0:0:0:0:
320,192,69117,1,0,0:0:0:0:
320,192,69178,128,0,69240:0:0:0:0:
64,192,69178,1,0,0:0:0:0:
448,192,69240,128,0,69302:0:0:0:0:
192,192,69240,1,0,0:0:0:0:
64,192,69302,128,0,69549:0:0:0:0:
320,192,69302,1,0,0:0:0:0:
192,192,69363,1,0,0:0:0:0:
448,192,69425,1,0,0:0:0:0:
192,192,69487,1,0,0:0:0:0:
320,192,69549,1,0,0:0:0:0:
448,192,69549,1,0,0:0:0:0:
64,192,69610,1,0,0:0:0:0:
192,192,69672,1,0,0:0:0:0:
320,192,69734,1,0,0:0:0:0:
192,192,69795,1,0,0:0:0:0:
448,192,69795,128,0,70289:0:0:0:0:
64,192,69857,1,0,0:0:0:0:
192,192,69919,1,0,0:0:0:0:
320,192,69980,1,0,0:0:0:0:
192,192,70042,1,0,0:0:0:0:
64,192,70042,1,0,0:0:0:0:
320,192,70104,1,0,0:0:0:0:
64,192,70166,1,0,0:0:0:0:
192,192,70227,1,0,0:0:0:0:
320,192,70289,1,0,0:0:0:0:
64,192,70289,1,0,0:0:0:0:
192,192,70351,1,0,0:0:0:0:
448,192,70412,1,0,0:0:0:0:
320,192,70474,1,0,0:0:0:0:
192,192,70536,1,0,0:0:0:0:
64,192,70536,1,0,0:0:0:0:
448,192,70598,1,0,0:0:0:0:
320,192,70659,1,0,0:0:0:0:
192,192,70721,128,0,70783:0:0:0:0:
64,192,70721,1,0,0:0:0:0:
448,192,70783,128,0,70844:0:0:0:0:
320,192,70783,1,0,0:0:0:0:
64,192,70844,128,0,70906:0:0:0:0:
192,192,70844,1,0,0:0:0:0:
320,192,70906,128,0,70968:0:0:0:0:
448,192,70906,1,0,0:0:0:0:
192,192,70968,128,0,71029:0:0:0:0:
64,192,70968,1,0,0:0:0:0:
448,192,71029,128,0,71091:0:0:0:0:
320,192,71029,1,0,0:0:0:0:
64,192,71091,128,0,71276:0:0:0:0:
192,192,71091,1,0,0:0:0:0:
320,192,71153,1,0,0:0:0:0:
448,192,71215,1,0,0:0:0:0:
320,192,71276,1,0,0:0:0:0:
192,192,71276,1,0,0:0:0:0:
448,192,71338,1,0,0:0:0:0:
64,192,71400,1,0,0:0:0:0:
192,192,71461,1,0,0:0:0:0:
64,192,71523,1,0,0:0:0:0:
320,192,71523,1,0,0:0:0:0:
448,192,71585,1,0,0:0:0:0:
320,192,71647,1,0,0:0:0:0:
64,192,71708,1,0,0:0:0:0:
192,192,71770,1,0,0:0:0:0:
320,192,71770,1,0,0:0:0:0:
448,192,71832,1,0,0:0:0:0:
320,192,71893,1,0,0:0:0:0:
64,192,71893,128,0,72140:0:0:0:0:
448,192,71955,1,0,0:0:0:0:
192,192,72017,1,0,0:0:0:0:
320,192,72078,1,0,0:0:0:0:
192,192,72140,1,0,0:0:0:0:
448,192,72140,128,0,72264:0:0:0:0:
64,192,72202,1,0,0:0:0:0:
320,192,72264,1,0,0:0:0:0:
192,192,72264,128,0,72449:0:0:0:0:
448,192,72325,1,0,0:0:0:0:
64,192,72387,1,0,0:0:0:0:
448,192,72449,128,0,72510:0:0:0:0:
320,192,72449,1,0,0:0:0:0:
192,192,72510,1,0,0:0:0:0:
64,192,72510,1,0,0:0:0:0:
320,192,72541,1,0,0:0:0:0:
448,192,72572,1,0,0:0:0:0:
320,192,72603,1,0,0:0:0:0:
64,192,72634,1,0,0:0:0:0:
192,192,72665,1,0,0:0:0:0:
448,192,72696,1,0,0:0:0:0:
320,192,72726,1,0,0:0:0:0:
64,192,72757,128,0,72819:0:0:0:0:
192,192,72757,1,0,0:0:0:0:
448,192,72819,1,0,0:0:0:0:
320,192,72819,128,0,72881:0:0:0:0:
192,192,72881,1,0,0:0:0:0:
64,192,72881,128,0,72942:0:0:0:0:
320,192,72942,1,0,0:0:0:0:
448,192,72942,128,0,73004:0:0:0:0:
192,192,73004,128,0,73066:0:0:0:0:
64,192,73004,1,0,0:0:0:0:
448,192,73066,128,0,73127:0:0:0:0:
320,192,73066,1,0,0:0:0:0:
192,192,73127,1,0,0:0:0:0:
64,192,73127,128,0,73189:0:0:0:0:
448,192,73189,128,0,73251:0:0:0:0:
320,192,73189,1,0,0:0:0:0:
64,192,73251,1,0,0:0:0:0:
320,192,73251,128,0,73313:0:0:0:0:
448,192,73313,128,0,73374:0:0:0:0:
192,192,73313,1,0,0:0:0:0:
320,192,73374,1,0,0:0:0:0:
192,192,73374,128,0,73436:0:0:0:0:
448,192,73436,128,0,73745:0:0:0:0:
64,192,73436,1,0,0:0:0:0:
192,192,73498,1,0,0:0:0:0:
320,192,73559,1,0,0:0:0:0:
64,192,73621,1,0,0:0:0:0:
320,192,73683,1,0,0:0:0:0:
64,192,73745,128,0,73806:0:0:0:0:
192,192,73745,1,0,0:0:0:0:
320,192,73806,128,0,73868:0:0:0:0:
448,192,73806,1,0,0:0:0:0:
192,192,73868,1,0,0:0:0:0:
64,192,73868,128,0,73930:0:0:0:0:
448,192,73930,128,0,73991:0:0:0:0:
320,192,73930,1,0,0:0:0:0:
64,192,73991,128,0,74115:0:0:0:0:
192,192,73991,1,0,0:0:0:0:
320,192,74053,1,0,0:0:0:0:
448,192,74115,128,0,74238:0:0:0:0:
192,192,74115,1,0,0:0:0:0:
320,192,74176,1,0,0:0:0:0:
192,192,74238,1,0,0:0:0:0:
64,192,74238,1,0,0:0:0:0:
320,192,74300,1,0,0:0:0:0:
64,192,74362,1,0,0:0:0:0:
448,192,74362,1,0,0:0:0:0:
192,192,74392,1,0,0:0:0:0:
448,192,74423,1,0,0:0:0:0:
320,192,74454,1,0,0:0:0:0:
64,192,74485,1,0,0:0:0:0:
192,192,74485,1,0,0:0:0:0:
320,192,74547,1,0,0:0:0:0:
192,192,74608,1,0,0:0:0:0:
64,192,74670,1,0,0:0:0:0:
192,192,74732,1,0,0:0:0:0:
320,192,74732,1,0,0:0:0:0:
64,192,74793,1,0,0:0:0:0:
448,192,74793,1,0,0:0:0:0:
192,192,74855,1,0,0:0:0:0:
320,192,74855,1,0,0:0:0:0:
64,192,74917,1,0,0:0:0:0:
320,192,74979,1,0,0:0:0:0:
448,192,74979,1,0,0:0:0:0:
192,192,75040,1,0,0:0:0:0:
64,192,75040,1,0,0:0:0:0:
320,192,75102,1,0,0:0:0:0:
448,192,75102,1,0,0:0:0:0:
192,192,75164,1,0,0:0:0:0:
64,192,75164,1,0,0:0:0:0:
320,192,75225,1,0,0:0:0:0:
448,192,75225,128,0,75719:0:0:0:0:
64,192,75349,1,0,0:0:0:0:
320,192,75472,1,0,0:0:0:0:
192,192,75596,1,0,0:0:0:0:
64,192,75719,1,0,0:0:0:0:
320,192,75719,128,0,76706:0:0:0:0:
192,192,75842,1,0,0:0:0:0:
64,192,75966,1,0,0:0:0:0:
448,192,76089,1,0,0:0:0:0:
64,192,76213,1,0,0:0:0:0:
448,192,76336,1,0,0:0:0:0:
192,192,76460,1,0,0:0:0:0:
448,192,76583,1,0,0:0:0:0:
192,192,76706,1,0,0:0:0:0:
64,192,76706,1,0,0:0:0:0:
448,192,76830,1,0,0:0:0:0:
192,192,76953,1,0,0:0:0:0:
320,192,77077,1,0,0:0:0:0:
192,192,77200,1,0,0:0:0:0:
64,192,77200,1,0,0:0:0:0:
448,192,77200,1,0,0:0:0:0:
320,192,77323,1,0,0:0:0:0:
192,192,77447,1,0,0:0:0:0:
448,192,77570,1,0,0:0:0:0:
320,192,77570,1,0,0:0:0:0:
64,192,77694,128,0,77879:0:0:0:0:
192,192,77694,1,0,0:0:0:0:
448,192,77879,128,0,78064:0:0:0:0:
320,192,77879,1,0,0:0:0:0:
64,192,78064,128,0,78187:0:0:0:0:
320,192,78064,1,0,0:0:0:0:
448,192,78187,128,0,78558:0:0:0:0:
192,192,78187,1,0,0:0:0:0:
64,192,78311,1,0,0:0:0:0:
320,192,78434,1,0,0:0:0:0:
64,192,78558,128,0,78681:0:0:0:0:
192,192,78558,1,0,0:0:0:0:
448,192,78681,128,0,79175:0:0:0:0:
320,192,78681,1,0,0:0:0:0:
64,192,78804,1,0,0:0:0:0:
192,192,78928,1,0,0:0:0:0:
320,192,78928,1,0,0:0:0:0:
64,192,79051,1,0,0:0:0:0:
192,192,79175,1,0,0:0:0:0:
320,192,79175,1,0,0:0:0:0:
64,192,79175,128,0,79668:0:0:0:0:
320,192,79298,1,0,0:0:0:0:
320,192,79421,1,0,0:0:0:0:
448,192,79421,1,0,0:0:0:0:
192,192,79545,1,0,0:0:0:0:
320,192,79668,1,0,0:0:0:0:
448,192,79668,1,0,0:0:0:0:
192,192,79668,128,0,79853:0:0:0:0:
64,192,79853,128,0,80038:0:0:0:0:
320,192,79853,1,0,0:0:0:0:
192,192,80038,1,0,0:0:0:0:
448,192,80038,128,0,80162:0:0:0:0:
320,192,80162,1,0,0:0:0:0:
192,192,80162,1,0,0:0:0:0:
192,192,80285,1,0,0:0:0:0:
64,192,80409,1,0,0:0:0:0:
320,192,80409,1,0,0:0:0:0:
448,192,80532,1,0,0:0:0:0:
192,192,80656,1,0,0:0:0:0:
64,192,80656,1,0,0:0:0:0:
320,192,80779,1,0,0:0:0:0:
192,192,80902,1,0,0:0:0:0:
64,192,80902,1,0,0:0:0:0:
448,192,81026,1,0,0:0:0:0:
192,192,81149,1,0,0:0:0:0:
64,192,81149,1,0,0:0:0:0:
320,192,81149,1,0,0:0:0:0:
448,192,81273,1,0,0:0:0:0:
320,192,81396,1,0,0:0:0:0:
64,192,81396,1,0,0:0:0:0:
192,192,81519,1,0,0:0:0:0:
320,192,81643,1,0,0:0:0:0:
448,192,81643,1,0,0:0:0:0:
64,192,81643,128,0,81828:0:0:0:0:
448,192,81828,128,0,82013:0:0:0:0:
320,192,81828,1,0,0:0:0:0:
192,192,82013,128,0,82136:0:0:0:0:
64,192,82013,1,0,0:0:0:0:
320,192,82136,1,0,0:0:0:0:
448,192,82136,1,0,0:0:0:0:
64,192,82136,1,0,0:0:0:0:
320,192,82260,1,0,0:0:0:0:
192,192,82383,1,0,0:0:0:0:
320,192,82383,1,0,0:0:0:0:
64,192,82383,1,0,0:0:0:0:
192,192,82507,1,0,0:0:0:0:
320,192,82630,1,0,0:0:0:0:
448,192,82630,1,0,0:0:0:0:
64,192,82630,1,0,0:0:0:0:
192,192,82754,1,0,0:0:0:0:
64,192,82877,1,0,0:0:0:0:
448,192,82877,1,0,0:0:0:0:
192,192,82877,1,0,0:0:0:0:
320,192,83000,1,0,0:0:0:0:
192,192,83124,1,0,0:0:0:0:
64,192,83124,1,0,0:0:0:0:
320,192,83124,1,0,0:0:0:0:
448,192,83124,128,0,83617:0:0:0:0:
320,192,83247,1,0,0:0:0:0:
192,192,83371,1,0,0:0:0:0:
64,192,83371,1,0,0:0:0:0:
320,192,83494,1,0,0:0:0:0:
320,192,83617,1,0,0:0:0:0:
64,192,83617,1,0,0:0:0:0:
192,192,83617,128,0,84111:0:0:0:0:
320,192,83741,1,0,0:0:0:0:
64,192,83864,1,0,0:0:0:0:
448,192,83864,1,0,0:0:0:0:
320,192,83988,1,0,0:0:0:0:
64,192,84111,1,0,0:0:0:0:
320,192,84111,1,0,0:0:0:0:
448,192,84111,1,0,0:0:0:0:
320,192,84296,1,0,0:0:0:0:
192,192,84296,1,0,0:0:0:0:
64,192,84358,1,0,0:0:0:0:
448,192,84358,1,0,0:0:0:0:
320,192,84358,1,0,0:0:0:0:
448,192,84481,1,0,0:0:0:0:
64,192,84481,1,0,0:0:0:0:
192,192,84481,1,0,0:0:0:0:
448,192,84605,1,0,0:0:0:0:
320,192,84605,1,0,0:0:0:0:
64,192,84605,1,0,0:0:0:0:
192,192,84666,1,0,0:0:0:0:
320,192,84728,1,0,0:0:0:0:
448,192,84728,1,0,0:0:0:0:
64,192,84790,1,0,0:0:0:0:
320,192,84852,1,0,0:0:0:0:
448,192,84852,1,0,0:0:0:0:
192,192,84913,1,0,0:0:0:0:
320,192,84975,1,0,0:0:0:0:
448,192,84975,1,0,0:0:0:0:
64,192,85037,1,0,0:0:0:0:
192,192,85098,1,0,0:0:0:0:
320,192,85098,1,0,0:0:0:0:
448,192,85098,1,0,0:0:0:0:
64,192,85160,1,0,0:0:0:0:
320,192,85222,1,0,0:0:0:0:
448,192,85222,1,0,0:0:0:0:
192,192,85283,1,0,0:0:0:0:
64,192,85283,1,0,0:0:0:0:
320,192,85345,1,0,0:0:0:0:
192,192,85407,1,0,0:0:0:0:
320,192,85469,1,0,0:0:0:0:
64,192,85469,1,0,0:0:0:0:
448,192,85530,1,0,0:0:0:0:
320,192,85592,1,0,0:0:0:0:
64,192,85592,1,0,0:0:0:0:
192,192,85654,1,0,0:0:0:0:
448,192,85654,1,0,0:0:0:0:
64,192,85715,1,0,0:0:0:0:
192,192,85777,1,0,0:0:0:0:
320,192,85839,1,0,0:0:0:0:
448,192,85839,1,0,0:0:0:0:
192,192,85900,1,0,0:0:0:0:
64,192,85962,1,0,0:0:0:0:
320,192,85962,1,0,0:0:0:0:
448,192,86024,1,0,0:0:0:0:
320,192,86086,1,0,0:0:0:0:
192,192,86086,1,0,0:0:0:0:
64,192,86086,1,0,0:0:0:0:
448,192,86147,1,0,0:0:0:0:
192,192,86209,1,0,0:0:0:0:
64,192,86209,1,0,0:0:0:0:
320,192,86271,1,0,0:0:0:0:
192,192,86332,1,0,0:0:0:0:
64,192,86332,1,0,0:0:0:0:
320,192,86394,1,0,0:0:0:0:
448,192,86394,1,0,0:0:0:0:
192,192,86456,1,0,0:0:0:0:
320,192,86518,1,0,0:0:0:0:
192,192,86579,1,0,0:0:0:0:
448,192,86579,1,0,0:0:0:0:
64,192,86641,1,0,0:0:0:0:
320,192,86703,1,0,0:0:0:0:
448,192,86703,1,0,0:0:0:0:
64,192,86764,1,0,0:0:0:0:
192,192,86826,1,0,0:0:0:0:
448,192,86826,1,0,0:0:0:0:
320,192,86888,1,0,0:0:0:0:
64,192,86888,1,0,0:0:0:0:
448,192,86949,1,0,0:0:0:0:
320,192,87011,1,0,0:0:0:0:
192,192,87073,1,0,0:0:0:0:
64,192,87073,1,0,0:0:0:0:
448,192,87073,1,0,0:0:0:0:
320,192,87135,1,0,0:0:0:0:
192,192,87196,1,0,0:0:0:0:
64,192,87258,1,0,0:0:0:0:
320,192,87320,1,0,0:0:0:0:
448,192,87320,1,0,0:0:0:0:
192,192,87381,1,0,0:0:0:0:
64,192,87443,1,0,0:0:0:0:
192,192,87505,1,0,0:0:0:0:
320,192,87567,1,0,0:0:0:0:
448,192,87567,1,0,0:0:0:0:
192,192,87628,1,0,0:0:0:0:
320,192,87690,1,0,0:0:0:0:
192,192,87752,1,0,0:0:0:0:
64,192,87813,1,0,0:0:0:0:
320,192,87813,1,0,0:0:0:0:
448,192,87875,1,0,0:0:0:0:
192,192,87937,1,0,0:0:0:0:
64,192,87937,1,0,0:0:0:0:
320,192,87998,1,0,0:0:0:0:
192,192,88060,1,0,0:0:0:0:
64,192,88060,1,0,0:0:0:0:
448,192,88060,1,0,0:0:0:0:
320,192,88122,1,0,0:0:0:0:
192,192,88184,1,0,0:0:0:0:
448,192,88184,1,0,0:0:0:0:
64,192,88245,1,0,0:0:0:0:
320,192,88245,1,0,0:0:0:0:
448,192,88307,1,0,0:0:0:0:
192,192,88369,1,0,0:0:0:0:
320,192,88430,1,0,0:0:0:0:
448,192,88430,1,0,0:0:0:0:
64,192,88492,1,0,0:0:0:0:
192,192,88554,1,0,0:0:0:0:
448,192,88554,1,0,0:0:0:0:
320,192,88616,1,0,0:0:0:0:
192,192,88677,1,0,0:0:0:0:
64,192,88677,1,0,0:0:0:0:
320,192,88739,1,0,0:0:0:0:
192,192,88801,1,0,0:0:0:0:
448,192,88801,1,0,0:0:0:0:
64,192,88862,1,0,0:0:0:0:
320,192,88924,1,0,0:0:0:0:
448,192,88924,1,0,0:0:0:0:
64,192,88986,1,0,0:0:0:0:
192,192,89047,1,0,0:0:0:0:
320,192,89047,1,0,0:0:0:0:
448,192,89047,1,0,0:0:0:0:
64,192,89109,1,0,0:0:0:0:
320,192,89171,1,0,0:0:0:0:
448,192,89171,1,0,0:0:0:0:
192,192,89233,1,0,0:0:0:0:
64,192,89233,1,0,0:0:0:0:
320,192,89294,1,0,0:0:0:0:
192,192,89356,1,0,0:0:0:0:
320,192,89418,1,0,0:0:0:0:
448,192,89418,1,0,0:0:0:0:
192,192,89479,1,0,0:0:0:0:
64,192,89541,1,0,0:0:0:0:
320,192,89541,1,0,0:0:0:0:
192,192,89603,1,0,0:0:0:0:
448,192,89603,1,0,0:0:0:0:
64,192,89665,1,0,0:0:0:0:
192,192,89726,1,0,0:0:0:0:
320,192,89788,1,0,0:0:0:0:
448,192,89788,1,0,0:0:0:0:
192,192,89850,1,0,0:0:0:0:
64,192,89911,1,0,0:0:0:0:
320,192,89911,1,0,0:0:0:0:
448,192,89973,1,0,0:0:0:0:
320,192,90035,1,0,0:0:0:0:
192,192,90035,1,0,0:0:0:0:
64,192,90035,1,0,0:0:0:0:
448,192,90096,1,0,0:0:0:0:
192,192,90158,1,0,0:0:0:0:
64,192,90158,1,0,0:0:0:0:
320,192,90220,1,0,0:0:0:0:
192,192,90282,1,0,0:0:0:0:
448,192,90282,1,0,0:0:0:0:
320,192,90343,1,0,0:0:0:0:
64,192,90343,1,0,0:0:0:0:
448,192,90405,1,0,0:0:0:0:
320,192,90467,1,0,0:0:0:0:
192,192,90528,1,0,0:0:0:0:
64,192,90528,1,0,0:0:0:0:
320,192,90590,1,0,0:0:0:0:
192,192,90652,1,0,0:0:0:0:
448,192,90652,1,0,0:0:0:0:
64,192,90714,1,0,0:0:0:0:
320,192,90775,1,0,0:0:0:0:
448,192,90775,1,0,0:0:0:0:
192,192,90837,1,0,0:0:0:0:
64,192,90837,1,0,0:0:0:0:
320,192,90899,1,0,0:0:0:0:
192,192,90960,1,0,0:0:0:0:
64,192,91022,1,0,0:0:0:0:
320,192,91022,1,0,0:0:0:0:
448,192,91022,1,0,0:0:0:0:
192,192,91084,1,0,0:0:0:0:
320,192,91145,1,0,0:0:0:0:
192,192,91207,1,0,0:0:0:0:
320,192,91269,1,0,0:0:0:0:
448,192,91269,1,0,0:0:0:0:
64,192,91331,1,0,0:0:0:0:
192,192,91392,1,0,0:0:0:0:
320,192,91454,1,0,0:0:0:0:
192,192,91516,1,0,0:0:0:0:
448,192,91516,1,0,0:0:0:0:
64,192,91577,1,0,0:0:0:0:
192,192,91639,1,0,0:0:0:0:
320,192,91701,1,0,0:0:0:0:
192,192,91763,1,0,0:0:0:0:
64,192,91763,1,0,0:0:0:0:
320,192,91824,1,0,0:0:0:0:
192,192,91886,1,0,0:0:0:0:
448,192,91886,1,0,0:0:0:0:
64,192,91948,1,0,0:0:0:0:
192,192,92009,1,0,0:0:0:0:
320,192,92009,1,0,0:0:0:0:
448,192,92009,1,0,0:0:0:0:
64,192,92071,1,0,0:0:0:0:
320,192,92133,1,0,0:0:0:0:
448,192,92133,1,0,0:0:0:0:
192,192,92194,1,0,0:0:0:0:
64,192,92256,1,0,0:0:0:0:
320,192,92256,1,0,0:0:0:0:
448,192,92318,1,0,0:0:0:0:
320,192,92380,1,0,0:0:0:0:
192,192,92441,1,0,0:0:0:0:
320,192,92503,1,0,0:0:0:0:
448,192,92503,1,0,0:0:0:0:
64,192,92565,1,0,0:0:0:0:
192,192,92626,1,0,0:0:0:0:
448,192,92626,1,0,0:0:0:0:
320,192,92688,1,0,0:0:0:0:
192,192,92750,1,0,0:0:0:0:
64,192,92750,1,0,0:0:0:0:
320,192,92812,1,0,0:0:0:0:
448,192,92812,1,0,0:0:0:0:
192,192,92873,1,0,0:0:0:0:
64,192,92873,1,0,0:0:0:0:
448,192,92935,1,0,0:0:0:0:
320,192,92935,1,0,0:0:0:0:
192,192,92997,1,0,0:0:0:0:
64,192,92997,1,0,0:0:0:0:
448,192,92997,1,0,0:0:0:0:
320,192,93058,1,0,0:0:0:0:
192,192,93120,1,0,0:0:0:0:
64,192,93120,1,0,0:0:0:0:
320,192,93182,1,0,0:0:0:0:
448,192,93182,1,0,0:0:0:0:
192,192,93243,1,0,0:0:0:0:
320,192,93305,1,0,0:0:0:0:
192,192,93367,1,0,0:0:0:0:
448,192,93367,1,0,0:0:0:0:
64,192,93429,1,0,0:0:0:0:
320,192,93490,1,0,0:0:0:0:
448,192,93490,1,0,0:0:0:0:
192,192,93552,1,0,0:0:0:0:
64,192,93552,1,0,0:0:0:0:
320,192,93614,1,0,0:0:0:0:
192,192,93675,1,0,0:0:0:0:
64,192,93737,1,0,0:0:0:0:
320,192,93737,1,0,0:0:0:0:
448,192,93799,1,0,0:0:0:0:
192,192,93861,1,0,0:0:0:0:
64,192,93861,1,0,0:0:0:0:
320,192,93922,1,0,0:0:0:0:
448,192,93922,1,0,0:0:0:0:
192,192,93984,1,0,0:0:0:0:
64,192,93984,1,0,0:0:0:0:
320,192,94046,1,0,0:0:0:0:
192,192,94107,1,0,0:0:0:0:
64,192,94107,1,0,0:0:0:0:
320,192,94169,1,0,0:0:0:0:
192,192,94231,1,0,0:0:0:0:
448,192,94231,1,0,0:0:0:0:
320,192,94292,1,0,0:0:0:0:
64,192,94292,1,0,0:0:0:0:
448,192,94354,1,0,0:0:0:0:
320,192,94416,1,0,0:0:0:0:
192,192,94478,1,0,0:0:0:0:
64,192,94478,1,0,0:0:0:0:
320,192,94539,1,0,0:0:0:0:
192,192,94601,1,0,0:0:0:0:
448,192,94601,1,0,0:0:0:0:
64,192,94663,1,0,0:0:0:0:
320,192,94724,1,0,0:0:0:0:
448,192,94724,1,0,0:0:0:0:
192,192,94786,1,0,0:0:0:0:
64,192,94786,1,0,0:0:0:0:
320,192,94848,1,0,0:0:0:0:
192,192,94910,1,0,0:0:0:0:
64,192,94971,1,0,0:0:0:0:
320,192,94971,1,0,0:0:0:0:
448,192,94971,1,0,0:0:0:0:
192,192,95033,1,0,0:0:0:0:
320,192,95095,1,0,0:0:0:0:
192,192,95156,1,0,0:0:0:0:
320,192,95218,1,0,0:0:0:0:
448,192,95218,1,0,0:0:0:0:
64,192,95280,1,0,0:0:0:0:
192,192,95341,1,0,0:0:0:0:
320,192,95403,1,0,0:0:0:0:
192,192,95465,1,0,0:0:0:0:
64,192,95465,1,0,0:0:0:0:
320,192,95527,1,0,0:0:0:0:
448,192,95588,1,0,0:0:0:0:
320,192,95650,1,0,0:0:0:0:
192,192,95712,1,0,0:0:0:0:
64,192,95712,1,0,0:0:0:0:
320,192,95773,1,0,0:0:0:0:
192,192,95835,1,0,0:0:0:0:
448,192,95835,1,0,0:0:0:0:
64,192,95897,1,0,0:0:0:0:
192,192,95958,1,0,0:0:0:0:
320,192,95958,1,0,0:0:0:0:
448,192,95958,1,0,0:0:0:0:
64,192,96020,1,0,0:0:0:0:
320,192,96082,1,0,0:0:0:0:
448,192,96082,1,0,0:0:0:0:
192,192,96144,1,0,0:0:0:0:
64,192,96144,1,0,0:0:0:0:
320,192,96205,1,0,0:0:0:0:
448,192,96267,1,0,0:0:0:0:
320,192,96329,1,0,0:0:0:0:
192,192,96390,1,0,0:0:0:0:
64,192,96452,1,0,0:0:0:0:
320,192,96452,1,0,0:0:0:0:
448,192,96514,1,0,0:0:0:0:
192,192,96576,1,0,0:0:0:0:
64,192,96576,1,0,0:0:0:0:
320,192,96637,1,0,0:0:0:0:
192,192,96699,1,0,0:0:0:0:
64,192,96699,1,0,0:0:0:0:
448,192,96761,1,0,0:0:0:0:
320,192,96822,1,0,0:0:0:0:
64,192,96822,1,0,0:0:0:0:
192,192,96884,1,0,0:0:0:0:
64,192,96946,1,0,0:0:0:0:
320,192,96946,1,0,0:0:0:0:
448,192,96946,1,0,0:0:0:0:
192,192,97007,1,0,0:0:0:0:
320,192,97069,1,0,0:0:0:0:
448,192,97069,1,0,0:0:0:0:
192,192,97131,1,0,0:0:0:0:
64,192,97131,1,0,0:0:0:0:
320,192,97193,1,0,0:0:0:0:
192,192,97254,1,0,0:0:0:0:
320,192,97316,1,0,0:0:0:0:
448,192,97316,1,0,0:0:0:0:
64,192,97378,1,0,0:0:0:0:
192,192,97439,1,0,0:0:0:0:
448,192,97439,1,0,0:0:0:0:
320,192,97501,1,0,0:0:0:0:
64,192,97501,1,0,0:0:0:0:
448,192,97563,1,0,0:0:0:0:
320,192,97625,1,0,0:0:0:0:
192,192,97686,1,0,0:0:0:0:
64,192,97686,1,0,0:0:0:0:
448,192,97748,1,0,0:0:0:0:
64,192,97810,1,0,0:0:0:0:
192,192,97810,1,0,0:0:0:0:
320,192,97871,1,0,0:0:0:0:
192,192,97933,1,0,0:0:0:0:
64,192,97933,1,0,0:0:0:0:
448,192,97933,1,0,0:0:0:0:
320,192,97995,1,0,0:0:0:0:
192,192,98056,1,0,0:0:0:0:
64,192,98056,1,0,0:0:0:0:
448,192,98118,1,0,0:0:0:0:
320,192,98180,1,0,0:0:0:0:
64,192,98180,1,0,0:0:0:0:
192,192,98242,1,0,0:0:0:0:
448,192,98242,1,0,0:0:0:0:
64,192,98303,1,0,0:0:0:0:
192,192,98365,1,0,0:0:0:0:
320,192,98427,1,0,0:0:0:0:
448,192,98427,1,0,0:0:0:0:
192,192,98488,1,0,0:0:0:0:
64,192,98550,1,0,0:0:0:0:
320,192,98550,1,0,0:0:0:0:
448,192,98612,1,0,0:0:0:0:
192,192,98674,1,0,0:0:0:0:
64,192,98674,1,0,0:0:0:0:
320,192,98735,1,0,0:0:0:0:
448,192,98735,1,0,0:0:0:0:
192,192,98797,1,0,0:0:0:0:
320,192,98859,1,0,0:0:0:0:
192,192,98920,1,0,0:0:0:0:
64,192,98920,1,0,0:0:0:0:
448,192,98920,1,0,0:0:0:0:
320,192,98982,1,0,0:0:0:0:
192,192,99044,1,0,0:0:0:0:
64,192,99105,1,0,0:0:0:0:
192,192,99167,1,0,0:0:0:0:
448,192,99167,1,0,0:0:0:0:
320,192,99229,1,0,0:0:0:0:
192,192,99291,1,0,0:0:0:0:
320,192,99352,1,0,0:0:0:0:
192,192,99414,1,0,0:0:0:0:
64,192,99414,1,0,0:0:0:0:
320,192,99476,1,0,0:0:0:0:
448,192,99537,1,0,0:0:0:0:
320,192,99599,1,0,0:0:0:0:
192,192,99661,1,0,0:0:0:0:
64,192,99661,1,0,0:0:0:0:
320,192,99723,1,0,0:0:0:0:
192,192,99784,1,0,0:0:0:0:
448,192,99784,1,0,0:0:0:0:
64,192,99846,1,0,0:0:0:0:
192,192,99908,1,0,0:0:0:0:
320,192,99908,1,0,0:0:0:0:
448,192,99908,1,0,0:0:0:0:
64,192,99969,1,0,0:0:0:0:
192,192,100031,1,0,0:0:0:0:
448,192,100031,1,0,0:0:0:0:
320,192,100093,1,0,0:0:0:0:
192,192,100154,1,0,0:0:0:0:
64,192,100154,1,0,0:0:0:0:
320,192,100216,1,0,0:0:0:0:
192,192,100278,1,0,0:0:0:0:
64,192,100278,1,0,0:0:0:0:
448,192,100340,1,0,0:0:0:0:
192,192,100401,1,0,0:0:0:0:
64,192,100401,1,0,0:0:0:0:
320,192,100463,1,0,0:0:0:0:
192,192,100525,1,0,0:0:0:0:
448,192,100525,1,0,0:0:0:0:
64,192,100586,1,0,0:0:0:0:
320,192,100648,1,0,0:0:0:0:
448,192,100648,1,0,0:0:0:0:
192,192,100710,1,0,0:0:0:0:
64,192,100710,1,0,0:0:0:0:
320,192,100772,1,0,0:0:0:0:
448,192,100772,1,0,0:0:0:0:
192,192,100833,1,0,0:0:0:0:
64,192,100833,1,0,0:0:0:0:
320,192,100895,1,0,0:0:0:0:
448,192,100895,1,0,0:0:0:0:
64,192,100895,1,0,0:0:0:0:
192,192,100957,1,0,0:0:0:0:
64,192,101018,1,0,0:0:0:0:
192,192,101080,1,0,0:0:0:0:
320,192,101142,1,0,0:0:0:0:
448,192,101142,1,0,0:0:0:0:
64,192,101203,1,0,0:0:0:0:
192,192,101265,1,0,0:0:0:0:
320,192,101327,1,0,0:0:0:0:
192,192,101389,1,0,0:0:0:0:
448,192,101389,1,0,0:0:0:0:
64,192,101450,1,0,0:0:0:0:
192,192,101512,1,0,0:0:0:0:
320,192,101574,1,0,0:0:0:0:
192,192,101635,1,0,0:0:0:0:
64,192,101635,1,0,0:0:0:0:
320,192,101697,1,0,0:0:0:0:
192,192,101759,1,0,0:0:0:0:
64,192,101759,1,0,0:0:0:0:
320,192,101821,1,0,0:0:0:0:
448,192,101821,1,0,0:0:0:0:
192,192,101882,1,0,0:0:0:0:
64,192,101882,1,0,0:0:0:0:
448,192,101882,1,0,0:0:0:0:
320,192,101944,1,0,0:0:0:0:
192,192,102006,1,0,0:0:0:0:
64,192,102067,1,0,0:0:0:0:
192,192,102129,1,0,0:0:0:0:
448,192,102129,1,0,0:0:0:0:
320,192,102191,1,0,0:0:0:0:
192,192,102252,1,0,0:0:0:0:
320,192,102314,1,0,0:0:0:0:
192,192,102376,1,0,0:0:0:0:
64,192,102376,1,0,0:0:0:0:
448,192,102438,1,0,0:0:0:0:
64,192,102499,1,0,0:0:0:0:
320,192,102561,1,0,0:0:0:0:
192,192,102623,1,0,0:0:0:0:
64,192,102623,1,0,0:0:0:0:
448,192,102684,1,0,0:0:0:0:
64,192,102746,1,0,0:0:0:0:
320,192,102808,1,0,0:0:0:0:
192,192,102870,1,0,0:0:0:0:
64,192,102870,1,0,0:0:0:0:
448,192,102870,128,0,103055:0:0:0:0:
320,192,102931,1,0,0:0:0:0:
192,192,102993,1,0,0:0:0:0:
64,192,103055,128,0,103240:0:0:0:0:
320,192,103055,1,0,0:0:0:0:
448,192,103116,1,0,0:0:0:0:
192,192,103178,1,0,0:0:0:0:
320,192,103240,128,0,103363:0:0:0:0:
448,192,103240,1,0,0:0:0:0:
192,192,103301,1,0,0:0:0:0:
64,192,103363,128,0,103548:0:0:0:0:
448,192,103363,1,0,0:0:0:0:
320,192,103425,1,0,0:0:0:0:
192,192,103487,1,0,0:0:0:0:
448,192,103548,128,0,103733:0:0:0:0:
320,192,103548,1,0,0:0:0:0:
192,192,103610,1,0,0:0:0:0:
64,192,103672,1,0,0:0:0:0:
192,192,103733,128,0,103857:0:0:0:0:
320,192,103733,1,0,0:0:0:0:
64,192,103795,1,0,0:0:0:0:
448,192,103857,128,0,104042:0:0:0:0:
320,192,103857,1,0,0:0:0:0:
64,192,103919,1,0,0:0:0:0:
192,192,103980,1,0,0:0:0:0:
64,192,104042,128,0,104227:0:0:0:0:
320,192,104042,1,0,0:0:0:0:
448,192,104104,1,0,0:0:0:0:
320,192,104165,1,0,0:0:0:0:
448,192,104227,128,0,104474:0:0:0:0:
192,192,104227,1,0,0:0:0:0:
320,192,104289,1,0,0:0:0:0:
192,192,104350,1,0,0:0:0:0:
64,192,104412,1,0,0:0:0:0:
192,192,104474,1,0,0:0:0:0:
320,192,104474,1,0,0:0:0:0:
64,192,104536,1,0,0:0:0:0:
448,192,104597,1,0,0:0:0:0:
320,192,104597,1,0,0:0:0:0:
64,192,104659,1,0,0:0:0:0:
320,192,104721,1,0,0:0:0:0:
448,192,104721,1,0,0:0:0:0:
192,192,104782,1,0,0:0:0:0:
64,192,104844,1,0,0:0:0:0:
320,192,104844,1,0,0:0:0:0:
448,192,104844,1,0,0:0:0:0:
192,192,104906,1,0,0:0:0:0:
64,192,104968,1,0,0:0:0:0:
192,192,105029,1,0,0:0:0:0:
320,192,105091,1,0,0:0:0:0:
448,192,105091,1,0,0:0:0:0:
64,192,105153,1,0,0:0:0:0:
320,192,105214,1,0,0:0:0:0:
448,192,105214,1,0,0:0:0:0:
192,192,105276,1,0,0:0:0:0:
320,192,105338,1,0,0:0:0:0:
448,192,105338,1,0,0:0:0:0:
64,192,105399,1,0,0:0:0:0:
192,192,105461,1,0,0:0:0:0:
448,192,105461,1,0,0:0:0:0:
64,192,105523,1,0,0:0:0:0:
320,192,105585,1,0,0:0:0:0:
448,192,105585,1,0,0:0:0:0:
64,192,105646,1,0,0:0:0:0:
192,192,105708,1,0,0:0:0:0:
448,192,105708,1,0,0:0:0:0:
64,192,105770,1,0,0:0:0:0:
192,192,105831,1,0,0:0:0:0:
320,192,105831,1,0,0:0:0:0:
448,192,105831,1,0,0:0:0:0:
64,192,105893,1,0,0:0:0:0:
192,192,105955,1,0,0:0:0:0:
320,192,106017,1,0,0:0:0:0:
192,192,106078,1,0,0:0:0:0:
448,192,106078,1,0,0:0:0:0:
64,192,106140,1,0,0:0:0:0:
192,192,106202,1,0,0:0:0:0:
320,192,106202,1,0,0:0:0:0:
448,192,106263,1,0,0:0:0:0:
64,192,106325,1,0,0:0:0:0:
320,192,106325,1,0,0:0:0:0:
192,192,106387,1,0,0:0:0:0:
320,192,106448,1,0,0:0:0:0:
448,192,106448,1,0,0:0:0:0:
64,192,106510,1,0,0:0:0:0:
320,192,106572,1,0,0:0:0:0:
448,192,106572,1,0,0:0:0:0:
192,192,106634,1,0,0:0:0:0:
320,192,106695,1,0,0:0:0:0:
64,192,106695,1,0,0:0:0:0:
448,192,106757,1,0,0:0:0:0:
192,192,106819,1,0,0:0:0:0:
320,192,106819,1,0,0:0:0:0:
64,192,106819,1,0,0:0:0:0:
448,192,106880,1,0,0:0:0:0:
320,192,106942,1,0,0:0:0:0:
192,192,107004,1,0,0:0:0:0:
64,192,107065,1,0,0:0:0:0:
320,192,107065,1,0,0:0:0:0:
448,192,107127,1,0,0:0:0:0:
320,192,107189,1,0,0:0:0:0:
192,192,107189,1,0,0:0:0:0:
64,192,107251,1,0,0:0:0:0:
320,192,107312,1,0,0:0:0:0:
448,192,107312,1,0,0:0:0:0:
192,192,107312,1,0,0:0:0:0:
64,192,107374,1,0,0:0:0:0:
192,192,107436,1,0,0:0:0:0:
320,192,107497,1,0,0:0:0:0:
192,192,107559,1,0,0:0:0:0:
64,192,107559,1,0,0:0:0:0:
320,192,107621,1,0,0:0:0:0:
192,192,107683,1,0,0:0:0:0:
448,192,107683,1,0,0:0:0:0:
64,192,107744,1,0,0:0:0:0:
192,192,107806,1,0,0:0:0:0:
320,192,107806,1,0,0:0:0:0:
448,192,107806,1,0,0:0:0:0:
64,192,107868,1,0,0:0:0:0:
320,192,107929,1,0,0:0:0:0:
448,192,107929,1,0,0:0:0:0:
192,192,107991,1,0,0:0:0:0:
64,192,107991,1,0,0:0:0:0:
320,192,108053,1,0,0:0:0:0:
192,192,108114,1,0,0:0:0:0:
448,192,108114,1,0,0:0:0:0:
64,192,108176,1,0,0:0:0:0:
320,192,108176,1,0,0:0:0:0:
192,192,108238,1,0,0:0:0:0:
320,192,108300,1,0,0:0:0:0:
448,192,108300,1,0,0:0:0:0:
192,192,108361,1,0,0:0:0:0:
64,192,108361,1,0,0:0:0:0:
320,192,108423,1,0,0:0:0:0:
448,192,108423,1,0,0:0:0:0:
192,192,108485,1,0,0:0:0:0:
64,192,108485,1,0,0:0:0:0:
320,192,108546,1,0,0:0:0:0:
64,192,108608,1,0,0:0:0:0:
448,192,108608,1,0,0:0:0:0:
192,192,108670,1,0,0:0:0:0:
320,192,108670,1,0,0:0:0:0:
64,192,108732,1,0,0:0:0:0:
448,192,108732,1,0,0:0:0:0:
192,192,108793,1,0,0:0:0:0:
320,192,108793,1,0,0:0:0:0:
448,192,108855,1,0,0:0:0:0:
320,192,108917,1,0,0:0:0:0:
64,192,108917,1,0,0:0:0:0:
192,192,108978,1,0,0:0:0:0:
320,192,109040,1,0,0:0:0:0:
448,192,109040,1,0,0:0:0:0:
64,192,109040,1,0,0:0:0:0:
192,192,109102,1,0,0:0:0:0:
320,192,109163,1,0,0:0:0:0:
448,192,109163,1,0,0:0:0:0:
64,192,109225,1,0,0:0:0:0:
192,192,109287,1,0,0:0:0:0:
320,192,109287,1,0,0:0:0:0:
448,192,109287,1,0,0:0:0:0:
64,192,109349,1,0,0:0:0:0:
192,192,109410,1,0,0:0:0:0:
448,192,109410,1,0,0:0:0:0:
320,192,109472,1,0,0:0:0:0:
192,192,109534,1,0,0:0:0:0:
64,192,109534,1,0,0:0:0:0:
448,192,109534,1,0,0:0:0:0:
320,192,109595,1,0,0:0:0:0:
192,192,109657,1,0,0:0:0:0:
64,192,109657,1,0,0:0:0:0:
320,192,109719,1,0,0:0:0:0:
192,192,109781,1,0,0:0:0:0:
448,192,109781,1,0,0:0:0:0:
64,192,109842,1,0,0:0:0:0:
192,192,109904,1,0,0:0:0:0:
320,192,109904,1,0,0:0:0:0:
448,192,109904,1,0,0:0:0:0:
64,192,109966,1,0,0:0:0:0:
320,192,110027,1,0,0:0:0:0:
448,192,110027,1,0,0:0:0:0:
192,192,110089,1,0,0:0:0:0:
64,192,110089,1,0,0:0:0:0:
320,192,110151,1,0,0:0:0:0:
192,192,110212,1,0,0:0:0:0:
64,192,110274,1,0,0:0:0:0:
448,192,110274,1,0,0:0:0:0:
320,192,110274,1,0,0:0:0:0:
192,192,110305,1,0,0:0:0:0:
448,192,110336,1,0,0:0:0:0:
320,192,110367,1,0,0:0:0:0:
64,192,110398,1,0,0:0:0:0:
192,192,110428,1,0,0:0:0:0:
448,192,110459,1,0,0:0:0:0:
320,192,110490,1,0,0:0:0:0:
192,192,110521,1,0,0:0:0:0:
64,192,110521,128,0,112742:0:0:0:0:
