osu file format v14

[General]
AudioFilename: Megumi Hayashibara - Breeze.mp3
AudioLeadIn: 0
PreviewTime: -1
Countdown: 1
SampleSet: None
StackLeniency: 0.7
Mode: 0
LetterboxInBreaks: 1
WidescreenStoryboard: 1

[Editor]
Bookmarks: 63268,117216,120050,131892
DistanceSpacing: 0.7
BeatDivisor: 4
GridSize: 8
TimelineZoom: 1.3

[Metadata]
Title:Breeze
TitleUnicode:Breeze
Artist:Megumi Hayashibara
ArtistUnicode:林原めぐみ
Creator:KagamineRin02
Version:Inverse
Source:Slayers
Tags:op,project,anime,sureiyaazu,02,Lina Inverse
BeatmapID:505510
BeatmapSetID:215216

[Difficulty]
HPDrainRate:8
CircleSize:3.5
OverallDifficulty:9
ApproachRate:9.4
SliderMultiplier:2.1
SliderTickRate:1

[Events]
//Background and Video events
0,0,"1612xLina.Inverse.full.1289567_fb.jpg",0,0
//Break Periods
2,97577,108781
2,165594,177809
//Storyboard Layer 0 (Background)
//Storyboard Layer 1 (Fail)
//Storyboard Layer 2 (Pass)
//Storyboard Layer 3 (Foreground)
//Storyboard Sound Samples

[TimingPoints]
212,404.858299595142,4,2,0,100,1,0
11682,-133.333333333333,4,3,3,100,0,0
22884,-117.647058823529,4,3,2,100,0,0
29564,-117.647058823529,4,3,3,100,0,0
41507,-117.647058823529,4,3,1,100,0,0
42722,-117.647058823529,4,3,2,100,0,0
51831,-100,4,3,2,100,0,0
54463,-100,4,3,1,100,0,0
56892,-100,4,3,1,100,0,0
69847,-80,4,3,0,100,0,1
97377,-100,4,3,2,75,0,0
117216,-100,4,3,1,75,0,0
129766,-100,4,3,1,75,0,0
137458,-100,4,3,1,100,0,0
137863,-80,4,3,0,100,0,1
163167,-66.6666666666667,4,3,0,100,0,1
163369,-57.1428571428571,4,3,0,100,0,1
163572,-50,4,3,0,100,0,1
165394,-200,4,3,0,75,0,0
178349,-166.666666666667,4,2,0,75,0,0
181588,-142.857142857143,4,2,0,75,0,0
184827,-125,4,3,0,75,0,0
188066,-111.111111111111,4,3,0,75,0,0
191305,-100,4,3,0,75,0,0
194543,-133.333333333333,4,2,0,50,0,0
194543,-133.333333333333,4,2,0,30,0,0
196973,-200,4,2,0,50,0,0
197782,-133.333333333333,4,2,0,50,0,0
200212,-200,4,2,0,50,0,0
201021,-133.333333333333,4,3,0,50,0,0
203653,-100,4,3,0,75,0,0
208714,-100,4,3,0,100,0,0
209118,-80,4,3,0,100,0,1
236649,-100,4,3,0,75,0,0
242722,-79.9999999999999,4,3,0,75,0,0
243126,-100,4,3,0,75,0,0
247985,-100,4,3,0,85,0,0
249503,-80,4,3,0,80,0,0
251224,-66.6666666666667,4,3,0,80,0,0
251527,-80,4,3,0,80,0,0
251932,-100,4,3,0,70,0,0
252539,-133.333333333333,4,3,0,60,0,0
252843,-200,4,3,0,50,0,0

[Colours]
Combo1 : 155,55,255
Combo2 : 255,128,64
Combo3 : 243,231,78
Combo4 : 255,85,85

[HitObjects]
64,224,11682,5,0,0:0:0:0:
448,320,12020,1,0,0:0:0:0:
352,32,12357,1,0,0:0:0:0:
176,96,13167,5,8,0:0:0:0:
336,192,13369,2,0,L|384:192,1,39.3750015020371
144,288,13774,1,0,0:0:0:0:
112,304,13875,1,0,0:0:0:0:
80,304,13977,1,0,0:0:0:0:
400,160,14280,1,0,0:0:0:0:
112,112,14584,1,0,0:0:0:0:
336,304,14786,1,8,0:0:0:0:
240,48,14989,6,0,L|304:48,1,39.3750015020371
432,176,15292,2,0,L|464:224,2,39.3750015020371,0|0|0,0:0|0:0|0:0,0:0:0:0:
256,304,15596,1,0,0:0:0:0:
64,176,15866,1,0,0:0:0:0:
448,176,16136,1,0,0:0:0:0:
128,176,16406,5,8,0:0:0:0:
272,176,16608,2,0,L|336:160,1,39.3750015020371
48,176,16912,2,0,L|0:160,1,39.3750015020371,0|0,0:0|0:0,0:0:0:0:
240,144,17216,2,0,L|176:128,1,39.3750015020371
464,128,17519,2,0,L|512:112,1,39.3750015020371
384,160,17823,1,0,0:0:0:0:
144,96,18025,5,8,0:0:0:0:
64,80,18228,2,0,L|0:64,1,39.3750015020371
368,272,18531,2,0,L|432:288,2,39.3750015020371,0|0|0,0:0|0:0|0:0,0:0:0:0:
176,224,18835,1,0,0:0:0:0:
400,80,19105,1,0,0:0:0:0:
208,48,19375,1,0,0:0:0:0:
32,80,19645,5,8,0:0:0:0:
480,288,20050,1,8,0:0:0:0:
184,48,20454,1,8,0:0:0:0:
336,336,20859,1,8,0:0:0:0:
336,48,21264,1,8,0:0:0:0:
184,336,21669,1,8,0:0:0:0:
480,80,22074,1,8,0:0:0:0:
32,288,22479,1,8,0:0:0:0:
320,96,22884,6,0,L|400:32,1,89.2500017023087
440,192,23288,2,0,L|328:192,1,89.2500017023087,8|0,0:0|0:0,0:0:0:0:
72,192,23693,2,0,L|200:192,1,89.2500017023087,0|0,0:0|0:0,0:0:0:0:
168,272,24098,2,0,L|88:352,1,89.2500017023087,8|0,0:0|0:0,0:0:0:0:
168,112,24503,2,0,L|72:40,1,89.2500017023087
344,280,24908,2,0,L|440:360,1,89.2500017023087,8|0,0:0|0:0,0:0:0:0:
176,128,25313,2,0,L|48:112,1,89.2500017023087
336,256,25718,2,0,L|448:272,1,89.2500017023087,8|0,0:0|0:0,0:0:0:0:
160,256,26122,5,0,0:0:0:0:
112,272,26325,1,0,0:0:0:0:
352,128,26527,1,8,0:0:0:0:
400,112,26730,1,0,0:0:0:0:
192,288,26932,1,0,0:0:0:0:
160,320,27135,1,0,0:0:0:0:
320,96,27337,1,8,0:0:0:0:
352,64,27539,1,0,0:0:0:0:
24,144,27742,5,8,0:0:0:0:
56,160,27843,1,0,0:0:0:0:
88,176,27944,1,0,0:0:0:0:
136,160,28046,1,0,0:0:0:0:
184,176,28147,1,8,0:0:0:0:
232,192,28248,1,0,0:0:0:0:
280,192,28349,1,0,0:0:0:0:
328,176,28450,1,0,0:0:0:0:
376,160,28552,1,8,0:0:0:0:
424,176,28653,1,0,0:0:0:0:
456,160,28754,1,0,0:0:0:0:
488,144,28855,1,0,0:0:0:0:
360,64,28956,6,8,P|408:64|424:80,1,44.6250008511543
256,64,29159,1,8,0:0:0:0:
152,64,29260,2,8,P|104:64|88:80,1,44.6250008511543
416,256,29564,6,0,L|480:272,1,44.6250008511543,0|0,0:0|0:0,0:0:0:0:
224,256,29766,2,0,L|160:272,2,44.6250008511543,8|0|0,0:0|0:0|0:0,0:0:0:0:
320,144,30171,1,8,0:0:0:0:
208,48,30373,2,0,L|160:32,1,44.6250008511543
432,48,30576,2,0,L|512:16,2,44.6250008511543,8|0|0,0:0|0:0|0:0,0:0:0:0:
16,48,30981,5,8,0:0:0:0:
176,160,31183,2,0,L|224:144,2,44.6250008511543,0|0|8,0:0|0:0|0:0,0:0:0:0:
368,288,31588,1,0,0:0:0:0:
144,288,31790,1,8,0:0:0:0:
336,160,31993,2,0,L|288:144,2,44.6250008511543,0|0|8,0:0|0:0|0:0,0:0:0:0:
512,48,32398,5,0,0:0:0:0:
464,64,32499,1,0,0:0:0:0:
416,48,32600,2,0,L|384:48|320:48,1,89.2500017023087,8|0,0:0|0:0,0:0:0:0:
128,48,32904,1,0,0:0:0:0:
176,64,33005,1,8,0:0:0:0:
224,48,33106,1,0,0:0:0:0:
272,64,33208,1,0,0:0:0:0:
416,160,33410,6,0,P|400:112|352:80,1,89.2500017023087,8|0,0:0|0:0,0:0:0:0:
96,224,33815,2,0,P|112:272|160:304,1,89.2500017023087,8|0,0:0|0:0,0:0:0:0:
320,64,34220,1,8,0:0:0:0:
192,320,34422,1,0,0:0:0:0:
256,336,34523,1,0,0:0:0:0:
320,320,34624,1,8,0:0:0:0:
128,208,34827,5,0,0:0:0:0:
384,208,35029,1,8,0:0:0:0:
160,96,35232,1,0,0:0:0:0:
208,96,35333,1,0,0:0:0:0:
256,80,35434,1,8,0:0:0:0:
304,96,35535,1,0,0:0:0:0:
352,96,35637,1,0,0:0:0:0:
416,240,35839,5,8,0:0:0:0:
80,240,36041,1,0,0:0:0:0:
96,208,36143,1,0,0:0:0:0:
128,192,36244,2,0,B|160:160|160:160|176:112|176:112|192:128|192:128|272:64,2,178.500003404617,8|8|8,0:0|0:0|0:0,0:0:0:0:
336,32,37256,1,0,0:0:0:0:
256,208,37458,2,0,B|288:224|288:224|288:256|288:256|304:288,1,89.2500017023087,8|0,0:0|0:0,0:0:0:0:
336,272,37762,1,0,0:0:0:0:
352,240,37863,1,8,0:0:0:0:
368,216,37965,1,0,0:0:0:0:
400,208,38066,1,0,0:0:0:0:
64,48,38268,6,0,B|128:48|128:48|160:96,1,89.2500017023087,8|0,0:0|0:0,0:0:0:0:
224,272,38673,2,0,B|160:272|160:272|160:272|160:272|128:224,1,89.2500017023087,8|0,0:0|0:0,0:0:0:0:
496,80,39078,1,8,0:0:0:0:
336,272,39280,2,0,L|416:288,1,44.6250008511543
416,176,39483,2,0,L|480:192,2,44.6250008511543,8|0|0,0:0|0:0|0:0,0:0:0:0:
304,160,39888,2,0,B|240:160|240:160|224:176|224:176|208:160|208:160|192:160|192:160|128:160,1,178.500003404617,8|8,0:0|0:0,0:0:0:0:
384,160,40495,1,0,0:0:0:0:
80,64,40697,2,0,B|144:64|144:64|160:48|160:48|176:64|176:64|240:64|240:64|272:64,1,178.500003404617,8|8,0:0|0:0,0:0:0:0:
0,64,41305,5,0,0:0:0:0:
416,80,41507,1,4,0:0:0:0:
384,80,41608,1,4,0:0:0:0:
352,96,41709,1,8,0:0:0:0:
320,96,41811,1,4,0:0:0:0:
288,80,41912,1,4,0:0:0:0:
256,80,42013,1,4,0:0:0:0:
224,96,42114,1,8,0:0:0:0:
192,96,42216,1,4,0:0:0:0:
160,96,42317,1,4,0:0:0:0:
16,96,42519,1,0,0:0:0:0:
464,176,42722,6,0,B|432:176|432:176|432:192|432:192|384:160|384:160|384:176|384:176|320:144,1,178.500003404617,8|0,0:0|0:0,0:0:0:0:
48,256,43531,2,0,B|64:272|64:272|64:288|64:288|80:288|80:288|128:320,1,89.2500017023087,8|0,0:0|0:0,0:0:0:0:
496,352,43936,1,0,0:0:0:0:
448,336,44037,1,0,0:0:0:0:
416,288,44139,1,0,0:0:0:0:
432,240,44240,1,0,0:0:0:0:
464,208,44341,1,8,0:0:0:0:
256,192,44543,5,0,0:0:0:0:
16,32,44746,1,0,0:0:0:0:
64,48,44847,1,0,0:0:0:0:
96,96,44948,1,0,0:0:0:0:
80,144,45050,1,0,0:0:0:0:
48,176,45151,1,8,0:0:0:0:
16,208,45353,6,0,L|80:224,1,44.6250008511543,0|0,0:0|0:0,0:0:0:0:
16,304,45556,1,0,0:0:0:0:
224,208,45657,2,0,L|144:224,1,44.6250008511543
256,160,45859,1,0,0:0:0:0:
288,208,45960,2,0,L|352:224,1,44.6250008511543,8|0,0:0|0:0,0:0:0:0:
496,304,46163,1,0,0:0:0:0:
496,208,46264,2,0,L|432:224,1,44.6250008511543
112,208,46467,2,0,L|96:256,1,44.6250008511543,0|0,0:0|0:0,0:0:0:0:
400,304,46669,2,0,L|416:256,1,44.6250008511543,0|8,0:0|0:0,0:0:0:0:
256,192,46973,5,0,0:0:0:0:
496,176,47175,2,0,L|432:160,1,44.6250008511543
496,80,47377,1,0,0:0:0:0:
288,176,47479,2,0,L|352:160,1,44.6250008511543,0|8,0:0|0:0,0:0:0:0:
256,224,47681,1,0,0:0:0:0:
224,176,47782,2,0,L|160:160,1,44.6250008511543
16,80,47985,1,0,0:0:0:0:
16,176,48086,2,0,L|80:160,1,44.6250008511543
400,80,48288,2,0,L|384:128,1,44.6250008511543,0|8,0:0|0:0,0:0:0:0:
112,176,48592,1,0,0:0:0:0:
128,144,48693,1,0,0:0:0:0:
144,112,48794,1,0,0:0:0:0:
256,192,48997,5,0,0:0:0:0:
240,160,49098,1,0,0:0:0:0:
256,128,49199,1,8,0:0:0:0:
272,96,49301,1,0,0:0:0:0:
256,64,49402,1,0,0:0:0:0:
240,32,49503,1,0,0:0:0:0:
352,48,49604,2,0,B|384:96|384:96|384:128|384:128|400:128|400:128|416:128|416:128|432:128|432:128|448:176,1,178.500003404617,0|8,0:0|0:0,0:0:0:0:
352,48,50212,1,0,0:0:0:0:
64,336,50414,2,0,B|80:288|80:288|80:288|96:288|96:288|112:288|112:288|128:288|128:288|128:288|128:288|128:256|128:256|160:208,1,178.500003404617,0|8,0:0|0:0,0:0:0:0:
64,336,51021,1,0,0:0:0:0:
464,208,51224,6,0,L|416:176,1,44.6250008511543
384,176,51426,1,0,0:0:0:0:
336,192,51527,1,0,0:0:0:0:
288,208,51629,2,0,L|256:144,1,44.6250008511543,8|0,0:0|0:0,0:0:0:0:
240,224,51831,1,0,0:0:0:0:
192,240,52033,2,0,B|128:256|128:256|96:240|96:240|96:272|96:272|96:272|96:272|32:352,1,210,0|8,0:0|0:0,0:0:0:0:
192,240,52641,1,0,0:0:0:0:
272,16,52843,2,0,B|288:64|288:64|304:96|304:96|304:96|304:96|272:96|272:96|240:208,1,210,0|8,0:0|0:0,0:0:0:0:
272,16,53450,1,0,0:0:0:0:
400,176,53653,2,0,B|432:240|432:256|432:256|416:256|416:256|416:288,1,105,8|0,0:0|0:0,0:0:0:0:
256,256,53956,1,0,0:0:0:0:
112,256,54058,2,0,B|96:192|96:176|96:176|112:176|112:176|112:144,1,105,8|0,0:0|0:0,0:0:0:0:
256,168,54361,1,0,0:0:0:0:
336,240,54463,5,4,0:0:0:0:
304,240,54564,1,4,0:0:0:0:
256,240,54665,1,8,0:0:0:0:
224,256,54766,1,4,0:0:0:0:
176,248,54867,1,4,0:0:0:0:
128,256,54969,1,4,0:0:0:0:
80,240,55070,1,8,0:0:0:0:
32,224,55171,1,4,0:0:0:0:
432,336,55272,2,0,B|464:336|448:304|448:304|480:240|480:240|432:208|432:208|448:176|416:192,1,210,0|8,0:0|0:0,0:0:0:0:
80,48,56082,2,0,B|48:48|64:80|64:80|32:144|32:144|80:176|80:176|64:208|128:176,1,210,0|8,0:0|0:0,0:0:0:0:
176,112,56892,6,0,P|112:112|64:80,1,105,0|0,0:0|0:0,0:0:0:0:
336,272,57297,2,0,P|400:272|448:304,1,105,8|0,0:0|0:0,0:0:0:0:
432,160,57701,2,0,L|496:176,1,52.5,4|4,0:0|0:0,0:0:0:0:
368,96,57904,2,0,L|432:112,1,52.5,8|4,0:0|0:0,0:0:0:0:
304,32,58106,2,0,L|400:48,2,52.5,4|4|8,0:0|0:0|0:0,0:0:0:0:
80,192,58511,6,0,B|64:128|64:128|80:128|72:96|72:96|120:96|120:96|112:80|112:80|144:32,1,210,0|8,0:0|0:0,0:0:0:0:
432,336,59321,2,0,B|448:272|448:272|432:272|440:240|440:240|392:240|392:240|400:224|400:224|368:176,1,210,0|8,0:0|0:0,0:0:0:0:
80,288,60131,1,0,0:0:0:0:
432,288,60333,1,0,0:0:0:0:
144,96,60535,1,8,0:0:0:0:
368,96,60738,1,0,0:0:0:0:
80,224,60940,6,0,L|0:208,1,52.5,4|4,0:0|0:0,0:0:0:0:
144,288,61143,2,0,L|64:272,1,52.5,8|4,0:0|0:0,0:0:0:0:
208,352,61345,2,0,L|144:336,2,52.5,4|4|8,0:0|0:0|0:0,0:0:0:0:
80,48,61750,1,0,0:0:0:0:
512,224,62155,1,8,0:0:0:0:
144,48,62560,1,0,0:0:0:0:
512,288,62965,1,8,0:0:0:0:
208,48,63369,2,0,B|256:64|272:80|272:80|288:48|288:48|304:48|304:48|320:48|320:48|432:32,1,210,0|8,0:0|0:0,0:0:0:0:
512,352,63977,1,0,0:0:0:0:
16,336,64179,5,0,0:0:0:0:
256,192,64382,1,0,0:0:0:0:
512,16,64584,1,8,0:0:0:0:
256,16,64786,1,0,0:0:0:0:
480,144,64989,6,0,B|496:80|464:32|464:32|448:32|448:32|432:32|432:32|416:32|416:32|368:32,1,210,0|8,0:0|0:0,0:0:0:0:
32,240,65799,2,0,B|16:304|48:352|48:352|64:352|64:352|80:352|80:352|96:352|96:352|160:352,1,210,0|8,0:0|0:0,0:0:0:0:
256,192,66406,12,0,67823,0:0:0:0:
464,208,68228,5,8,0:0:0:0:
48,208,68633,1,8,0:0:0:0:
384,128,68835,1,0,0:0:0:0:
144,288,69037,1,0,0:0:0:0:
96,112,69240,1,0,0:0:0:0:
416,288,69442,2,0,L|352:304,3,52.5,0|0|0|0,0:0|0:0|0:0|0:0,0:0:0:0:
192,224,69847,6,0,L|112:208,1,65.625,0|0,0:0|0:0,0:0:0:0:
96,208,70050,1,0,0:0:0:0:
304,144,70151,2,0,L|416:160,1,65.625,0|0,0:0|0:0,0:0:0:0:
400,160,70353,1,0,0:0:0:0:
176,48,70454,6,0,P|144:96|160:144,1,65.625,0|0,0:0|0:0,0:0:0:0:
96,128,70657,1,0,0:0:0:0:
112,160,70758,1,0,0:0:0:0:
128,192,70859,1,0,0:0:0:0:
352,320,70960,6,0,P|368:272|336:208,1,65.625,0|0,0:0|0:0,0:0:0:0:
432,272,71163,1,0,0:0:0:0:
416,240,71264,1,0,0:0:0:0:
400,208,71365,1,0,0:0:0:0:
32,80,71467,6,0,P|128:96|144:112,1,65.625,0|0,0:0|0:0,0:0:0:0:
304,240,71669,2,0,P|208:224|192:208,1,65.625,0|0,0:0|0:0,0:0:0:0:
64,48,71871,2,0,P|128:80|144:112,1,65.625,0|0,0:0|0:0,0:0:0:0:
272,240,72074,2,0,P|224:224|208:208,1,65.625,0|0,0:0|0:0,0:0:0:0:
192,128,72276,6,0,B|192:160|192:160|208:176|208:176|208:192|208:192|224:192|224:192|224:208|224:208|240:208|240:208|288:208,2,131.25,0|0|0,0:0|0:0|0:0,0:0:0:0:
480,192,72884,2,0,B|480:224|464:240|464:240|464:256|464:256|448:256|448:256|448:272|448:272|432:272|432:272|432:288|432:288|384:288,1,131.25,0|0,0:0|0:0,0:0:0:0:
352,112,73288,2,0,B|368:104|368:104|376:88|376:88|392:96|392:96|408:88,1,65.625
288,192,73491,1,0,0:0:0:0:
240,280,73592,2,0,B|216:320|208:296|208:296|152:296,1,65.625
416,112,73896,6,0,P|480:128|496:144,2,65.625,0|0|0,0:0|0:0|0:0,0:0:0:0:
256,112,74199,1,0,0:0:0:0:
96,112,74301,2,0,P|32:128|16:144,2,65.625,0|0|0,0:0|0:0|0:0,0:0:0:0:
256,112,74604,1,0,0:0:0:0:
64,48,74705,6,0,L|96:112,1,65.625
240,128,74908,2,0,L|240:208,1,65.625
384,224,75110,2,0,L|352:304,2,65.625,0|0|0,0:0|0:0|0:0,0:0:0:0:
448,48,75414,6,0,L|400:128,1,65.625
272,128,75617,2,0,L|272:240,1,65.625
112,224,75819,2,0,L|144:304,2,65.625,0|0|0,0:0|0:0|0:0,0:0:0:0:
352,288,76122,5,0,0:0:0:0:
392,304,76224,1,0,0:0:0:0:
432,320,76325,1,0,0:0:0:0:
464,336,76426,2,0,L|416:240,1,65.625
288,256,76629,2,0,L|272:160,1,65.625
128,160,76831,2,0,L|128:64,2,65.625,0|0|0,0:0|0:0|0:0,0:0:0:0:
224,128,77135,6,0,L|320:112,1,65.625
288,256,77337,2,0,L|192:224,1,65.625
128,96,77539,2,0,L|128:16,1,65.625
384,272,77742,2,0,L|384:368,1,65.625
160,288,77944,2,0,P|80:288|48:304,2,65.625,0|0|0,0:0|0:0|0:0,0:0:0:0:
256,192,78248,1,0,0:0:0:0:
352,96,78349,2,0,P|400:96|464:72,2,65.625,0|0|0,0:0|0:0|0:0,0:0:0:0:
168,96,78653,1,0,0:0:0:0:
136,88,78754,1,0,0:0:0:0:
96,96,78855,1,0,0:0:0:0:
64,112,78956,2,0,B|96:160|96:160|104:176|104:176|120:176|120:176|128:192|128:192|128:240,2,131.25,0|0|0,0:0|0:0|0:0,0:0:0:0:
336,120,79564,5,0,0:0:0:0:
368,104,79665,1,0,0:0:0:0:
408,96,79766,1,0,0:0:0:0:
440,104,79867,1,0,0:0:0:0:
480,128,79969,2,0,P|480:168|432:224,1,65.625
288,288,80171,2,0,P|296:256|336:208,1,65.625
192,112,80373,2,0,P|176:160|112:192,1,65.625
16,64,80576,2,0,P|48:0|80:-16,1,65.625
32,96,80778,1,0,0:0:0:0:
48,120,80880,1,0,0:0:0:0:
72,144,80981,1,0,0:0:0:0:
96,160,81082,1,0,0:0:0:0:
288,152,81183,5,0,0:0:0:0:
272,192,81284,1,0,0:0:0:0:
240,224,81386,1,0,0:0:0:0:
200,240,81487,1,0,0:0:0:0:
104,144,81588,2,0,P|144:80|232:64,1,131.25
160,192,81993,1,0,0:0:0:0:
184,152,82094,1,0,0:0:0:0:
224,120,82195,1,0,0:0:0:0:
272,104,82296,1,0,0:0:0:0:
416,240,82398,2,0,P|368:304|288:320,1,131.25
376,40,82803,6,0,P|360:64|376:96,2,65.625,0|0|0,0:0|0:0|0:0,0:0:0:0:
432,192,83106,1,0,0:0:0:0:
384,344,83207,2,0,P|392:312|384:280,2,65.625,0|0|0,0:0|0:0|0:0,0:0:0:0:
256,192,83511,5,0,0:0:0:0:
232,144,83612,1,0,0:0:0:0:
184,112,83714,1,0,0:0:0:0:
136,144,83815,1,0,0:0:0:0:
112,192,83916,1,0,0:0:0:0:
136,248,84017,1,0,0:0:0:0:
184,272,84118,1,0,0:0:0:0:
240,248,84220,1,0,0:0:0:0:
256,192,84321,1,0,0:0:0:0:
320,88,84422,6,0,P|352:80|384:88,1,65.625
192,304,84624,2,0,P|160:312|128:304,1,65.625
408,128,84827,2,0,P|448:144|472:192,1,65.625
104,264,85029,2,0,P|64:256|40:200,1,65.625
112,96,85232,1,0,0:0:0:0:
368,312,85434,1,0,0:0:0:0:
136,72,85637,1,0,0:0:0:0:
336,320,85839,1,0,0:0:0:0:
176,64,86041,1,0,0:0:0:0:
256,192,86244,5,0,0:0:0:0:
288,96,86345,2,0,L|208:16,1,65.625
224,288,86548,2,0,L|288:352,1,65.625
136,40,86851,6,0,P|152:64|128:104,2,65.625,0|0|0,0:0|0:0|0:0,0:0:0:0:
96,192,87155,1,0,0:0:0:0:
152,344,87256,2,0,P|136:320|152:288,2,65.625,0|0|0,0:0|0:0|0:0,0:0:0:0:
256,192,87560,5,0,0:0:0:0:
280,144,87662,1,0,0:0:0:0:
328,112,87763,1,0,0:0:0:0:
376,144,87864,1,0,0:0:0:0:
400,192,87965,1,0,0:0:0:0:
384,248,88067,1,0,0:0:0:0:
328,272,88168,1,0,0:0:0:0:
280,248,88269,1,0,0:0:0:0:
256,192,88370,1,0,0:0:0:0:
176,320,88471,5,0,0:0:0:0:
376,72,88673,1,0,0:0:0:0:
144,312,88876,1,0,0:0:0:0:
400,96,89078,1,0,0:0:0:0:
112,288,89280,1,0,0:0:0:0:
288,224,89483,5,0,0:0:0:0:
432,304,89584,2,0,L|352:320,1,65.625
168,112,89786,2,0,L|240:128,1,65.625
320,32,90090,6,0,B|384:32|384:32|400:32|400:32|384:48|384:48|400:64|400:64|384:64|384:64|416:96|496:112,1,262.5
320,32,90697,1,0,0:0:0:0:
192,352,90900,2,0,B|128:352|128:352|112:352|112:352|128:336|128:336|112:320|112:320|128:320|128:320|96:288|16:272,1,262.5
192,352,91507,1,0,0:0:0:0:
160,176,91709,5,0,0:0:0:0:
192,144,91811,1,0,0:0:0:0:
240,128,91912,1,0,0:0:0:0:
288,144,92013,1,0,0:0:0:0:
192,256,92114,6,0,L|112:336,1,65.625
320,128,92317,2,0,L|400:48,1,65.625
176,240,92519,2,0,L|112:272,1,65.625
336,144,92722,2,0,L|416:112,1,65.625,0|0,0:0|0:0,0:0:0:0:
160,224,92924,2,0,L|48:240,1,65.625
352,160,93126,2,0,L|448:144,1,65.625
144,208,93329,2,0,L|48:208,1,65.625
368,176,93531,2,0,L|480:176,1,65.625
128,192,93734,2,0,L|48:160,1,65.625
384,192,93936,2,0,L|480:224,1,65.625
176,64,94139,5,0,0:0:0:0:
224,80,94240,1,0,0:0:0:0:
272,96,94341,1,0,0:0:0:0:
320,112,94442,1,0,0:0:0:0:
320,320,94543,5,0,0:0:0:0:
272,304,94645,1,0,0:0:0:0:
224,288,94746,1,0,0:0:0:0:
176,272,94847,1,0,0:0:0:0:
176,48,94948,6,0,L|256:64,1,65.625
336,320,95151,2,0,L|256:304,1,65.625
144,192,95353,2,0,L|160:272,1,65.625
368,192,95556,2,0,L|352:112,1,65.625
32,144,95758,5,0,0:0:0:0:
64,128,95859,1,0,0:0:0:0:
96,128,95960,1,0,0:0:0:0:
128,144,96062,1,0,0:0:0:0:
160,160,96163,1,0,0:0:0:0:
192,168,96264,1,0,0:0:0:0:
224,176,96365,1,0,0:0:0:0:
264,176,96467,1,0,0:0:0:0:
176,304,96568,6,0,L|96:336,3,65.625,0|0|0|0,0:0|0:0|0:0|0:0,0:0:0:0:
368,64,96973,6,0,L|448:32,3,65.625,0|0|0|0,0:0|0:0|0:0|0:0,0:0:0:0:
160,144,97377,1,0,0:0:0:0:
400,96,109321,5,8,0:0:0:0:
384,128,109422,1,8,0:0:0:0:
368,160,109523,1,8,0:0:0:0:
352,192,109624,1,8,0:0:0:0:
384,208,109725,1,8,0:0:0:0:
320,224,109827,1,8,0:0:0:0:
256,240,109928,1,8,0:0:0:0:
192,256,110029,1,8,0:0:0:0:
112,272,110131,1,8,0:0:0:0:
32,288,110232,1,8,0:0:0:0:
128,192,110333,6,0,L|0:224,1,105
304,144,110738,2,0,L|400:120,2,52.5,0|0|0,0:0|0:0|0:0,0:0:0:0:
208,160,111041,1,0,0:0:0:0:
128,112,111143,2,0,L|32:88,2,52.5,0|0|0,0:0|0:0|0:0,0:0:0:0:
448,16,111548,1,0,0:0:0:0:
512,304,111750,5,0,0:0:0:0:
488,176,111952,2,0,L|512:120|512:120,1,52.5
320,224,112155,2,0,L|400:192,2,52.5,0|0|0,0:0|0:0|0:0,0:0:0:0:
160,272,112560,1,0,0:0:0:0:
24,176,112762,6,0,L|0:112,1,52.5
192,224,112965,2,0,L|144:192,2,52.5,0|0|0,0:0|0:0|0:0,0:0:0:0:
368,288,113369,6,0,L|288:288,1,52.5,0|0,0:0|0:0,0:0:0:0:
208,192,113572,1,0,0:0:0:0:
368,96,113673,2,0,L|296:96,1,52.5
480,192,113875,1,0,0:0:0:0:
344,192,113977,2,0,L|288:192,1,52.5
320,288,114179,2,0,L|392:288,1,52.5
480,288,114382,1,0,0:0:0:0:
160,320,114483,2,0,L|80:344,1,52.5
224,208,114685,2,0,L|160:232,1,52.5
0,256,114989,5,0,0:0:0:0:
144,96,115191,2,0,L|224:96,1,52.5
320,192,115394,1,0,0:0:0:0:
144,288,115495,2,0,L|216:288,1,52.5
32,192,115697,1,0,0:0:0:0:
216,192,115799,2,0,L|128:192,1,52.5
96,192,116001,1,0,0:0:0:0:
352,320,116102,2,0,L|432:344,1,52.5
288,208,116305,2,0,L|368:232,1,52.5
352,96,116608,5,0,0:0:0:0:
384,96,116709,1,0,0:0:0:0:
416,96,116811,1,0,0:0:0:0:
224,96,117013,1,0,0:0:0:0:
256,80,117114,1,0,0:0:0:0:
288,64,117216,1,0,0:0:0:0:
320,64,117317,1,0,0:0:0:0:
352,64,117418,1,0,0:0:0:0:
384,64,117519,1,0,0:0:0:0:
160,48,117620,6,0,B|160:80|160:80|144:112|144:112|112:112|112:112|96:64|96:64|64:64|64:64|64:112|64:112|64:128,1,210
192,32,118228,1,0,0:0:0:0:
352,336,118430,2,0,B|352:288|352:288|368:272|368:272|400:272|400:272|416:320|416:320|448:320|448:320|448:272|448:272|448:256,1,210
320,352,119037,1,0,0:0:0:0:
112,192,119239,1,0,0:0:0:0:
144,176,119341,1,0,0:0:0:0:
176,192,119442,1,0,0:0:0:0:
208,176,119544,1,0,0:0:0:0:
288,192,119645,2,0,L|192:192,1,52.5
416,192,119847,5,0,0:0:0:0:
256,48,120050,2,0,B|224:64|224:64|208:96|208:96|224:128|224:128|256:144|256:144|288:128|288:128|304:96|304:96|288:64,1,210
496,192,120657,1,0,0:0:0:0:
256,256,120859,2,0,B|288:272|288:272|304:304|304:304|288:336|288:336|256:352|256:352|224:336|224:336|208:304|208:304|224:272,1,210
0,192,121467,1,0,0:0:0:0:
144,80,121669,6,0,B|160:112|160:112|176:96|176:96|192:112|192:112|176:128|176:128|224:128,1,105,8|0,0:0|0:0,0:0:0:0:
224,224,121973,1,0,0:0:0:0:
368,304,122074,2,0,B|352:272|352:272|336:288|336:288|320:272|320:272|336:256|336:256|288:256,1,105,8|0,0:0|0:0,0:0:0:0:
288,160,122377,1,0,0:0:0:0:
80,80,122479,5,4,0:0:0:0:
112,80,122580,1,4,0:0:0:0:
144,80,122681,1,8,0:0:0:0:
176,96,122782,1,4,0:0:0:0:
208,96,122884,1,4,0:0:0:0:
240,96,122985,1,4,0:0:0:0:
272,112,123086,1,8,0:0:0:0:
304,120,123187,1,4,0:0:0:0:
320,144,123288,6,0,B|352:112|352:112|384:128|384:128|384:96|384:96|416:112|416:112|432:80|432:80|464:96|464:96|480:64,1,210,0|8,0:0|0:0,0:0:0:0:
192,240,124098,2,0,B|160:272|160:272|128:256|128:256|128:288|128:288|96:272|96:272|80:304|80:304|48:288|48:288|48:320,1,210,0|8,0:0|0:0,0:0:0:0:
208,128,124908,2,0,P|144:112|96:112,1,105
304,256,125313,2,0,P|368:272|432:272,1,105,8|0,0:0|0:0,0:0:0:0:
48,80,125718,6,0,L|16:16,1,52.5,4|4,0:0|0:0,0:0:0:0:
160,128,125920,2,0,L|128:64,1,52.5,8|4,0:0|0:0,0:0:0:0:
272,176,126122,2,4,L|240:112,2,52.5,4|4|8,0:0|0:0|0:0,0:0:0:0:
48,304,126527,2,0,B|80:304|80:304|96:288|96:288|112:304|112:304|112:272|112:272|144:288|144:288|144:256|144:256|176:272,1,210,0|8,0:0|0:0,0:0:0:0:
464,80,127337,2,0,B|432:80|432:80|416:96|416:96|400:80|400:80|400:112|400:112|368:96|368:96|368:128|368:128|336:112,1,210,0|8,0:0|0:0,0:0:0:0:
96,112,128147,2,0,P|144:112|208:128,1,105
416,272,128552,2,0,P|368:272|304:256,1,105,8|0,0:0|0:0,0:0:0:0:
464,304,128956,2,0,L|496:368,1,52.5,4|4,0:0|0:0,0:0:0:0:
352,256,129159,2,0,L|384:320|384:320,1,52.5,8|4,0:0|0:0,0:0:0:0:
240,208,129361,2,0,L|272:272,2,52.5,4|4|8,0:0|0:0|0:0,0:0:0:0:
64,192,129766,5,0,0:0:0:0:
448,176,130171,1,8,0:0:0:0:
48,144,130576,1,0,0:0:0:0:
464,80,130981,1,8,0:0:0:0:
320,256,131386,2,0,B|272:272|272:272|256:288|256:288|240:256|240:256|224:256|224:256|208:256|208:256|176:240|176:240|112:232,1,210,0|8,0:0|0:0,0:0:0:0:
0,32,131993,1,0,0:0:0:0:
496,48,132195,5,0,0:0:0:0:
256,192,132398,1,0,0:0:0:0:
0,368,132600,1,8,0:0:0:0:
256,368,132803,1,0,0:0:0:0:
416,32,133005,2,0,B|384:48|384:48|400:64|400:64|384:80|384:80|368:64|368:64|368:96|368:96|336:128|336:128|304:160,1,210,0|8,0:0|0:0,0:0:0:0:
112,304,133815,2,0,B|80:280|80:280|64:264|64:264|96:264|96:264|80:248|80:248|96:232|96:232|112:192|112:192|128:144,1,210,0|8,0:0|0:0,0:0:0:0:
384,220,134422,1,0,0:0:0:0:
256,192,134624,12,0,135839,0:0:0:0:
48,288,136244,5,0,0:0:0:0:
464,192,136649,1,0,0:0:0:0:
304,16,136851,1,0,0:0:0:0:
272,208,137054,1,0,0:0:0:0:
80,160,137256,1,0,0:0:0:0:
464,128,137458,2,0,L|528:120,3,52.5,0|0|0|0,0:0|0:0|0:0|0:0,0:0:0:0:
192,192,137863,6,0,L|112:192,1,65.625,0|0,0:0|0:0,0:0:0:0:
96,192,138066,1,0,0:0:0:0:
352,272,138167,2,0,L|400:176,1,65.625
392,192,138369,1,0,0:0:0:0:
304,48,138471,6,0,L|280:128,1,65.625
256,144,138673,1,0,0:0:0:0:
272,176,138774,1,0,0:0:0:0:
256,208,138875,1,0,0:0:0:0:
240,304,138977,2,0,L|224:224,1,65.625
208,208,139179,1,0,0:0:0:0:
192,176,139281,1,0,0:0:0:0:
208,144,139382,1,0,0:0:0:0:
280,56,139483,6,0,P|240:48|208:56,1,65.625
96,224,139685,2,0,P|112:272|144:304,1,65.625
368,288,139888,2,0,P|384:256|384:208,1,65.625
144,80,140090,2,0,P|144:128|160:160,1,65.625,0|0,0:0|0:0,0:0:0:0:
360,144,140292,2,0,P|368:96|352:40,1,65.625
48,64,140495,2,0,P|128:64|176:80,2,131.25,0|0|0,0:0|0:0|0:0,0:0:0:0:
464,64,141102,6,0,P|384:64|336:80,1,131.25
312,88,141406,1,0,0:0:0:0:
288,104,141507,1,0,0:0:0:0:
264,112,141608,1,0,0:0:0:0:
240,104,141709,1,0,0:0:0:0:
224,88,141811,1,0,0:0:0:0:
144,240,141912,6,0,P|136:192|160:160,1,65.625
224,88,142114,2,0,P|256:80|296:96,1,65.625
376,184,142317,2,0,P|384:232|368:288,1,65.625
464,192,142519,2,0,P|464:160|448:128,1,65.625
256,48,142722,2,0,P|208:48|176:80,1,65.625
48,192,142924,2,0,P|48:224|64:256,1,65.625
256,336,143126,2,0,P|320:328|352:296,1,65.625
464,192,143329,2,0,P|464:160|448:128,1,65.625
192,112,143531,6,0,P|304:112|320:144,2,131.25,0|0|0,0:0|0:0|0:0,0:0:0:0:
80,112,144139,1,0,0:0:0:0:
392,288,144341,1,0,0:0:0:0:
360,304,144442,1,0,0:0:0:0:
328,312,144543,1,0,0:0:0:0:
288,304,144645,1,0,0:0:0:0:
192,320,144746,2,0,P|240:304|296:320,1,65.625
464,192,144948,2,0,P|416:176|368:192,1,65.625
128,64,145151,5,0,0:0:0:0:
128,64,145252,1,0,0:0:0:0:
288,256,145353,1,0,0:0:0:0:
288,256,145454,1,0,0:0:0:0:
368,64,145556,1,0,0:0:0:0:
368,64,145657,1,0,0:0:0:0:
448,160,145758,1,0,0:0:0:0:
448,160,145859,1,0,0:0:0:0:
512,80,145960,6,0,L|432:80,3,65.625,0|0|0|0,0:0|0:0|0:0|0:0,0:0:0:0:
272,144,146365,2,0,L|192:144,3,65.625,0|0|0|0,0:0|0:0|0:0|0:0,0:0:0:0:
448,208,146770,6,0,L|368:208,1,65.625
80,240,146973,2,0,L|176:240,1,65.625
448,256,147175,2,0,L|336:256,1,65.625
80,336,147377,2,0,B|64:272|64:272|64:256|64:256|80:256|80:256|80:272|80:272|96:272|96:272|48:192|48:192|0:128,1,262.5
256,64,147985,1,0,0:0:0:0:
304,48,148086,1,0,0:0:0:0:
352,48,148187,1,0,0:0:0:0:
400,56,148288,1,0,0:0:0:0:
448,80,148390,2,0,B|464:144|464:144|464:160|464:160|448:160|448:160|448:144|448:144|432:144|432:144|400:224|400:224|384:288,1,262.5
32,128,148997,1,0,0:0:0:0:
336,64,149199,6,0,L|352:144,1,65.625
304,144,149402,2,0,L|288:208,1,65.625
176,288,149604,2,0,P|240:224|256:240,1,131.25
176,64,150009,2,0,L|160:128,1,65.625
208,144,150212,2,0,L|224:208,1,65.625
312,288,150414,2,0,P|296:216|264:280,1,131.25
432,256,150819,5,0,0:0:0:0:
432,256,150920,1,0,0:0:0:0:
288,64,151021,1,0,0:0:0:0:
288,64,151122,1,0,0:0:0:0:
208,304,151224,1,0,0:0:0:0:
208,304,151325,1,0,0:0:0:0:
48,96,151426,1,0,0:0:0:0:
48,96,151527,1,0,0:0:0:0:
56,320,151629,2,0,B|104:304|104:304|112:344|112:344|128:312|128:312|120:280|120:280|136:248|136:248|128:216|128:216|176:184,1,262.5
48,64,152236,1,0,0:0:0:0:
456,64,152438,6,0,B|408:80|408:80|400:40|400:40|384:72|384:72|392:104|392:104|376:136|376:136|384:168|384:168|328:208,1,262.5
464,336,153046,1,0,0:0:0:0:
16,64,153248,1,0,0:0:0:0:
112,80,153349,1,0,0:0:0:0:
48,128,153450,1,0,0:0:0:0:
144,144,153552,1,0,0:0:0:0:
80,192,153653,1,0,0:0:0:0:
176,208,153754,1,0,0:0:0:0:
112,256,153855,1,0,0:0:0:0:
208,272,153956,1,0,0:0:0:0:
304,272,154058,6,0,L|384:256,1,65.625
80,328,154260,2,0,L|176:312,1,65.625
224,128,154463,2,0,L|336:112,2,65.625,0|0|0,0:0|0:0|0:0,0:0:0:0:
384,80,154867,6,0,P|368:208|320:176,1,262.5
464,32,155475,1,0,0:0:0:0:
128,304,155677,6,0,P|144:176|192:208,1,262.5
32,352,156284,1,0,0:0:0:0:
480,64,156487,5,0,0:0:0:0:
384,80,156588,1,0,0:0:0:0:
448,128,156689,1,0,0:0:0:0:
352,144,156790,1,0,0:0:0:0:
416,192,156892,1,0,0:0:0:0:
320,208,156993,1,0,0:0:0:0:
384,256,157094,1,0,0:0:0:0:
288,272,157195,1,0,0:0:0:0:
192,272,157297,6,0,L|96:256,1,65.625
416,328,157499,2,0,L|320:312,1,65.625
288,128,157701,2,0,L|184:112,2,65.625,0|0|0,0:0|0:0|0:0,0:0:0:0:
176,80,158106,6,0,B|96:128|208:176|176:112|176:112|128:176|128:176|80:176|80:176|64:208|64:208|32:192,1,262.5
208,80,158714,1,0,0:0:0:0:
352,304,158916,2,0,B|304:256|368:208|368:272|368:272|356:212|356:212|428:208|428:208|432:200|432:200|456:200,1,262.5
320,304,159523,1,0,0:0:0:0:
80,64,159726,1,0,0:0:0:0:
352,224,159928,1,0,0:0:0:0:
176,64,160131,1,0,0:0:0:0:
384,144,160333,1,0,0:0:0:0:
128,128,160535,6,0,L|192:64,1,65.625
400,256,160738,2,0,L|336:320,1,65.625
128,128,160940,2,0,L|176:32,1,65.625
400,256,161143,2,0,L|352:352,1,65.625
128,128,161345,2,0,L|128:48,1,65.625
400,256,161548,2,0,L|400:336,1,65.625
128,128,161750,2,0,L|80:32,1,65.625
400,256,161952,2,0,L|448:352,1,65.625
384,224,162155,5,0,0:0:0:0:
368,256,162256,1,0,0:0:0:0:
352,288,162357,1,0,0:0:0:0:
336,320,162458,1,0,0:0:0:0:
224,160,162560,5,0,0:0:0:0:
208,128,162661,1,0,0:0:0:0:
192,96,162762,1,0,0:0:0:0:
176,64,162863,1,0,0:0:0:0:
96,112,162965,6,0,L|192:96,1,65.625
352,96,163167,2,0,L|496:112,1,78.7500030040742
464,256,163369,2,0,L|336:272,1,91.8750008761883
144,272,163572,2,0,L|16:256,1,105
400,176,163774,5,0,0:0:0:0:
176,64,163977,1,0,0:0:0:0:
224,80,164078,1,0,0:0:0:0:
272,96,164179,1,0,0:0:0:0:
320,96,164281,1,0,0:0:0:0:
352,128,164382,1,0,0:0:0:0:
368,176,164483,1,0,0:0:0:0:
336,176,164584,1,0,0:0:0:0:
272,224,164685,1,0,0:0:0:0:
304,224,164787,1,0,0:0:0:0:
400,320,164888,1,0,0:0:0:0:
368,304,164989,1,0,0:0:0:0:
256,256,165090,1,0,0:0:0:0:
160,192,165191,1,0,0:0:0:0:
80,112,165293,1,0,0:0:0:0:
32,16,165394,1,0,0:0:0:0:
48,144,178349,5,2,0:0:0:0:
256,192,178552,2,0,P|304:224|336:224,1,62.9999980773926,0|2,0:0|0:0,0:0:0:0:
464,96,178956,1,0,0:0:0:0:
400,80,179361,1,0,0:0:0:0:
112,304,179766,1,0,0:0:0:0:
256,192,179969,12,0,180778,0:0:0:0:
144,48,181183,5,2,0:0:0:0:
176,224,181386,2,0,P|192:256|224:272,1,62.9999980773926,0|2,0:0|0:0,0:0:0:0:
448,288,181790,1,0,0:0:0:0:
336,112,181993,2,0,P|304:96|240:96,1,73.4999977569581,2|0,0:0|0:0,0:0:0:0:
48,192,182398,1,2,0:0:0:0:
288,272,182600,1,0,0:0:0:0:
224,160,182803,1,2,0:0:0:0:
464,48,183005,1,0,0:0:0:0:
256,192,183207,12,0,184017,0:0:0:0:
256,192,184422,5,2,0:0:0:0:
368,128,184827,2,0,L|272:128,1,84
144,256,185232,2,0,L|256:256,1,84
432,80,185637,2,0,L|320:112,1,84
64,336,186041,2,0,L|160:304,1,84
416,64,186446,5,0,0:0:0:0:
416,64,186649,1,0,0:0:0:0:
96,320,186851,1,0,0:0:0:0:
96,320,187054,1,0,0:0:0:0:
448,240,187256,5,0,0:0:0:0:
448,240,187458,1,0,0:0:0:0:
64,144,187661,1,0,0:0:0:0:
64,144,187863,1,0,0:0:0:0:
368,256,188066,6,0,L|464:304,1,94.499997116089
144,112,188471,2,0,L|32:64,1,94.499997116089
416,256,188875,6,0,L|448:352,1,94.499997116089
96,128,189280,2,0,L|64:32,1,94.499997116089,0|0,0:0|0:0,0:0:0:0:
224,192,189685,5,0,0:0:0:0:
256,208,189786,1,0,0:0:0:0:
288,192,189888,1,0,0:0:0:0:
448,96,190090,2,0,L|320:96,1,94.499997116089,0|0,0:0|0:0,0:0:0:0:
64,128,190495,5,0,0:0:0:0:
112,112,190596,1,0,0:0:0:0:
160,128,190697,1,0,0:0:0:0:
496,160,190900,2,0,L|368:160,1,94.499997116089
48,320,191305,5,0,0:0:0:0:
464,72,191507,1,0,0:0:0:0:
80,328,191709,5,0,0:0:0:0:
432,64,191912,1,0,0:0:0:0:
112,336,192114,5,0,0:0:0:0:
400,56,192317,1,0,0:0:0:0:
144,344,192519,5,0,0:0:0:0:
368,48,192722,1,0,0:0:0:0:
176,96,192924,5,0,0:0:0:0:
192,144,193025,1,0,0:0:0:0:
160,176,193126,1,0,0:0:0:0:
336,208,193329,5,0,0:0:0:0:
320,256,193430,1,0,0:0:0:0:
352,288,193531,1,0,0:0:0:0:
32,192,193734,5,0,0:0:0:0:
64,160,193835,1,0,0:0:0:0:
96,128,193936,1,0,0:0:0:0:
128,160,194037,1,0,0:0:0:0:
160,192,194139,1,0,0:0:0:0:
192,224,194240,1,0,0:0:0:0:
240,192,194341,1,0,0:0:0:0:
288,160,194442,1,0,0:0:0:0:
440,72,194543,5,0,0:0:0:0:
416,112,194645,1,0,0:0:0:0:
432,152,194746,1,0,0:0:0:0:
408,184,194847,1,0,0:0:0:0:
432,232,194948,1,0,0:0:0:0:
400,264,195050,1,0,0:0:0:0:
424,312,195151,1,0,0:0:0:0:
384,344,195252,5,0,0:0:0:0:
336,328,195353,1,0,0:0:0:0:
288,304,195454,1,0,0:0:0:0:
240,288,195556,1,0,0:0:0:0:
152,256,195657,1,0,0:0:0:0:
192,240,195758,1,0,0:0:0:0:
232,224,195859,1,0,0:0:0:0:
272,208,195960,1,0,0:0:0:0:
312,192,196062,1,0,0:0:0:0:
48,160,196163,6,0,L|48:96,1,39.3750015020371
176,80,196365,2,0,L|192:144,1,39.3750015020371
320,80,196568,2,0,L|288:16,1,39.3750015020371
432,0,196770,2,0,L|480:48,1,39.3750015020371
160,272,196973,2,0,P|112:272|96:264,1,52.5
352,112,197377,2,0,P|400:112|424:120,1,52.5,0|0,0:0|0:0,0:0:0:0:
64,80,197782,5,0,0:0:0:0:
88,120,197884,1,0,0:0:0:0:
72,160,197985,1,0,0:0:0:0:
96,200,198086,1,0,0:0:0:0:
72,240,198187,1,0,0:0:0:0:
104,280,198288,1,0,0:0:0:0:
80,320,198390,1,0,0:0:0:0:
112,352,198491,5,0,0:0:0:0:
160,336,198592,1,0,0:0:0:0:
208,320,198693,1,0,0:0:0:0:
256,304,198794,1,0,0:0:0:0:
336,264,198896,1,0,0:0:0:0:
296,248,198997,1,0,0:0:0:0:
256,232,199098,1,0,0:0:0:0:
216,216,199199,1,0,0:0:0:0:
176,200,199301,1,0,0:0:0:0:
464,160,199402,6,0,L|464:96,1,39.3750015020371
336,80,199604,2,0,L|320:144,1,39.3750015020371
192,96,199807,2,0,L|224:32,1,39.3750015020371
80,16,200009,2,0,L|32:64,1,39.3750015020371
352,256,200212,2,0,P|384:240|400:240,1,52.5
160,128,200616,2,0,P|128:112|112:112,1,52.5
464,96,201021,5,0,0:0:0:0:
288,144,201224,1,0,0:0:0:0:
464,240,201426,1,0,0:0:0:0:
432,224,201527,1,0,0:0:0:0:
400,208,201629,1,0,0:0:0:0:
16,160,201831,5,0,0:0:0:0:
240,224,202033,1,0,0:0:0:0:
32,320,202236,1,0,0:0:0:0:
80,304,202337,1,0,0:0:0:0:
128,288,202438,1,0,0:0:0:0:
384,64,202641,5,0,0:0:0:0:
144,64,202843,1,0,0:0:0:0:
384,160,203046,1,0,0:0:0:0:
336,144,203147,1,0,0:0:0:0:
288,128,203248,1,0,0:0:0:0:
240,112,203349,1,0,0:0:0:0:
192,96,203450,1,0,0:0:0:0:
24,208,203653,6,0,P|72:184|104:136,2,105,0|0|0,0:0|0:0|0:0,0:0:0:0:
368,64,204260,2,0,L|520:64,2,105,0|0|0,0:0|0:0|0:0,0:0:0:0:
248,200,204867,2,0,L|336:272,2,105
80,280,205475,2,0,L|112:400,2,105
48,96,205981,5,0,0:0:0:0:
72,56,206082,1,0,0:0:0:0:
112,32,206183,1,0,0:0:0:0:
136,72,206284,1,0,0:0:0:0:
176,96,206386,1,0,0:0:0:0:
216,72,206487,1,0,0:0:0:0:
240,32,206588,1,0,0:0:0:0:
288,16,206689,1,0,0:0:0:0:
336,32,206790,1,0,0:0:0:0:
344,80,206892,1,0,0:0:0:0:
328,128,206993,1,0,0:0:0:0:
344,176,207094,1,0,0:0:0:0:
384,216,207195,1,0,0:0:0:0:
432,224,207297,1,0,0:0:0:0:
456,264,207398,1,0,0:0:0:0:
504,272,207499,5,0,0:0:0:0:
240,240,207701,1,0,0:0:0:0:
128,32,207904,1,0,0:0:0:0:
464,48,208106,1,0,0:0:0:0:
448,80,208207,1,0,0:0:0:0:
432,112,208309,1,0,0:0:0:0:
416,144,208410,1,0,0:0:0:0:
400,176,208511,1,0,0:0:0:0:
144,320,208714,1,0,0:0:0:0:
128,272,208815,1,0,0:0:0:0:
112,224,208916,1,0,0:0:0:0:
96,176,209017,1,0,0:0:0:0:
160,64,209118,6,0,P|128:80|64:80,1,65.625
352,176,209321,2,0,P|384:192|448:192,1,65.625
512,256,209523,5,0,0:0:0:0:
480,224,209624,1,0,0:0:0:0:
512,192,209726,1,0,0:0:0:0:
480,160,209827,1,0,0:0:0:0:
224,176,209928,5,0,0:0:0:0:
256,144,210029,1,0,0:0:0:0:
224,112,210131,1,0,0:0:0:0:
256,80,210232,1,0,0:0:0:0:
0,32,210333,5,0,0:0:0:0:
32,48,210434,1,0,0:0:0:0:
64,64,210535,1,0,0:0:0:0:
96,80,210637,1,0,0:0:0:0:
336,64,210738,6,0,P|336:144|320:160,1,65.625
160,320,210940,2,0,P|160:240|176:224,1,65.625
112,96,211143,6,0,P|176:48|192:48,1,65.625
400,288,211345,2,0,P|336:336|320:336,1,65.625
368,64,211548,6,0,P|432:112|432:128,1,65.625,0|0,0:0|0:0,0:0:0:0:
128,288,211750,2,0,P|64:240|64:224,1,65.625
448,160,211952,6,0,P|464:200|464:256,1,65.625
64,224,212155,2,0,P|48:160|48:128,1,65.625
0,96,212357,1,0,0:0:0:0:
128,192,212560,2,0,L|112:112|112:112,1,65.625
256,224,212762,1,0,0:0:0:0:
400,320,212863,2,0,L|384:224,1,65.625
240,304,213167,6,0,P|272:320|320:288,1,65.625
272,80,213369,2,0,P|208:72|184:88,1,65.625
384,288,213572,6,0,P|432:224|432:208,1,65.625
128,96,213774,2,0,P|80:160|80:176,1,65.625
424,144,213977,6,0,P|400:112|360:96,1,65.625
80,240,214179,2,0,P|120:272|160:280,1,65.625
320,64,214382,6,0,P|256:48|240:48,1,65.625
192,320,214584,2,0,P|256:336|272:336,1,65.625
320,224,214786,5,0,0:0:0:0:
352,224,214888,1,0,0:0:0:0:
384,224,214989,1,0,0:0:0:0:
416,224,215090,1,0,0:0:0:0:
192,160,215191,5,0,0:0:0:0:
160,160,215292,1,0,0:0:0:0:
128,160,215394,1,0,0:0:0:0:
96,160,215495,1,0,0:0:0:0:
352,96,215596,6,0,L|432:80,3,65.625,0|0|0|0,0:0|0:0|0:0|0:0,0:0:0:0:
160,288,216001,2,0,L|80:304,3,65.625,0|0|0|0,0:0|0:0|0:0|0:0,0:0:0:0:
464,48,216406,6,0,B|400:80|400:80|416:96|416:96|384:112|384:112|400:128|400:128|368:144|368:144|384:160|384:160|304:144,1,262.5
208,128,217013,1,0,0:0:0:0:
48,336,217216,2,0,B|112:304|112:304|96:288|96:288|128:272|128:272|112:256|112:256|144:240|144:240|128:224|128:224|208:240,1,262.5
304,256,217823,1,0,0:0:0:0:
400,48,218025,5,0,0:0:0:0:
384,80,218126,1,0,0:0:0:0:
352,96,218228,1,0,0:0:0:0:
352,128,218329,1,0,0:0:0:0:
320,144,218430,1,0,0:0:0:0:
320,176,218531,1,0,0:0:0:0:
272,224,218633,1,0,0:0:0:0:
224,272,218734,1,0,0:0:0:0:
416,176,218835,6,0,L|512:192,2,65.625
256,64,219139,2,0,L|336:48,2,65.625
64,64,219442,2,0,L|-8:40,2,65.625
320,176,219746,2,0,L|248:192,2,65.625
48,232,220050,1,0,0:0:0:0:
320,208,220252,5,0,0:0:0:0:
416,144,220454,1,0,0:0:0:0:
432,176,220556,1,0,0:0:0:0:
448,208,220657,1,0,0:0:0:0:
464,240,220758,1,0,0:0:0:0:
480,272,220859,2,0,P|464:336|400:368,1,131.25
96,256,221264,5,0,0:0:0:0:
80,224,221365,1,0,0:0:0:0:
64,192,221467,1,0,0:0:0:0:
48,160,221568,1,0,0:0:0:0:
32,128,221669,2,0,P|48:64|112:32,1,131.25
432,32,222074,5,0,0:0:0:0:
432,32,222175,1,0,0:0:0:0:
256,64,222276,1,0,0:0:0:0:
256,64,222377,1,0,0:0:0:0:
336,192,222479,1,0,0:0:0:0:
336,192,222580,1,0,0:0:0:0:
112,192,222681,1,0,0:0:0:0:
112,192,222782,1,0,0:0:0:0:
112,112,222884,6,0,L|96:32,1,65.625
400,272,223086,2,0,L|416:352,1,65.625
32,80,223288,2,0,L|0:0,1,65.625
480,304,223491,2,0,L|512:384,1,65.625
112,272,223693,5,0,0:0:0:0:
400,272,223896,1,0,0:0:0:0:
32,304,224098,1,0,0:0:0:0:
480,304,224301,1,0,0:0:0:0:
112,304,224503,2,0,L|144:224,1,65.625
256,224,224705,2,0,L|272:144,1,65.625
392,144,224908,2,0,L|392:48,1,65.625,0|0,0:0|0:0,0:0:0:0:
392,78,225110,1,0,0:0:0:0:
392,78,225212,1,0,0:0:0:0:
288,32,225313,6,0,L|208:32,1,65.625
128,80,225515,1,0,0:0:0:0:
128,80,225616,1,0,0:0:0:0:
240,144,225718,2,0,L|336:144,2,65.625,0|0|0,0:0|0:0|0:0,0:0:0:0:
176,240,226122,6,0,L|288:240,1,65.625
352,288,226325,1,0,0:0:0:0:
352,288,226426,1,0,0:0:0:0:
240,352,226527,2,0,L|160:352,2,65.625,0|0|0,0:0|0:0|0:0,0:0:0:0:
0,272,226932,5,0,0:0:0:0:
0,272,227033,1,0,0:0:0:0:
240,160,227135,1,0,0:0:0:0:
240,160,227236,1,0,0:0:0:0:
464,48,227337,1,0,0:0:0:0:
464,48,227438,1,0,0:0:0:0:
400,240,227539,5,0,0:0:0:0:
272,80,227742,1,0,0:0:0:0:
224,320,227944,1,0,0:0:0:0:
80,64,228147,1,0,0:0:0:0:
32,368,228349,1,0,0:0:0:0:
352,48,228552,2,0,L|368:144,1,65.625
256,160,228754,2,0,L|256:256,1,65.625
144,256,228956,2,0,L|96:336,2,65.625,0|0|0,0:0|0:0|0:0,0:0:0:0:
208,112,229361,6,0,B|240:96|240:96|240:64|240:64|256:64|256:64|272:96|272:96|288:96|288:96|304:64|304:64|400:16,1,262.5
128,112,229969,1,0,0:0:0:0:
320,272,230171,2,0,B|288:288|288:288|288:320|288:320|272:320|272:320|256:288|256:288|240:288|240:288|224:320|224:320|112:368,1,262.5
400,272,230778,1,0,0:0:0:0:
48,144,230981,6,0,B|64:160|64:160|80:128|80:128|112:128|112:128|128:112|128:112|160:112,1,131.25
304,80,231386,1,0,0:0:0:0:
448,112,231588,2,0,B|448:256|288:352|136:280,1,393.75
464,320,232398,1,0,0:0:0:0:
448,96,232600,2,0,L|320:160,1,131.25
64,288,233005,2,0,L|224:208,1,131.25
400,256,233410,5,0,0:0:0:0:
352,240,233511,1,0,0:0:0:0:
320,208,233612,1,0,0:0:0:0:
304,176,233714,1,0,0:0:0:0:
288,144,233815,1,0,0:0:0:0:
256,128,233916,1,0,0:0:0:0:
224,144,234017,1,0,0:0:0:0:
208,176,234118,1,0,0:0:0:0:
192,208,234220,1,0,0:0:0:0:
160,240,234321,1,0,0:0:0:0:
128,256,234422,1,0,0:0:0:0:
96,240,234523,1,0,0:0:0:0:
64,224,234624,1,0,0:0:0:0:
48,192,234726,1,0,0:0:0:0:
64,160,234827,1,0,0:0:0:0:
48,128,234928,1,0,0:0:0:0:
144,48,235029,5,0,0:0:0:0:
320,64,235232,1,0,0:0:0:0:
352,96,235333,1,0,0:0:0:0:
368,144,235434,1,0,0:0:0:0:
352,192,235535,1,0,0:0:0:0:
320,224,235637,1,0,0:0:0:0:
272,240,235738,1,0,0:0:0:0:
208,256,235839,1,0,0:0:0:0:
144,240,235940,1,0,0:0:0:0:
96,192,236041,1,0,0:0:0:0:
64,128,236143,1,0,0:0:0:0:
48,64,236244,1,0,0:0:0:0:
96,72,236345,1,0,0:0:0:0:
144,80,236446,1,0,0:0:0:0:
192,88,236548,1,0,0:0:0:0:
288,104,236649,1,0,0:0:0:0:
416,112,236851,5,0,0:0:0:0:
416,144,236952,1,0,0:0:0:0:
400,176,237054,1,0,0:0:0:0:
400,208,237155,1,0,0:0:0:0:
384,240,237256,1,0,0:0:0:0:
384,272,237357,1,0,0:0:0:0:
368,304,237458,5,0,0:0:0:0:
224,144,237762,1,0,0:0:0:0:
96,304,238066,1,0,0:0:0:0:
32,96,238268,1,0,0:0:0:0:
272,112,238471,2,0,L|192:128,1,52.5
320,192,238673,1,0,0:0:0:0:
384,288,238774,2,0,L|320:272,1,52.5
96,288,238977,1,0,0:0:0:0:
208,240,239078,5,0,0:0:0:0:
64,160,239382,1,0,0:0:0:0:
368,128,239685,1,0,0:0:0:0:
512,48,239888,2,0,L|384:48,1,105
320,144,240191,2,0,L|224:144,1,52.5
192,240,240495,2,0,L|272:240,1,52.5
0,336,240697,2,0,L|128:336|112:336,1,105
304,224,241102,2,0,L|208:224,1,52.5
208,160,241305,2,0,L|272:160,2,52.5,0|0|0,0:0|0:0|0:0,0:0:0:0:
16,160,241709,5,0,0:0:0:0:
48,160,241811,1,0,0:0:0:0:
80,160,241912,1,0,0:0:0:0:
240,96,242114,1,0,0:0:0:0:
208,96,242216,1,0,0:0:0:0:
176,96,242317,2,0,P|160:160|208:240,1,157.5
352,176,242722,2,0,P|352:96|272:32,1,157.5
256,48,243126,6,0,P|304:96|352:336,1,315
96,224,243936,6,0,P|208:112|400:80,1,315
272,304,244746,6,0,P|144:192|96:48,1,315
400,48,245556,6,0,P|320:240|208:320,1,315
256,192,246365,12,0,247580,0:0:0:0:
128,176,247985,5,0,0:0:0:0:
144,224,248086,1,0,0:0:0:0:
176,264,248187,1,0,0:0:0:0:
224,288,248288,1,0,0:0:0:0:
272,304,248390,6,0,L|320:336,3,52.5
320,288,248794,2,0,L|384:272,3,52.5,0|0|0|0,0:0|0:0|0:0|0:0,0:0:0:0:
352,240,249199,1,0,0:0:0:0:
368,192,249301,1,0,0:0:0:0:
368,144,249402,1,0,0:0:0:0:
368,96,249503,6,0,B|336:104|336:104|256:96,1,65.625
208,112,249705,1,0,0:0:0:0:
192,120,249807,1,0,0:0:0:0:
176,128,249908,1,0,0:0:0:0:
96,192,250009,6,0,B|80:208|80:208|64:256,1,65.625
128,336,250212,1,0,0:0:0:0:
176,336,250313,1,0,0:0:0:0:
336,288,250414,6,0,B|288:288|288:288|256:304,1,65.625
416,208,250616,1,0,0:0:0:0:
288,176,250718,2,0,B|256:160|256:160|224:112,1,65.625
336,96,250920,1,0,0:0:0:0:
416,160,251021,2,0,B|368:176|368:176|320:224,1,65.625
384,304,251224,6,0,L|240:304,1,78.7500030040742
256,288,251426,1,0,0:0:0:0:
208,288,251527,1,0,0:0:0:0:
160,272,251629,2,0,L|0:272,1,131.25,4|0,0:0|0:0,0:0:0:0:
208,240,251932,6,0,L|64:240,1,105,4|0,0:0|0:0,0:0:0:0:
304,192,252236,6,0,L|160:192,1,105,4|0,0:0|0:0,0:0:0:0:
400,128,252539,6,0,L|304:128,1,78.7500030040742,4|0,0:0|0:0,0:0:0:0:
512,48,252843,6,0,L|448:48,1,52.5
256,48,253147,1,4,0:0:0:0:
256,192,253450,12,4,259726,0:0:0:0:
