osu file format v14

[General]
AudioFilename: Megumi Hayashibara - Breeze(off vocal).mp3
AudioLeadIn: 0
PreviewTime: -1
Countdown: 1
SampleSet: None
StackLeniency: 0.7
Mode: 0
LetterboxInBreaks: 1
WidescreenStoryboard: 1

[Editor]
Bookmarks: 63268,117216,120050,131892
DistanceSpacing: 0.7
BeatDivisor: 4
GridSize: 16
TimelineZoom: 1.3

[Metadata]
Title:Breeze
TitleUnicode:Breeze
Artist:Megumi Hayashibara
ArtistUnicode:林原めぐみ
Creator:KagamineRin02
Version:Instrument
Source:Slayers
Tags:op,project,anime,sureiyaazu,02,Lina Inverse
BeatmapID:1412818
BeatmapSetID:215216

[Difficulty]
HPDrainRate:8
CircleSize:3.5
OverallDifficulty:9
ApproachRate:9.4
SliderMultiplier:2.1
SliderTickRate:1

[Events]
//Background and Video events
0,0,"1612xLina.Inverse.full.1289567_fb.jpg",0,0
//Break Periods
2,97655,108859
2,165672,177887
//Storyboard Layer 0 (Background)
//Storyboard Layer 1 (Fail)
//Storyboard Layer 2 (Pass)
//Storyboard Layer 3 (Foreground)
//Storyboard Sound Samples

[TimingPoints]
290,404.858299595142,4,2,0,100,1,0
11682,-133.333333333333,4,3,3,100,0,0
22884,-117.647058823529,4,3,2,100,0,0
29564,-117.647058823529,4,3,3,100,0,0
41507,-117.647058823529,4,3,1,100,0,0
42722,-117.647058823529,4,3,2,100,0,0
51831,-100,4,3,2,100,0,0
54463,-100,4,3,1,100,0,0
56892,-100,4,3,1,100,0,0
69847,-80,4,3,0,100,0,1
97377,-100,4,3,2,75,0,0
117216,-100,4,3,1,75,0,0
129766,-100,4,3,1,75,0,0
137458,-100,4,3,1,100,0,0
137863,-80,4,3,0,100,0,1
163167,-66.6666666666667,4,3,0,100,0,1
163369,-57.1428571428571,4,3,0,100,0,1
163572,-50,4,3,0,100,0,1
165394,-200,4,3,0,75,0,0
178349,-166.666666666667,4,2,0,75,0,0
181588,-142.857142857143,4,2,0,75,0,0
184827,-125,4,3,0,75,0,0
188066,-111.111111111111,4,3,0,75,0,0
191305,-100,4,3,0,75,0,0
194543,-133.333333333333,4,2,0,30,0,0
194543,-133.333333333333,4,2,0,50,0,0
196973,-200,4,2,0,50,0,0
197782,-133.333333333333,4,2,0,50,0,0
200212,-200,4,2,0,50,0,0
201021,-133.333333333333,4,3,0,50,0,0
203653,-100,4,3,0,75,0,0
208714,-100,4,3,0,100,0,0
209118,-80,4,3,0,100,0,1
236649,-100,4,3,0,75,0,0
242722,-79.9999999999999,4,3,0,75,0,0
243126,-100,4,3,0,75,0,0
247985,-100,4,3,0,85,0,0
249503,-80,4,3,0,80,0,0
251224,-66.6666666666667,4,3,0,80,0,0
251527,-80,4,3,0,80,0,0
251932,-100,4,3,0,70,0,0
252539,-133.333333333333,4,3,0,60,0,0
252843,-200,4,3,0,50,0,0

[Colours]
Combo1 : 155,55,255
Combo2 : 255,128,64
Combo3 : 243,231,78
Combo4 : 255,85,85

[HitObjects]
64,224,11760,5,0,0:0:0:0:
448,320,12098,1,0,0:0:0:0:
352,32,12435,1,0,0:0:0:0:
176,96,13245,5,8,0:0:0:0:
336,192,13447,2,0,L|384:192,1,39.3750015020371
144,288,13852,1,0,0:0:0:0:
112,304,13953,1,0,0:0:0:0:
80,304,14055,1,0,0:0:0:0:
400,160,14358,1,0,0:0:0:0:
112,112,14662,1,0,0:0:0:0:
336,304,14864,1,8,0:0:0:0:
240,48,15067,6,0,L|304:48,1,39.3750015020371
432,176,15370,2,0,L|464:224,2,39.3750015020371,0|0|0,0:0|0:0|0:0,0:0:0:0:
256,304,15674,1,0,0:0:0:0:
64,176,15944,1,0,0:0:0:0:
448,176,16214,1,0,0:0:0:0:
128,176,16484,5,8,0:0:0:0:
272,176,16686,2,0,L|336:160,1,39.3750015020371
48,176,16990,2,0,L|0:160,1,39.3750015020371,0|0,0:0|0:0,0:0:0:0:
240,144,17294,2,0,L|176:128,1,39.3750015020371
464,128,17597,2,0,L|512:112,1,39.3750015020371
384,160,17901,1,0,0:0:0:0:
144,96,18103,5,8,0:0:0:0:
64,80,18306,2,0,L|0:64,1,39.3750015020371
368,272,18609,2,0,L|432:288,2,39.3750015020371,0|0|0,0:0|0:0|0:0,0:0:0:0:
176,224,18913,1,0,0:0:0:0:
400,80,19183,1,0,0:0:0:0:
208,48,19453,1,0,0:0:0:0:
32,80,19723,5,8,0:0:0:0:
480,288,20128,1,8,0:0:0:0:
184,48,20532,1,8,0:0:0:0:
336,336,20937,1,8,0:0:0:0:
336,48,21342,1,8,0:0:0:0:
184,336,21747,1,8,0:0:0:0:
480,80,22152,1,8,0:0:0:0:
32,288,22557,1,8,0:0:0:0:
320,96,22962,6,0,L|400:32,1,89.2500017023087
440,192,23366,2,0,L|328:192,1,89.2500017023087,8|0,0:0|0:0,0:0:0:0:
72,192,23771,2,0,L|200:192,1,89.2500017023087,0|0,0:0|0:0,0:0:0:0:
168,272,24176,2,0,L|88:352,1,89.2500017023087,8|0,0:0|0:0,0:0:0:0:
168,112,24581,2,0,L|72:40,1,89.2500017023087
344,280,24986,2,0,L|440:360,1,89.2500017023087,8|0,0:0|0:0,0:0:0:0:
176,128,25391,2,0,L|48:112,1,89.2500017023087
336,256,25796,2,0,L|448:272,1,89.2500017023087,8|0,0:0|0:0,0:0:0:0:
160,256,26200,5,0,0:0:0:0:
112,272,26403,1,0,0:0:0:0:
352,128,26605,1,8,0:0:0:0:
400,112,26808,1,0,0:0:0:0:
192,288,27010,1,0,0:0:0:0:
160,320,27213,1,0,0:0:0:0:
320,96,27415,1,8,0:0:0:0:
352,64,27617,1,0,0:0:0:0:
24,144,27820,5,8,0:0:0:0:
56,160,27921,1,0,0:0:0:0:
88,176,28022,1,0,0:0:0:0:
136,160,28124,1,0,0:0:0:0:
184,176,28225,1,8,0:0:0:0:
232,192,28326,1,0,0:0:0:0:
280,192,28427,1,0,0:0:0:0:
328,176,28528,1,0,0:0:0:0:
376,160,28630,1,8,0:0:0:0:
424,176,28731,1,0,0:0:0:0:
456,160,28832,1,0,0:0:0:0:
488,144,28933,1,0,0:0:0:0:
360,64,29034,6,8,P|408:64|424:80,1,44.6250008511543
256,64,29237,1,8,0:0:0:0:
152,64,29338,2,8,P|104:64|88:80,1,44.6250008511543
416,256,29642,6,0,L|480:272,1,44.6250008511543,0|0,0:0|0:0,0:0:0:0:
224,256,29844,2,0,L|160:272,2,44.6250008511543,8|0|0,0:0|0:0|0:0,0:0:0:0:
320,144,30249,1,8,0:0:0:0:
208,48,30451,2,0,L|160:32,1,44.6250008511543
432,48,30654,2,0,L|512:16,2,44.6250008511543,8|0|0,0:0|0:0|0:0,0:0:0:0:
16,48,31059,5,8,0:0:0:0:
176,160,31261,2,0,L|224:144,2,44.6250008511543,0|0|8,0:0|0:0|0:0,0:0:0:0:
368,288,31666,1,0,0:0:0:0:
144,288,31868,1,8,0:0:0:0:
336,160,32071,2,0,L|288:144,2,44.6250008511543,0|0|0,0:0|0:0|0:0,0:0:0:0:
512,48,32476,5,0,0:0:0:0:
464,64,32577,1,0,0:0:0:0:
416,48,32678,2,0,L|384:48|320:48,1,89.2500017023087,8|0,0:0|0:0,0:0:0:0:
128,48,32982,1,0,0:0:0:0:
176,64,33083,1,8,0:0:0:0:
224,48,33184,1,0,0:0:0:0:
272,64,33286,1,0,0:0:0:0:
416,160,33488,6,0,P|400:112|352:80,1,89.2500017023087,8|0,0:0|0:0,0:0:0:0:
96,224,33893,2,0,P|112:272|160:304,1,89.2500017023087,8|0,0:0|0:0,0:0:0:0:
320,64,34298,1,8,0:0:0:0:
192,320,34500,1,0,0:0:0:0:
256,336,34601,1,0,0:0:0:0:
320,320,34702,1,8,0:0:0:0:
128,208,34905,5,0,0:0:0:0:
384,208,35107,1,8,0:0:0:0:
160,96,35310,1,0,0:0:0:0:
208,96,35411,1,0,0:0:0:0:
256,80,35512,1,8,0:0:0:0:
304,96,35613,1,0,0:0:0:0:
352,96,35715,1,0,0:0:0:0:
416,240,35917,5,8,0:0:0:0:
80,240,36119,1,0,0:0:0:0:
96,208,36221,1,0,0:0:0:0:
128,192,36322,2,0,B|160:160|160:160|176:112|176:112|192:128|192:128|272:64,2,178.500003404617,8|8|8,0:0|0:0|0:0,0:0:0:0:
336,32,37334,1,0,0:0:0:0:
256,208,37536,2,0,B|288:224|288:224|288:256|288:256|304:288,1,89.2500017023087,8|0,0:0|0:0,0:0:0:0:
336,272,37840,1,0,0:0:0:0:
352,240,37941,1,8,0:0:0:0:
368,216,38043,1,0,0:0:0:0:
400,208,38144,1,0,0:0:0:0:
64,48,38346,6,0,B|128:48|128:48|160:96,1,89.2500017023087,8|0,0:0|0:0,0:0:0:0:
224,272,38751,2,0,B|160:272|160:272|160:272|160:272|128:224,1,89.2500017023087,8|0,0:0|0:0,0:0:0:0:
496,80,39156,1,8,0:0:0:0:
336,272,39358,2,0,L|416:288,1,44.6250008511543
416,176,39561,2,0,L|480:192,2,44.6250008511543,8|0|0,0:0|0:0|0:0,0:0:0:0:
304,160,39966,2,0,B|240:160|240:160|224:176|224:176|208:160|208:160|192:160|192:160|128:160,1,178.500003404617,8|8,0:0|0:0,0:0:0:0:
384,160,40573,1,0,0:0:0:0:
80,64,40775,2,0,B|144:64|144:64|160:48|160:48|176:64|176:64|240:64|240:64|272:64,1,178.500003404617,8|8,0:0|0:0,0:0:0:0:
0,64,41383,5,0,0:0:0:0:
416,80,41585,1,4,0:0:0:0:
384,80,41686,1,4,0:0:0:0:
352,96,41787,1,8,0:0:0:0:
320,96,41889,1,4,0:0:0:0:
288,80,41990,1,4,0:0:0:0:
256,80,42091,1,4,0:0:0:0:
224,96,42192,1,8,0:0:0:0:
192,96,42294,1,4,0:0:0:0:
160,96,42395,1,4,0:0:0:0:
16,96,42597,1,0,0:0:0:0:
464,176,42800,6,0,B|432:176|432:176|432:192|432:192|384:160|384:160|384:176|384:176|320:144,1,178.500003404617,8|0,0:0|0:0,0:0:0:0:
48,256,43609,2,0,B|64:272|64:272|64:288|64:288|80:288|80:288|128:320,1,89.2500017023087,8|0,0:0|0:0,0:0:0:0:
496,352,44014,1,0,0:0:0:0:
448,336,44115,1,0,0:0:0:0:
416,288,44217,1,0,0:0:0:0:
432,240,44318,1,0,0:0:0:0:
464,208,44419,1,8,0:0:0:0:
256,192,44621,5,0,0:0:0:0:
16,32,44824,1,0,0:0:0:0:
64,48,44925,1,0,0:0:0:0:
96,96,45026,1,0,0:0:0:0:
80,144,45128,1,0,0:0:0:0:
48,176,45229,1,8,0:0:0:0:
16,208,45431,6,0,L|80:224,1,44.6250008511543,0|0,0:0|0:0,0:0:0:0:
16,304,45634,1,0,0:0:0:0:
224,208,45735,2,0,L|144:224,1,44.6250008511543
256,160,45937,1,0,0:0:0:0:
288,208,46038,2,0,L|352:224,1,44.6250008511543,8|0,0:0|0:0,0:0:0:0:
496,304,46241,1,0,0:0:0:0:
496,208,46342,2,0,L|432:224,1,44.6250008511543
112,208,46545,2,0,L|96:256,1,44.6250008511543,0|0,0:0|0:0,0:0:0:0:
400,304,46747,2,0,L|416:256,1,44.6250008511543,0|8,0:0|0:0,0:0:0:0:
256,192,47051,5,0,0:0:0:0:
496,176,47253,2,0,L|432:160,1,44.6250008511543
496,80,47455,1,0,0:0:0:0:
288,176,47557,2,0,L|352:160,1,44.6250008511543,0|8,0:0|0:0,0:0:0:0:
256,224,47759,1,0,0:0:0:0:
224,176,47860,2,0,L|160:160,1,44.6250008511543
16,80,48063,1,0,0:0:0:0:
16,176,48164,2,0,L|80:160,1,44.6250008511543
400,80,48366,2,0,L|384:128,1,44.6250008511543,0|8,0:0|0:0,0:0:0:0:
112,176,48670,1,0,0:0:0:0:
128,144,48771,1,0,0:0:0:0:
144,112,48872,1,0,0:0:0:0:
256,192,49075,5,0,0:0:0:0:
240,160,49176,1,0,0:0:0:0:
256,128,49277,1,8,0:0:0:0:
272,96,49379,1,0,0:0:0:0:
256,64,49480,1,0,0:0:0:0:
240,32,49581,1,0,0:0:0:0:
352,48,49682,2,0,B|384:96|384:96|384:128|384:128|400:128|400:128|416:128|416:128|432:128|432:128|448:176,1,178.500003404617,0|8,0:0|0:0,0:0:0:0:
352,48,50290,1,0,0:0:0:0:
64,336,50492,2,0,B|80:288|80:288|80:288|96:288|96:288|112:288|112:288|128:288|128:288|128:288|128:288|128:256|128:256|160:208,1,178.500003404617,0|8,0:0|0:0,0:0:0:0:
64,336,51099,1,0,0:0:0:0:
464,208,51302,6,0,L|416:176,1,44.6250008511543
384,176,51504,1,0,0:0:0:0:
336,192,51605,1,0,0:0:0:0:
288,208,51707,2,0,L|256:144,1,44.6250008511543,8|0,0:0|0:0,0:0:0:0:
240,224,51909,1,0,0:0:0:0:
192,240,52111,2,0,B|128:256|128:256|96:240|96:240|96:272|96:272|96:272|96:272|32:352,1,210,0|8,0:0|0:0,0:0:0:0:
192,240,52719,1,0,0:0:0:0:
272,16,52921,2,0,B|288:64|288:64|304:96|304:96|304:96|304:96|272:96|272:96|240:208,1,210,0|8,0:0|0:0,0:0:0:0:
272,16,53528,1,0,0:0:0:0:
400,176,53731,2,0,B|432:240|432:256|432:256|416:256|416:256|416:288,1,105,8|0,0:0|0:0,0:0:0:0:
256,256,54034,1,0,0:0:0:0:
112,256,54136,2,0,B|96:192|96:176|96:176|112:176|112:176|112:144,1,105,8|0,0:0|0:0,0:0:0:0:
256,168,54439,1,0,0:0:0:0:
336,240,54541,5,4,0:0:0:0:
304,240,54642,1,4,0:0:0:0:
256,240,54743,1,8,0:0:0:0:
224,256,54844,1,4,0:0:0:0:
176,248,54945,1,4,0:0:0:0:
128,256,55047,1,4,0:0:0:0:
80,240,55148,1,8,0:0:0:0:
32,224,55249,1,4,0:0:0:0:
432,336,55350,2,0,B|464:336|448:304|448:304|480:240|480:240|432:208|432:208|448:176|416:192,1,210,0|8,0:0|0:0,0:0:0:0:
80,48,56160,2,0,B|48:48|64:80|64:80|32:144|32:144|80:176|80:176|64:208|128:176,1,210,0|8,0:0|0:0,0:0:0:0:
176,112,56970,6,0,P|112:112|64:80,1,105,0|0,0:0|0:0,0:0:0:0:
336,272,57375,2,0,P|400:272|448:304,1,105,8|0,0:0|0:0,0:0:0:0:
432,160,57779,2,0,L|496:176,1,52.5,4|4,0:0|0:0,0:0:0:0:
368,96,57982,2,0,L|432:112,1,52.5,8|4,0:0|0:0,0:0:0:0:
304,32,58184,2,0,L|400:48,2,52.5,4|4|8,0:0|0:0|0:0,0:0:0:0:
80,192,58589,6,0,B|64:112|64:112|80:112|64:96|64:96|112:96|112:96|112:80|112:80|144:32,1,210,0|8,0:0|0:0,0:0:0:0:
432,336,59399,2,0,B|448:256|448:256|432:256|448:240|448:240|400:240|400:240|400:224|400:224|368:176,1,210,0|8,0:0|0:0,0:0:0:0:
80,288,60209,1,0,0:0:0:0:
432,288,60411,1,0,0:0:0:0:
144,96,60613,1,8,0:0:0:0:
368,96,60816,1,0,0:0:0:0:
80,224,61018,6,0,L|0:208,1,52.5,4|4,0:0|0:0,0:0:0:0:
144,288,61221,2,0,L|64:272,1,52.5,8|4,0:0|0:0,0:0:0:0:
208,352,61423,2,0,L|144:336,2,52.5,4|4|8,0:0|0:0|0:0,0:0:0:0:
80,48,61828,1,0,0:0:0:0:
512,224,62233,1,8,0:0:0:0:
144,48,62638,1,0,0:0:0:0:
512,288,63043,1,8,0:0:0:0:
208,48,63447,2,0,B|256:64|272:80|272:80|288:48|288:48|304:48|304:48|320:48|320:48|432:32,1,210,0|8,0:0|0:0,0:0:0:0:
512,352,64055,1,0,0:0:0:0:
16,336,64257,5,0,0:0:0:0:
256,192,64460,1,0,0:0:0:0:
512,16,64662,1,8,0:0:0:0:
256,16,64864,1,0,0:0:0:0:
480,144,65067,6,0,B|496:80|464:32|464:32|448:32|448:32|432:32|432:32|416:32|416:32|368:32,1,210,0|8,0:0|0:0,0:0:0:0:
32,240,65877,2,0,B|16:304|48:352|48:352|64:352|64:352|80:352|80:352|96:352|96:352|160:352,1,210,0|8,0:0|0:0,0:0:0:0:
256,192,66484,12,0,67901,0:0:0:0:
464,208,68306,5,8,0:0:0:0:
48,208,68711,1,8,0:0:0:0:
384,128,68913,1,0,0:0:0:0:
144,288,69115,1,0,0:0:0:0:
96,112,69318,1,0,0:0:0:0:
416,288,69520,2,0,L|352:304,3,52.5,0|0|0|0,0:0|0:0|0:0|0:0,0:0:0:0:
192,224,69925,6,0,L|112:208,1,65.625,0|0,0:0|0:0,0:0:0:0:
96,208,70128,1,0,0:0:0:0:
304,144,70229,2,0,L|416:160,1,65.625,0|0,0:0|0:0,0:0:0:0:
400,160,70431,1,0,0:0:0:0:
176,48,70532,6,0,P|144:96|160:144,1,65.625,0|0,0:0|0:0,0:0:0:0:
96,128,70735,1,0,0:0:0:0:
112,160,70836,1,0,0:0:0:0:
128,192,70937,1,0,0:0:0:0:
352,320,71038,6,0,P|368:272|336:208,1,65.625,0|0,0:0|0:0,0:0:0:0:
432,272,71241,1,0,0:0:0:0:
416,240,71342,1,0,0:0:0:0:
400,208,71443,1,0,0:0:0:0:
32,80,71545,6,0,P|128:96|144:112,1,65.625,0|0,0:0|0:0,0:0:0:0:
304,240,71747,2,0,P|208:224|192:208,1,65.625,0|0,0:0|0:0,0:0:0:0:
64,48,71949,2,0,P|128:80|144:112,1,65.625,0|0,0:0|0:0,0:0:0:0:
272,240,72152,2,0,P|224:224|208:208,1,65.625,0|0,0:0|0:0,0:0:0:0:
192,128,72354,6,0,B|192:160|192:160|208:176|208:176|208:192|208:192|224:192|224:192|224:208|224:208|240:208|240:208|288:208,2,131.25,0|0|0,0:0|0:0|0:0,0:0:0:0:
480,192,72962,2,0,B|480:224|464:240|464:240|464:256|464:256|448:256|448:256|448:272|448:272|432:272|432:272|432:288|432:288|384:288,1,131.25,0|0,0:0|0:0,0:0:0:0:
352,112,73366,2,0,B|368:104|368:104|376:88|376:88|392:96|392:96|408:88,1,65.625
288,192,73569,1,0,0:0:0:0:
240,280,73670,2,0,B|216:320|208:296|208:296|152:296,1,65.625
416,112,73974,6,0,P|480:128|496:144,2,65.625,0|0|0,0:0|0:0|0:0,0:0:0:0:
256,112,74277,1,0,0:0:0:0:
96,112,74379,2,0,P|32:128|16:144,2,65.625,0|0|0,0:0|0:0|0:0,0:0:0:0:
256,112,74682,1,0,0:0:0:0:
64,48,74783,6,0,L|96:112,1,65.625
240,128,74986,2,0,L|240:208,1,65.625
384,224,75188,2,0,L|352:304,2,65.625,0|0|0,0:0|0:0|0:0,0:0:0:0:
448,48,75492,6,0,L|400:128,1,65.625
272,128,75695,2,0,L|272:240,1,65.625
112,224,75897,2,0,L|144:304,2,65.625,0|0|0,0:0|0:0|0:0,0:0:0:0:
352,288,76200,5,0,0:0:0:0:
392,304,76302,1,0,0:0:0:0:
432,320,76403,1,0,0:0:0:0:
464,336,76504,2,0,L|416:240,1,65.625
288,256,76707,2,0,L|272:160,1,65.625
128,160,76909,2,0,L|128:64,2,65.625,0|0|0,0:0|0:0|0:0,0:0:0:0:
224,128,77213,6,0,L|320:112,1,65.625
288,256,77415,2,0,L|192:224,1,65.625
128,96,77617,2,0,L|128:16,1,65.625
384,272,77820,2,0,L|384:368,1,65.625
160,288,78022,2,0,P|80:288|48:304,2,65.625,0|0|0,0:0|0:0|0:0,0:0:0:0:
256,192,78326,1,0,0:0:0:0:
352,96,78427,2,0,P|400:96|464:72,2,65.625,0|0|0,0:0|0:0|0:0,0:0:0:0:
168,96,78731,1,0,0:0:0:0:
136,88,78832,1,0,0:0:0:0:
96,96,78933,1,0,0:0:0:0:
64,112,79034,2,0,B|96:160|96:160|104:176|104:176|120:176|120:176|128:192|128:192|128:240,2,131.25,0|0|0,0:0|0:0|0:0,0:0:0:0:
336,120,79642,5,0,0:0:0:0:
368,104,79743,1,0,0:0:0:0:
408,96,79844,1,0,0:0:0:0:
440,104,79945,1,0,0:0:0:0:
464,120,80047,2,0,P|464:160|416:216,1,65.625
288,288,80249,2,0,P|296:256|336:208,1,65.625
192,112,80451,2,0,P|176:160|112:192,1,65.625
16,64,80654,2,0,P|48:0|80:-16,1,65.625
32,96,80856,1,0,0:0:0:0:
48,120,80958,1,0,0:0:0:0:
72,144,81059,1,0,0:0:0:0:
96,160,81160,1,0,0:0:0:0:
288,152,81261,5,0,0:0:0:0:
272,192,81362,1,0,0:0:0:0:
240,224,81464,1,0,0:0:0:0:
200,240,81565,1,0,0:0:0:0:
104,144,81666,2,0,P|144:80|232:64,1,131.25
160,192,82071,1,0,0:0:0:0:
184,152,82172,1,0,0:0:0:0:
224,120,82273,1,0,0:0:0:0:
272,104,82374,1,0,0:0:0:0:
416,240,82476,2,0,P|368:304|288:320,1,131.25
376,40,82881,6,0,P|360:64|376:96,2,65.625,0|0|0,0:0|0:0|0:0,0:0:0:0:
432,192,83184,1,0,0:0:0:0:
384,344,83285,2,0,P|392:312|384:280,2,65.625,0|0|0,0:0|0:0|0:0,0:0:0:0:
256,192,83589,5,0,0:0:0:0:
232,144,83690,1,0,0:0:0:0:
184,112,83792,1,0,0:0:0:0:
136,144,83893,1,0,0:0:0:0:
112,192,83994,1,0,0:0:0:0:
136,248,84095,1,0,0:0:0:0:
184,272,84196,1,0,0:0:0:0:
240,248,84298,1,0,0:0:0:0:
256,192,84399,1,0,0:0:0:0:
320,88,84500,6,0,P|352:80|384:88,1,65.625
192,304,84702,2,0,P|160:312|128:304,1,65.625
408,128,84905,2,0,P|448:144|472:192,1,65.625
104,264,85107,2,0,P|64:256|40:200,1,65.625
112,96,85310,1,0,0:0:0:0:
368,312,85512,1,0,0:0:0:0:
136,72,85715,1,0,0:0:0:0:
336,320,85917,1,0,0:0:0:0:
176,64,86119,1,0,0:0:0:0:
256,192,86322,5,0,0:0:0:0:
288,96,86423,2,0,L|208:16,1,65.625
224,288,86626,2,0,L|288:352,1,65.625
136,40,86929,6,0,P|152:64|128:104,2,65.625,0|0|0,0:0|0:0|0:0,0:0:0:0:
96,192,87233,1,0,0:0:0:0:
152,344,87334,2,0,P|136:320|152:288,2,65.625,0|0|0,0:0|0:0|0:0,0:0:0:0:
256,192,87638,5,0,0:0:0:0:
280,144,87740,1,0,0:0:0:0:
328,112,87841,1,0,0:0:0:0:
376,144,87942,1,0,0:0:0:0:
400,192,88043,1,0,0:0:0:0:
384,248,88145,1,0,0:0:0:0:
328,272,88246,1,0,0:0:0:0:
280,248,88347,1,0,0:0:0:0:
256,192,88448,1,0,0:0:0:0:
176,320,88549,5,0,0:0:0:0:
376,72,88751,1,0,0:0:0:0:
144,312,88954,1,0,0:0:0:0:
400,96,89156,1,0,0:0:0:0:
112,288,89358,1,0,0:0:0:0:
288,224,89561,5,0,0:0:0:0:
432,304,89662,2,0,L|352:320,1,65.625
168,112,89864,2,0,L|240:128,1,65.625
320,32,90168,6,0,B|384:32|384:32|400:32|400:32|384:48|384:48|400:64|400:64|384:64|384:64|416:96|496:112,1,262.5
320,32,90775,1,0,0:0:0:0:
192,352,90978,2,0,B|128:352|128:352|112:352|112:352|128:336|128:336|112:320|112:320|128:320|128:320|96:288|16:272,1,262.5
192,352,91585,1,0,0:0:0:0:
160,176,91787,5,0,0:0:0:0:
192,144,91889,1,0,0:0:0:0:
240,128,91990,1,0,0:0:0:0:
288,144,92091,1,0,0:0:0:0:
192,256,92192,6,0,L|112:336,1,65.625
320,128,92395,2,0,L|400:48,1,65.625
176,240,92597,2,0,L|112:272,1,65.625
336,144,92800,2,0,L|416:112,1,65.625,0|0,0:0|0:0,0:0:0:0:
160,224,93002,2,0,L|48:240,1,65.625
352,160,93204,2,0,L|448:144,1,65.625
144,208,93407,2,0,L|48:208,1,65.625
368,176,93609,2,0,L|480:176,1,65.625
128,192,93812,2,0,L|48:160,1,65.625
384,192,94014,2,0,L|480:224,1,65.625
176,64,94217,5,0,0:0:0:0:
224,80,94318,1,0,0:0:0:0:
272,96,94419,1,0,0:0:0:0:
320,112,94520,1,0,0:0:0:0:
320,320,94621,5,0,0:0:0:0:
272,304,94723,1,0,0:0:0:0:
224,288,94824,1,0,0:0:0:0:
176,272,94925,1,0,0:0:0:0:
176,48,95026,6,0,L|256:64,1,65.625
336,320,95229,2,0,L|256:304,1,65.625
144,192,95431,2,0,L|160:272,1,65.625
368,192,95634,2,0,L|352:112,1,65.625
32,144,95836,5,0,0:0:0:0:
64,128,95937,1,0,0:0:0:0:
96,128,96038,1,0,0:0:0:0:
128,144,96140,1,0,0:0:0:0:
160,160,96241,1,0,0:0:0:0:
192,168,96342,1,0,0:0:0:0:
224,176,96443,1,0,0:0:0:0:
264,176,96545,1,0,0:0:0:0:
176,304,96646,6,0,L|96:336,3,65.625,0|0|0|0,0:0|0:0|0:0|0:0,0:0:0:0:
368,64,97051,6,0,L|448:32,3,65.625,0|0|0|0,0:0|0:0|0:0|0:0,0:0:0:0:
160,144,97455,1,0,0:0:0:0:
400,96,109399,5,8,0:0:0:0:
384,128,109500,1,8,0:0:0:0:
368,160,109601,1,8,0:0:0:0:
352,192,109702,1,8,0:0:0:0:
384,208,109803,1,8,0:0:0:0:
320,224,109905,1,8,0:0:0:0:
256,240,110006,1,8,0:0:0:0:
192,256,110107,1,8,0:0:0:0:
112,272,110209,1,8,0:0:0:0:
32,288,110310,1,8,0:0:0:0:
128,192,110411,6,0,L|0:224,1,105
304,144,110816,2,0,L|400:120,2,52.5,0|0|0,0:0|0:0|0:0,0:0:0:0:
208,160,111119,1,0,0:0:0:0:
128,112,111221,2,0,L|32:88,2,52.5,0|0|0,0:0|0:0|0:0,0:0:0:0:
448,16,111626,1,0,0:0:0:0:
512,304,111828,5,0,0:0:0:0:
488,176,112030,2,0,L|512:120|512:120,1,52.5
320,224,112233,2,0,L|400:192,2,52.5,0|0|0,0:0|0:0|0:0,0:0:0:0:
160,272,112638,1,0,0:0:0:0:
24,176,112840,6,0,L|0:112,1,52.5
192,224,113043,2,0,L|144:192,2,52.5,0|0|0,0:0|0:0|0:0,0:0:0:0:
368,288,113447,6,0,L|288:288,1,52.5,0|0,0:0|0:0,0:0:0:0:
208,192,113650,1,0,0:0:0:0:
368,96,113751,2,0,L|296:96,1,52.5
480,192,113953,1,0,0:0:0:0:
344,192,114055,2,0,L|288:192,1,52.5
320,288,114257,2,0,L|392:288,1,52.5
480,288,114460,1,0,0:0:0:0:
160,320,114561,2,0,L|80:344,1,52.5
224,208,114763,2,0,L|160:232,1,52.5
0,256,115067,5,0,0:0:0:0:
144,96,115269,2,0,L|224:96,1,52.5
320,192,115472,1,0,0:0:0:0:
144,288,115573,2,0,L|216:288,1,52.5
32,192,115775,1,0,0:0:0:0:
216,192,115877,2,0,L|128:192,1,52.5
96,192,116079,1,0,0:0:0:0:
352,320,116180,2,0,L|432:344,1,52.5
288,208,116383,2,0,L|368:232,1,52.5
352,96,116686,5,0,0:0:0:0:
384,96,116787,1,0,0:0:0:0:
416,96,116889,1,0,0:0:0:0:
224,96,117091,1,0,0:0:0:0:
256,80,117192,1,0,0:0:0:0:
288,64,117294,1,0,0:0:0:0:
320,64,117395,1,0,0:0:0:0:
352,64,117496,1,0,0:0:0:0:
384,64,117597,1,0,0:0:0:0:
160,48,117698,6,0,B|160:80|160:80|144:112|144:112|112:112|112:112|96:64|96:64|64:64|64:64|64:112|64:112|64:128,1,210
192,32,118306,1,0,0:0:0:0:
352,336,118508,2,0,B|352:288|352:288|368:272|368:272|400:272|400:272|416:320|416:320|448:320|448:320|448:272|448:272|448:256,1,210
320,352,119115,1,0,0:0:0:0:
112,192,119317,1,0,0:0:0:0:
144,176,119419,1,0,0:0:0:0:
176,192,119520,1,0,0:0:0:0:
208,176,119622,1,0,0:0:0:0:
288,192,119723,2,0,L|192:192,1,52.5
416,192,119925,5,0,0:0:0:0:
256,48,120128,2,0,B|224:64|224:64|208:96|208:96|224:128|224:128|256:144|256:144|288:128|288:128|304:96|304:96|288:64,1,210
496,192,120735,1,0,0:0:0:0:
256,256,120937,2,0,B|288:272|288:272|304:304|304:304|288:336|288:336|256:352|256:352|224:336|224:336|208:304|208:304|224:272,1,210
0,192,121545,1,0,0:0:0:0:
144,80,121747,6,0,B|160:112|160:112|176:96|176:96|192:112|192:112|176:128|176:128|224:128,1,105,8|0,0:0|0:0,0:0:0:0:
224,224,122051,1,0,0:0:0:0:
368,304,122152,2,0,B|352:272|352:272|336:288|336:288|320:272|320:272|336:256|336:256|288:256,1,105,8|0,0:0|0:0,0:0:0:0:
288,160,122455,1,0,0:0:0:0:
80,80,122557,5,4,0:0:0:0:
112,80,122658,1,4,0:0:0:0:
144,80,122759,1,8,0:0:0:0:
176,96,122860,1,4,0:0:0:0:
208,96,122962,1,4,0:0:0:0:
240,96,123063,1,4,0:0:0:0:
272,112,123164,1,8,0:0:0:0:
304,120,123265,1,4,0:0:0:0:
320,144,123366,6,0,B|352:112|352:112|384:128|384:128|384:96|384:96|416:112|416:112|432:80|432:80|464:96|464:96|480:64,1,210,0|8,0:0|0:0,0:0:0:0:
192,240,124176,2,0,B|160:272|160:272|128:256|128:256|128:288|128:288|96:272|96:272|80:304|80:304|48:288|48:288|48:320,1,210,0|8,0:0|0:0,0:0:0:0:
208,128,124986,2,0,P|144:112|96:112,1,105
304,256,125391,2,0,P|368:272|432:272,1,105,8|0,0:0|0:0,0:0:0:0:
48,80,125796,6,0,L|16:16,1,52.5,4|4,0:0|0:0,0:0:0:0:
160,128,125998,2,0,L|128:64,1,52.5,8|4,0:0|0:0,0:0:0:0:
272,176,126200,2,4,L|240:112,2,52.5,4|4|8,0:0|0:0|0:0,0:0:0:0:
48,304,126605,2,0,B|80:304|80:304|96:288|96:288|112:304|112:304|112:272|112:272|144:288|144:288|144:256|144:256|176:272,1,210,0|8,0:0|0:0,0:0:0:0:
464,80,127415,2,0,B|432:80|432:80|416:96|416:96|400:80|400:80|400:112|400:112|368:96|368:96|368:128|368:128|336:112,1,210,0|8,0:0|0:0,0:0:0:0:
96,112,128225,2,0,P|144:112|208:128,1,105
416,272,128630,2,0,P|368:272|304:256,1,105,8|0,0:0|0:0,0:0:0:0:
464,304,129034,2,0,L|496:368,1,52.5,4|4,0:0|0:0,0:0:0:0:
352,256,129237,2,0,L|384:320|384:320,1,52.5,8|4,0:0|0:0,0:0:0:0:
240,208,129439,2,0,L|272:272,2,52.5,4|4|8,0:0|0:0|0:0,0:0:0:0:
64,192,129844,5,0,0:0:0:0:
448,176,130249,1,8,0:0:0:0:
48,144,130654,1,0,0:0:0:0:
464,80,131059,1,8,0:0:0:0:
320,256,131464,2,0,B|272:272|272:272|256:288|256:288|240:256|240:256|224:256|224:256|208:256|208:256|176:240|176:240|112:232,1,210,0|8,0:0|0:0,0:0:0:0:
0,32,132071,1,0,0:0:0:0:
496,48,132273,5,0,0:0:0:0:
256,192,132476,1,0,0:0:0:0:
0,368,132678,1,8,0:0:0:0:
256,368,132881,1,0,0:0:0:0:
416,32,133083,2,0,B|384:48|384:48|400:64|400:64|384:80|384:80|368:64|368:64|368:96|368:96|336:128|336:128|304:160,1,210,0|8,0:0|0:0,0:0:0:0:
112,304,133893,2,0,B|80:280|80:280|64:264|64:264|96:264|96:264|80:248|80:248|96:232|96:232|112:192|112:192|128:144,1,210,0|8,0:0|0:0,0:0:0:0:
384,220,134500,1,0,0:0:0:0:
256,192,134702,12,0,135917,0:0:0:0:
48,288,136322,5,0,0:0:0:0:
464,192,136727,1,0,0:0:0:0:
304,16,136929,1,0,0:0:0:0:
272,208,137132,1,0,0:0:0:0:
80,160,137334,1,0,0:0:0:0:
464,128,137536,2,0,L|528:120,3,52.5,0|0|0|0,0:0|0:0|0:0|0:0,0:0:0:0:
192,192,137941,6,0,L|112:192,1,65.625,0|0,0:0|0:0,0:0:0:0:
96,192,138144,1,0,0:0:0:0:
352,272,138245,2,0,L|400:176,1,65.625
392,192,138447,1,0,0:0:0:0:
304,48,138549,6,0,L|280:128,1,65.625
256,144,138751,1,0,0:0:0:0:
272,176,138852,1,0,0:0:0:0:
256,208,138953,1,0,0:0:0:0:
240,304,139055,2,0,L|224:224,1,65.625
208,208,139257,1,0,0:0:0:0:
192,176,139359,1,0,0:0:0:0:
208,144,139460,1,0,0:0:0:0:
280,56,139561,6,0,P|240:48|208:56,1,65.625
96,224,139763,2,0,P|112:272|144:304,1,65.625
368,288,139966,2,0,P|384:256|384:208,1,65.625
144,80,140168,2,0,P|144:128|160:160,1,65.625,0|0,0:0|0:0,0:0:0:0:
360,144,140370,2,0,P|368:96|352:40,1,65.625
48,64,140573,2,0,P|128:64|176:80,2,131.25,0|0|0,0:0|0:0|0:0,0:0:0:0:
464,64,141180,6,0,P|384:64|336:80,1,131.25,0|0,0:0|0:0,0:0:0:0:
312,88,141484,1,0,0:0:0:0:
288,96,141585,1,0,0:0:0:0:
272,112,141686,1,0,0:0:0:0:
256,136,141787,1,0,0:0:0:0:
248,160,141889,1,0,0:0:0:0:
144,240,141990,6,0,P|136:192|160:160,1,65.625
224,88,142192,2,0,P|256:80|296:96,1,65.625
376,184,142395,2,0,P|384:232|368:288,1,65.625
464,192,142597,2,0,P|464:160|448:128,1,65.625
256,48,142800,2,0,P|208:48|176:80,1,65.625
48,192,143002,2,0,P|48:224|64:256,1,65.625
256,336,143204,2,0,P|320:328|352:296,1,65.625
464,192,143407,2,0,P|472:160|472:112,1,65.625
192,112,143609,6,0,P|304:112|320:144,2,131.25,0|0|0,0:0|0:0|0:0,0:0:0:0:
80,112,144217,1,0,0:0:0:0:
400,288,144419,1,0,0:0:0:0:
368,304,144520,1,0,0:0:0:0:
336,312,144621,1,0,0:0:0:0:
296,304,144723,1,0,0:0:0:0:
192,320,144824,2,0,P|240:304|296:320,1,65.625
464,192,145026,2,0,P|416:176|368:192,1,65.625
128,64,145229,5,0,0:0:0:0:
128,64,145330,1,0,0:0:0:0:
288,256,145431,1,0,0:0:0:0:
288,256,145532,1,0,0:0:0:0:
368,64,145634,1,0,0:0:0:0:
368,64,145735,1,0,0:0:0:0:
448,160,145836,1,0,0:0:0:0:
448,160,145937,1,0,0:0:0:0:
512,80,146038,6,0,L|432:80,3,65.625,0|0|0|0,0:0|0:0|0:0|0:0,0:0:0:0:
272,144,146443,2,0,L|192:144,3,65.625,0|0|0|0,0:0|0:0|0:0|0:0,0:0:0:0:
448,208,146848,6,0,L|368:208,1,65.625
80,240,147051,2,0,L|176:240,1,65.625
448,256,147253,2,0,L|336:256,1,65.625
80,336,147455,2,0,B|64:272|64:272|64:256|64:256|80:256|80:256|80:272|80:272|96:272|96:272|48:192|48:192|0:128,1,262.5
256,48,148063,1,0,0:0:0:0:
304,32,148164,1,0,0:0:0:0:
352,48,148265,1,0,0:0:0:0:
400,64,148366,1,0,0:0:0:0:
448,80,148468,2,0,B|464:144|464:144|464:160|464:160|448:160|448:160|448:144|448:144|432:144|432:144|400:224|400:224|384:288,1,262.5
32,128,149075,1,0,0:0:0:0:
336,64,149277,6,0,L|352:144,1,65.625
304,144,149480,2,0,L|288:208,1,65.625
176,288,149682,2,0,P|240:224|256:240,1,131.25
176,64,150087,2,0,L|160:128,1,65.625
208,144,150290,2,0,L|224:208,1,65.625
312,288,150492,2,0,P|296:216|264:280,1,131.25
432,256,150897,5,0,0:0:0:0:
432,256,150998,1,0,0:0:0:0:
288,64,151099,1,0,0:0:0:0:
288,64,151200,1,0,0:0:0:0:
208,304,151302,1,0,0:0:0:0:
208,304,151403,1,0,0:0:0:0:
48,96,151504,1,0,0:0:0:0:
48,96,151605,1,0,0:0:0:0:
56,320,151707,2,0,B|104:304|104:304|112:344|112:344|128:312|128:312|120:280|120:280|136:248|136:248|128:216|128:216|176:184,1,262.5
48,64,152314,1,0,0:0:0:0:
456,64,152516,6,0,B|408:80|408:80|400:40|400:40|384:72|384:72|392:104|392:104|376:136|376:136|384:168|384:168|328:208,1,262.5
464,336,153124,1,0,0:0:0:0:
16,64,153326,1,0,0:0:0:0:
112,80,153427,1,0,0:0:0:0:
48,128,153528,1,0,0:0:0:0:
144,144,153630,1,0,0:0:0:0:
80,192,153731,1,0,0:0:0:0:
176,208,153832,1,0,0:0:0:0:
112,256,153933,1,0,0:0:0:0:
208,272,154034,1,0,0:0:0:0:
304,272,154136,6,0,L|384:256,1,65.625
80,328,154338,2,0,L|176:312,1,65.625
224,128,154541,2,0,L|336:112,2,65.625,0|0|0,0:0|0:0|0:0,0:0:0:0:
384,80,154945,6,0,P|368:208|320:176,1,262.5
464,32,155553,1,0,0:0:0:0:
128,304,155755,6,0,P|144:176|192:208,1,262.5
32,352,156362,1,0,0:0:0:0:
480,64,156565,5,0,0:0:0:0:
384,80,156666,1,0,0:0:0:0:
448,128,156767,1,0,0:0:0:0:
352,144,156868,1,0,0:0:0:0:
416,192,156970,1,0,0:0:0:0:
320,208,157071,1,0,0:0:0:0:
384,256,157172,1,0,0:0:0:0:
288,272,157273,1,0,0:0:0:0:
192,272,157375,6,0,L|96:256,1,65.625
416,328,157577,2,0,L|320:312,1,65.625
288,128,157779,2,0,L|184:112,2,65.625,0|0|0,0:0|0:0|0:0,0:0:0:0:
176,80,158184,6,0,B|96:128|208:176|176:112|176:112|128:176|128:176|80:176|80:176|64:208|64:208|32:192,1,262.5
208,80,158792,1,0,0:0:0:0:
352,304,158994,2,0,B|304:256|368:208|368:272|368:272|356:212|356:212|428:208|428:208|432:200|432:200|456:200,1,262.5
320,304,159601,1,0,0:0:0:0:
80,64,159804,1,0,0:0:0:0:
352,224,160006,1,0,0:0:0:0:
176,64,160209,1,0,0:0:0:0:
384,144,160411,1,0,0:0:0:0:
128,128,160613,6,0,L|192:64,1,65.625
400,256,160816,2,0,L|336:320,1,65.625
128,128,161018,2,0,L|176:32,1,65.625
400,256,161221,2,0,L|352:352,1,65.625
128,128,161423,2,0,L|128:48,1,65.625
400,256,161626,2,0,L|400:336,1,65.625
128,128,161828,2,0,L|80:32,1,65.625
400,256,162030,2,0,L|448:352,1,65.625
384,224,162233,5,0,0:0:0:0:
368,256,162334,1,0,0:0:0:0:
352,288,162435,1,0,0:0:0:0:
336,320,162536,1,0,0:0:0:0:
224,160,162638,5,0,0:0:0:0:
208,128,162739,1,0,0:0:0:0:
192,96,162840,1,0,0:0:0:0:
176,64,162941,1,0,0:0:0:0:
96,112,163043,6,0,L|192:96,1,65.625
352,96,163245,2,0,L|496:112,1,78.7500030040742
464,256,163447,2,0,L|336:272,1,91.8750008761883
144,272,163650,2,0,L|16:256,1,105
400,176,163852,5,0,0:0:0:0:
176,64,164055,1,0,0:0:0:0:
224,80,164156,1,0,0:0:0:0:
272,96,164257,1,0,0:0:0:0:
320,96,164359,1,0,0:0:0:0:
352,128,164460,1,0,0:0:0:0:
368,176,164561,1,0,0:0:0:0:
336,176,164662,1,0,0:0:0:0:
272,224,164763,1,0,0:0:0:0:
304,224,164865,1,0,0:0:0:0:
400,320,164966,1,0,0:0:0:0:
368,304,165067,1,0,0:0:0:0:
256,256,165168,1,0,0:0:0:0:
160,192,165269,1,0,0:0:0:0:
80,112,165371,1,0,0:0:0:0:
32,16,165472,1,0,0:0:0:0:
48,144,178427,5,2,0:0:0:0:
256,192,178630,2,0,P|304:224|336:224,1,62.9999980773926,0|2,0:0|0:0,0:0:0:0:
464,96,179034,1,0,0:0:0:0:
400,80,179439,1,0,0:0:0:0:
112,304,179844,1,0,0:0:0:0:
256,192,180047,12,0,180856,0:0:0:0:
144,48,181261,5,2,0:0:0:0:
176,224,181464,2,0,P|192:256|224:272,1,62.9999980773926,0|2,0:0|0:0,0:0:0:0:
448,288,181868,1,0,0:0:0:0:
336,112,182071,2,0,P|304:96|240:96,1,73.4999977569581,2|0,0:0|0:0,0:0:0:0:
48,192,182476,1,2,0:0:0:0:
288,272,182678,1,0,0:0:0:0:
224,160,182881,1,2,0:0:0:0:
464,48,183083,1,0,0:0:0:0:
256,192,183285,12,0,184095,0:0:0:0:
256,192,184500,5,2,0:0:0:0:
368,128,184905,2,0,L|272:128,1,84
144,256,185310,2,0,L|256:256,1,84
432,80,185715,2,0,L|320:112,1,84
64,336,186119,2,0,L|160:304,1,84
416,64,186524,5,0,0:0:0:0:
416,64,186727,1,0,0:0:0:0:
96,320,186929,1,0,0:0:0:0:
96,320,187132,1,0,0:0:0:0:
448,240,187334,5,0,0:0:0:0:
448,240,187536,1,0,0:0:0:0:
64,144,187739,1,0,0:0:0:0:
64,144,187941,1,0,0:0:0:0:
352,256,188144,6,0,L|448:304,1,94.499997116089
128,112,188549,2,0,L|16:64,1,94.499997116089
416,256,188953,6,0,L|448:352,1,94.499997116089
96,128,189358,2,0,L|64:32,1,94.499997116089,0|0,0:0|0:0,0:0:0:0:
224,192,189763,5,0,0:0:0:0:
256,208,189864,1,0,0:0:0:0:
288,192,189966,1,0,0:0:0:0:
448,96,190168,2,0,L|320:96,1,94.499997116089,0|0,0:0|0:0,0:0:0:0:
64,128,190573,5,0,0:0:0:0:
112,112,190674,1,0,0:0:0:0:
160,128,190775,1,0,0:0:0:0:
496,160,190978,2,0,L|368:160,1,94.499997116089
48,336,191383,5,0,0:0:0:0:
464,48,191585,1,0,0:0:0:0:
80,336,191787,5,0,0:0:0:0:
432,48,191990,1,0,0:0:0:0:
112,336,192192,5,0,0:0:0:0:
400,48,192395,1,0,0:0:0:0:
144,336,192597,5,0,0:0:0:0:
368,48,192800,1,0,0:0:0:0:
176,96,193002,5,0,0:0:0:0:
192,144,193103,1,0,0:0:0:0:
160,176,193204,1,0,0:0:0:0:
336,208,193407,5,0,0:0:0:0:
320,256,193508,1,0,0:0:0:0:
352,288,193609,1,0,0:0:0:0:
32,192,193812,5,0,0:0:0:0:
64,160,193913,1,0,0:0:0:0:
96,128,194014,1,0,0:0:0:0:
128,160,194115,1,0,0:0:0:0:
160,192,194217,1,0,0:0:0:0:
192,224,194318,1,0,0:0:0:0:
240,192,194419,1,0,0:0:0:0:
288,160,194520,1,0,0:0:0:0:
440,72,194621,5,0,0:0:0:0:
416,112,194723,1,0,0:0:0:0:
432,152,194824,1,0,0:0:0:0:
408,184,194925,1,0,0:0:0:0:
432,232,195026,1,0,0:0:0:0:
400,264,195128,1,0,0:0:0:0:
424,312,195229,1,0,0:0:0:0:
384,344,195330,5,0,0:0:0:0:
336,328,195431,1,0,0:0:0:0:
288,304,195532,1,0,0:0:0:0:
240,288,195634,1,0,0:0:0:0:
152,256,195735,1,0,0:0:0:0:
192,240,195836,1,0,0:0:0:0:
232,224,195937,1,0,0:0:0:0:
272,208,196038,1,0,0:0:0:0:
312,192,196140,1,0,0:0:0:0:
48,160,196241,6,0,L|48:96,1,39.3750015020371
176,80,196443,2,0,L|192:144,1,39.3750015020371
320,80,196646,2,0,L|288:16,1,39.3750015020371
432,0,196848,2,0,L|480:48,1,39.3750015020371
160,272,197051,2,0,P|112:272|96:264,1,52.5
352,112,197455,2,0,P|400:112|424:120,1,52.5,0|0,0:0|0:0,0:0:0:0:
64,80,197860,5,0,0:0:0:0:
88,120,197962,1,0,0:0:0:0:
72,160,198063,1,0,0:0:0:0:
96,200,198164,1,0,0:0:0:0:
72,240,198265,1,0,0:0:0:0:
104,280,198366,1,0,0:0:0:0:
80,320,198468,1,0,0:0:0:0:
112,352,198569,5,0,0:0:0:0:
160,336,198670,1,0,0:0:0:0:
208,320,198771,1,0,0:0:0:0:
256,304,198872,1,0,0:0:0:0:
336,264,198974,1,0,0:0:0:0:
296,248,199075,1,0,0:0:0:0:
256,232,199176,1,0,0:0:0:0:
216,216,199277,1,0,0:0:0:0:
176,200,199379,1,0,0:0:0:0:
464,160,199480,6,0,L|464:96,1,39.3750015020371
336,80,199682,2,0,L|320:144,1,39.3750015020371
192,96,199885,2,0,L|224:32,1,39.3750015020371
80,16,200087,2,0,L|32:64,1,39.3750015020371
352,256,200290,2,0,P|384:240|400:240,1,52.5
160,128,200694,2,0,P|128:112|112:112,1,52.5
464,96,201099,5,0,0:0:0:0:
288,144,201302,1,0,0:0:0:0:
464,240,201504,1,0,0:0:0:0:
432,224,201605,1,0,0:0:0:0:
400,208,201707,1,0,0:0:0:0:
16,160,201909,5,0,0:0:0:0:
240,224,202111,1,0,0:0:0:0:
32,320,202314,1,0,0:0:0:0:
80,304,202415,1,0,0:0:0:0:
128,288,202516,1,0,0:0:0:0:
384,64,202719,5,0,0:0:0:0:
144,64,202921,1,0,0:0:0:0:
384,160,203124,1,0,0:0:0:0:
336,152,203225,1,0,0:0:0:0:
296,136,203326,1,0,0:0:0:0:
256,112,203427,1,0,0:0:0:0:
224,80,203528,1,0,0:0:0:0:
24,208,203731,6,0,P|72:184|104:136,2,105,0|0|0,0:0|0:0|0:0,0:0:0:0:
368,64,204338,2,0,L|520:64,2,105,0|0|0,0:0|0:0|0:0,0:0:0:0:
256,208,204945,2,0,L|368:256,2,105,0|0|0,0:0|0:0|0:0,0:0:0:0:
64,304,205553,2,0,L|144:384,2,105,0|0|0,0:0|0:0|0:0,0:0:0:0:
48,96,206059,5,0,0:0:0:0:
80,64,206160,1,0,0:0:0:0:
112,32,206261,1,0,0:0:0:0:
144,64,206362,1,0,0:0:0:0:
176,96,206464,1,0,0:0:0:0:
208,64,206565,1,0,0:0:0:0:
240,32,206666,1,0,0:0:0:0:
288,32,206767,1,0,0:0:0:0:
336,32,206868,1,0,0:0:0:0:
336,80,206970,1,0,0:0:0:0:
336,128,207071,1,0,0:0:0:0:
352,176,207172,1,0,0:0:0:0:
384,216,207273,1,0,0:0:0:0:
416,248,207375,1,0,0:0:0:0:
464,264,207476,1,0,0:0:0:0:
512,272,207577,5,0,0:0:0:0:
240,240,207779,1,0,0:0:0:0:
128,32,207982,1,0,0:0:0:0:
464,48,208184,1,0,0:0:0:0:
448,80,208285,1,0,0:0:0:0:
432,112,208387,1,0,0:0:0:0:
416,144,208488,1,0,0:0:0:0:
400,176,208589,1,0,0:0:0:0:
144,320,208792,1,0,0:0:0:0:
128,272,208893,1,0,0:0:0:0:
112,224,208994,1,0,0:0:0:0:
96,176,209095,1,0,0:0:0:0:
160,64,209196,6,0,P|128:80|64:80,1,65.625
352,176,209399,2,0,P|384:192|448:192,1,65.625
512,256,209601,5,0,0:0:0:0:
480,224,209702,1,0,0:0:0:0:
512,192,209804,1,0,0:0:0:0:
480,160,209905,1,0,0:0:0:0:
224,176,210006,5,0,0:0:0:0:
256,144,210107,1,0,0:0:0:0:
224,112,210209,1,0,0:0:0:0:
256,80,210310,1,0,0:0:0:0:
0,32,210411,5,0,0:0:0:0:
32,48,210512,1,0,0:0:0:0:
64,64,210613,1,0,0:0:0:0:
96,80,210715,1,0,0:0:0:0:
336,64,210816,6,0,P|336:144|320:160,1,65.625
160,320,211018,2,0,P|160:240|176:224,1,65.625
112,96,211221,6,0,P|176:48|192:48,1,65.625
400,288,211423,2,0,P|336:336|320:336,1,65.625
368,64,211626,6,0,P|432:112|432:128,1,65.625,0|0,0:0|0:0,0:0:0:0:
128,288,211828,2,0,P|64:240|64:224,1,65.625
448,160,212030,6,0,P|464:200|464:256,1,65.625
64,224,212233,2,0,P|48:160|48:128,1,65.625
0,96,212435,1,0,0:0:0:0:
128,192,212638,2,0,L|112:112|112:112,1,65.625
256,224,212840,1,0,0:0:0:0:
400,320,212941,2,0,L|384:224,1,65.625
240,304,213245,6,0,P|272:320|320:288,1,65.625
272,80,213447,2,0,P|208:72|184:88,1,65.625
384,288,213650,6,0,P|432:224|432:208,1,65.625
128,96,213852,2,0,P|80:160|80:176,1,65.625
424,144,214055,6,0,P|400:112|360:96,1,65.625
80,240,214257,2,0,P|120:272|160:280,1,65.625
320,64,214460,6,0,P|256:48|240:48,1,65.625
192,320,214662,2,0,P|256:336|272:336,1,65.625
320,224,214864,5,0,0:0:0:0:
352,224,214966,1,0,0:0:0:0:
384,224,215067,1,0,0:0:0:0:
416,224,215168,1,0,0:0:0:0:
192,160,215269,5,0,0:0:0:0:
160,160,215370,1,0,0:0:0:0:
128,160,215472,1,0,0:0:0:0:
96,160,215573,1,0,0:0:0:0:
352,96,215674,6,0,L|432:80,3,65.625,0|0|0|0,0:0|0:0|0:0|0:0,0:0:0:0:
160,288,216079,2,0,L|80:304,3,65.625,0|0|0|0,0:0|0:0|0:0|0:0,0:0:0:0:
464,48,216484,6,0,B|400:80|400:80|416:96|416:96|384:112|384:112|400:128|400:128|368:144|368:144|384:160|384:160|304:144,1,262.5
208,128,217091,1,0,0:0:0:0:
48,336,217294,2,0,B|112:304|112:304|96:288|96:288|128:272|128:272|112:256|112:256|144:240|144:240|128:224|128:224|208:240,1,262.5
304,256,217901,1,0,0:0:0:0:
400,48,218103,5,0,0:0:0:0:
384,80,218204,1,0,0:0:0:0:
352,96,218306,1,0,0:0:0:0:
352,128,218407,1,0,0:0:0:0:
320,144,218508,1,0,0:0:0:0:
320,176,218609,1,0,0:0:0:0:
272,224,218711,1,0,0:0:0:0:
224,272,218812,1,0,0:0:0:0:
416,176,218913,6,0,L|512:192,2,65.625,0|0|0,0:0|0:0|0:0,0:0:0:0:
256,64,219217,2,0,L|336:48,1,65.625
192,160,219419,1,0,0:0:0:0:
96,96,219520,2,0,L|48:48,2,65.625,0|0|0,0:0|0:0|0:0,0:0:0:0:
32,192,219824,1,0,0:0:0:0:
96,288,219925,2,0,L|48:336,2,65.625,0|0|0,0:0|0:0|0:0,0:0:0:0:
320,208,220330,5,0,0:0:0:0:
416,144,220532,1,0,0:0:0:0:
432,176,220634,1,0,0:0:0:0:
448,208,220735,1,0,0:0:0:0:
464,240,220836,1,0,0:0:0:0:
480,272,220937,2,0,P|464:336|400:368,1,131.25
96,256,221342,5,0,0:0:0:0:
80,224,221443,1,0,0:0:0:0:
64,192,221545,1,0,0:0:0:0:
48,160,221646,1,0,0:0:0:0:
32,128,221747,2,0,P|48:64|112:32,1,131.25
432,32,222152,5,0,0:0:0:0:
432,32,222253,1,0,0:0:0:0:
256,64,222354,1,0,0:0:0:0:
256,64,222455,1,0,0:0:0:0:
336,192,222557,1,0,0:0:0:0:
336,192,222658,1,0,0:0:0:0:
112,192,222759,1,0,0:0:0:0:
112,192,222860,1,0,0:0:0:0:
112,112,222962,6,0,L|96:32,1,65.625
400,272,223164,2,0,L|416:352,1,65.625
32,80,223366,2,0,L|0:0,1,65.625
480,304,223569,2,0,L|512:384,1,65.625
112,272,223771,5,0,0:0:0:0:
400,272,223974,1,0,0:0:0:0:
32,304,224176,1,0,0:0:0:0:
480,304,224379,1,0,0:0:0:0:
112,304,224581,2,0,L|144:224,1,65.625
256,224,224783,2,0,L|272:144,1,65.625
392,144,224986,2,0,L|392:48,1,65.625,0|0,0:0|0:0,0:0:0:0:
392,78,225188,1,0,0:0:0:0:
392,78,225290,1,0,0:0:0:0:
288,32,225391,6,0,L|208:32,1,65.625
128,80,225593,1,0,0:0:0:0:
128,80,225694,1,0,0:0:0:0:
240,144,225796,2,0,L|336:144,2,65.625,0|0|0,0:0|0:0|0:0,0:0:0:0:
112,240,226200,6,0,L|224:240,1,65.625
288,288,226403,1,0,0:0:0:0:
288,288,226504,1,0,0:0:0:0:
176,352,226605,2,0,L|96:352,2,65.625,0|0|0,0:0|0:0|0:0,0:0:0:0:
0,272,227010,5,0,0:0:0:0:
0,272,227111,1,0,0:0:0:0:
240,160,227213,1,0,0:0:0:0:
240,160,227314,1,0,0:0:0:0:
464,48,227415,1,0,0:0:0:0:
464,48,227516,1,0,0:0:0:0:
400,240,227617,5,0,0:0:0:0:
272,80,227820,1,0,0:0:0:0:
224,320,228022,1,0,0:0:0:0:
80,64,228225,1,0,0:0:0:0:
32,368,228427,1,0,0:0:0:0:
352,48,228630,2,0,L|368:144,1,65.625
256,160,228832,2,0,L|256:256,1,65.625
144,256,229034,2,0,L|96:336,2,65.625,0|0|0,0:0|0:0|0:0,0:0:0:0:
208,112,229439,6,0,B|240:96|240:96|240:64|240:64|256:64|256:64|272:96|272:96|288:96|288:96|304:64|304:64|400:16,1,262.5
128,112,230047,1,0,0:0:0:0:
320,272,230249,2,0,B|288:288|288:288|288:320|288:320|272:320|272:320|256:288|256:288|240:288|240:288|224:320|224:320|112:368,1,262.5
400,272,230856,1,0,0:0:0:0:
48,144,231059,6,0,B|64:160|64:160|80:128|80:128|112:128|112:128|128:112|128:112|160:112,1,131.25
304,80,231464,1,0,0:0:0:0:
448,112,231666,2,0,B|416:224|96:304,1,393.75
464,320,232476,1,0,0:0:0:0:
448,96,232678,2,0,L|320:160,1,131.25
64,288,233083,2,0,L|224:208,1,131.25
400,256,233488,5,0,0:0:0:0:
352,240,233589,1,0,0:0:0:0:
320,208,233690,1,0,0:0:0:0:
304,176,233792,1,0,0:0:0:0:
288,144,233893,1,0,0:0:0:0:
256,128,233994,1,0,0:0:0:0:
224,144,234095,1,0,0:0:0:0:
208,176,234196,1,0,0:0:0:0:
192,208,234298,1,0,0:0:0:0:
160,240,234399,1,0,0:0:0:0:
128,256,234500,1,0,0:0:0:0:
96,240,234601,1,0,0:0:0:0:
64,224,234702,1,0,0:0:0:0:
48,192,234804,1,0,0:0:0:0:
64,160,234905,1,0,0:0:0:0:
80,128,235006,1,0,0:0:0:0:
144,48,235107,5,0,0:0:0:0:
320,64,235310,1,0,0:0:0:0:
352,96,235411,1,0,0:0:0:0:
368,144,235512,1,0,0:0:0:0:
352,192,235613,1,0,0:0:0:0:
320,224,235715,1,0,0:0:0:0:
272,240,235816,1,0,0:0:0:0:
208,256,235917,1,0,0:0:0:0:
144,240,236018,1,0,0:0:0:0:
96,192,236119,1,0,0:0:0:0:
64,128,236221,1,0,0:0:0:0:
48,64,236322,1,0,0:0:0:0:
80,16,236423,1,0,0:0:0:0:
144,16,236524,1,0,0:0:0:0:
208,48,236626,1,0,0:0:0:0:
272,80,236727,1,0,0:0:0:0:
416,112,236929,5,0,0:0:0:0:
416,144,237030,1,0,0:0:0:0:
400,176,237132,1,0,0:0:0:0:
400,208,237233,1,0,0:0:0:0:
384,240,237334,1,0,0:0:0:0:
384,272,237435,1,0,0:0:0:0:
368,304,237536,5,0,0:0:0:0:
224,144,237840,1,0,0:0:0:0:
96,304,238144,1,0,0:0:0:0:
32,96,238346,1,0,0:0:0:0:
272,112,238549,2,0,L|192:128,1,52.5
320,192,238751,1,0,0:0:0:0:
384,288,238852,2,0,L|320:272,1,52.5
208,240,239156,5,0,0:0:0:0:
64,160,239460,1,0,0:0:0:0:
368,128,239763,1,0,0:0:0:0:
512,48,239966,2,0,L|384:48,1,105
320,144,240269,2,0,L|224:144,1,52.5
192,240,240573,2,0,L|272:240,1,52.5
0,336,240775,2,0,L|128:336|112:336,1,105
304,224,241180,2,0,L|208:224,1,52.5
208,160,241383,2,0,L|272:160,2,52.5,0|0|0,0:0|0:0|0:0,0:0:0:0:
16,160,241787,5,0,0:0:0:0:
48,160,241889,1,0,0:0:0:0:
80,160,241990,1,0,0:0:0:0:
240,96,242192,1,0,0:0:0:0:
208,96,242294,1,0,0:0:0:0:
176,96,242395,2,0,P|160:160|208:240,1,157.5
352,176,242800,2,0,P|352:96|272:32,1,157.5
256,48,243204,6,0,P|304:96|352:336,1,315
96,224,244014,6,0,P|208:112|400:80,1,315
272,304,244824,6,0,P|144:192|96:48,1,315
400,48,245634,6,0,P|320:240|208:320,1,315
256,192,246443,12,0,247658,0:0:0:0:
128,176,248063,5,0,0:0:0:0:
144,224,248164,1,0,0:0:0:0:
176,256,248265,1,0,0:0:0:0:
224,288,248366,1,0,0:0:0:0:
272,304,248468,6,0,L|320:336,3,52.5,0|0|0|0,0:0|0:0|0:0|0:0,0:0:0:0:
320,288,248872,2,0,L|384:272,3,52.5,0|0|0|0,0:0|0:0|0:0|0:0,0:0:0:0:
352,240,249277,1,0,0:0:0:0:
368,192,249379,1,0,0:0:0:0:
368,144,249480,1,0,0:0:0:0:
368,96,249581,6,0,B|336:104|336:104|256:96,1,65.625
208,112,249783,1,0,0:0:0:0:
192,120,249885,1,0,0:0:0:0:
176,128,249986,1,0,0:0:0:0:
96,192,250087,6,0,B|80:208|80:208|64:256,1,65.625
128,336,250290,1,0,0:0:0:0:
176,336,250391,1,0,0:0:0:0:
336,288,250492,6,0,B|288:288|288:288|256:304,1,65.625
416,208,250694,1,0,0:0:0:0:
288,176,250796,2,0,B|256:160|256:160|224:112,1,65.625
336,96,250998,1,0,0:0:0:0:
416,160,251099,2,0,B|368:176|368:176|320:224,1,65.625
384,304,251302,6,0,L|240:304,1,78.7500030040742
256,288,251504,1,0,0:0:0:0:
208,288,251605,1,0,0:0:0:0:
160,272,251707,2,0,L|0:272,1,131.25
208,240,252010,6,0,L|64:240,1,105
304,192,252314,6,0,L|160:192,1,105
400,128,252617,6,0,L|304:128,1,78.7500030040742
512,48,252921,6,0,L|448:48,1,52.5
256,192,253326,12,0,259399,0:0:0:0:
