osu file format v14

[General]
AudioFilename: audio.mp3
AudioLeadIn: 0
PreviewTime: 43307
Countdown: 1
SampleSet: None
StackLeniency: 0.7
Mode: 0
LetterboxInBreaks: 0
WidescreenStoryboard: 0

[Editor]
DistanceSpacing: 0.8
BeatDivisor: 4
GridSize: 32
TimelineZoom: 1.4

[Metadata]
Title:Opening Ceremony
TitleUnicode:オープニングセレモニー
Artist:Megu Sakuragawa
ArtistUnicode:櫻川めぐ
Creator:Onlybiscuit
Version:Extreme
Source:IxSHE Tell
Tags:アイシーテル eroge visual novel hooksoft short version
BeatmapID:1754193
BeatmapSetID:837835

[Difficulty]
HPDrainRate:5
CircleSize:3.8
OverallDifficulty:9.4
ApproachRate:9.4
SliderMultiplier:1.8
SliderTickRate:1

[Events]
//Background and Video events
0,0,"1.png",0,0
//Break Periods
//Storyboard Layer 0 (Background)
//Storyboard Layer 1 (Fail)
//Storyboard Layer 2 (Pass)
//Storyboard Layer 3 (Foreground)
//Storyboard Sound Samples

[TimingPoints]
308,333.333333333333,4,2,0,65,1,0
308,-100,4,2,0,65,0,0
1307,-166.666666666667,4,2,0,65,0,0
1557,-166.666666666667,4,2,0,5,0,0
1641,-83.3333333333333,4,2,0,65,0,0
12224,-83.3333333333333,4,2,0,65,0,0
12307,-125,4,2,0,65,0,0
15641,-111.111111111111,4,2,0,65,0,0
15974,-100,4,2,0,65,0,0
16307,-111.111111111111,4,2,0,65,0,0
16641,-125,4,2,0,65,0,0
20641,-111.111111111111,4,2,0,65,0,0
20974,-99.9999999999999,4,2,0,65,0,0
21307,-90.9090909090909,4,2,0,65,0,0
21641,-100,4,2,0,65,0,0
22974,-100,4,2,0,65,0,0
33641,-90.9090909090909,4,2,0,65,0,0
44307,-71.4285714285714,4,2,0,65,0,1
53641,-71.4285714285714,4,2,0,65,0,0
53724,-71.4285714285714,4,2,0,5,0,0
53807,-71.4285714285714,4,2,0,65,0,0
54891,-71.4285714285714,4,2,0,5,0,0
54974,-71.4285714285714,4,2,0,65,0,1
65641,-71.4285714285714,4,2,0,65,0,0

[Colours]
Combo1 : 0,128,255
Combo2 : 128,255,255
Combo3 : 128,0,255
Combo4 : 255,255,128

[HitObjects]
46,79,308,5,0,0:0:0:0:
53,86,641,1,0,0:0:0:0:
59,93,974,2,0,L|81:119,4,30
138,56,1307,2,0,L|240:61,1,80.9999975280763
257,54,1641,5,0,0:0:0:0:
351,252,1807,1,0,0:0:0:0:
113,128,1974,5,0,0:0:0:0:
399,73,2141,1,0,0:0:0:0:
188,282,2307,5,0,0:0:0:0:
273,37,2474,1,0,0:0:0:0:
348,335,2641,5,0,0:0:0:0:
207,118,2807,1,0,0:0:0:0:
73,340,2974,5,0,0:0:0:0:
299,136,3141,1,0,0:0:0:0:
22,66,3307,5,0,0:0:0:0:
189,293,3474,1,0,0:0:0:0:
276,29,3641,5,0,0:0:0:0:
30,160,3807,1,0,0:0:0:0:
313,155,3974,5,0,0:0:0:0:
114,50,4141,1,0,0:0:0:0:
152,275,4307,5,0,0:0:0:0:
270,41,4474,1,0,0:0:0:0:
399,283,4641,5,0,0:0:0:0:
163,143,4807,1,0,0:0:0:0:
485,88,4974,5,0,0:0:0:0:
249,228,5140,1,0,0:0:0:0:
343,12,5307,5,0,0:0:0:0:
479,260,5474,2,0,P|430:250|369:251,1,107.999996704102
69,175,5807,2,0,P|117:165|178:166,1,107.999996704102
442,77,6141,2,0,P|389:66|335:67,1,107.999996704102
106,22,6474,1,0,0:0:0:0:
122,255,6641,1,0,0:0:0:0:
305,63,6807,2,0,L|316:135,1,53.9999983520508
429,313,6974,6,0,B|314:269|331:354|216:327,1,215.999993408203
347,197,7474,1,0,0:0:0:0:
75,141,7641,5,0,0:0:0:0:
309,56,7807,1,0,0:0:0:0:
234,254,7974,5,0,0:0:0:0:
128,49,8141,1,0,0:0:0:0:
74,332,8307,5,0,0:0:0:0:
180,127,8474,1,0,0:0:0:0:
363,280,8641,5,0,0:0:0:0:
99,209,8807,1,0,0:0:0:0:
294,80,8974,5,0,0:0:0:0:
168,312,9141,1,0,0:0:0:0:
107,62,9307,5,0,0:0:0:0:
379,159,9474,1,0,0:0:0:0:
105,238,9641,5,0,0:0:0:0:
227,23,9807,1,0,0:0:0:0:
339,286,9974,5,0,0:0:0:0:
114,91,10141,1,0,0:0:0:0:
179,339,10307,5,0,0:0:0:0:
340,84,10474,1,0,0:0:0:0:
503,341,10641,5,0,0:0:0:0:
503,341,10724,1,0,0:0:0:0:
503,341,10807,6,0,P|414:305|310:369,1,215.999993408203
151,177,11307,1,0,0:0:0:0:
186,330,11474,1,0,0:0:0:0:
316,173,11641,2,0,P|370:159|434:171,1,107.999996704102
183,90,11974,2,0,B|85:74|118:132|16:116,1,161.999995056153
4,41,12307,6,0,L|-1:205,1,144
47,273,12807,1,0,0:0:0:0:
133,183,12974,2,0,P|146:219|145:270,1,72
202,359,13307,1,0,0:0:0:0:
284,227,13474,1,0,0:0:0:0:
439,337,13641,6,0,B|356:316|381:372|288:357,1,144
241,291,14141,1,0,0:0:0:0:
368,223,14307,2,0,P|414:217|461:225,1,72
235,147,14641,1,0,0:0:0:0:
387,67,14807,1,0,0:0:0:0:
154,24,14974,6,0,L|151:168,1,144
68,75,15474,1,0,0:0:0:0:
235,147,15641,2,0,P|230:197|216:226,1,80.9999975280763
63,153,15974,2,0,P|132:159|173:179,1,90
147,301,16307,6,0,P|119:272|99:238,1,80.9999975280763
235,147,16641,1,0,0:0:0:0:
304,256,16807,1,0,0:0:0:0:
415,138,16974,2,0,P|417:176|423:213,1,72
305,67,17307,1,0,0:0:0:0:
250,168,17474,1,0,0:0:0:0:
451,36,17641,6,0,B|366:16|383:66|312:53,1,144
155,26,18141,2,0,P|199:24|234:20,1,72
87,115,18474,2,0,P|131:117|166:121,1,72
9,33,18807,1,0,0:0:0:0:
0,222,18974,6,0,P|59:200|134:221,1,144
74,354,19474,2,0,P|73:318|67:283,1,72
221,311,19807,2,0,P|222:275|228:240,1,72
350,360,20141,1,0,0:0:0:0:
407,236,20307,5,0,0:0:0:0:
464,342,20474,1,0,0:0:0:0:
308,243,20641,2,0,P|234:238|192:243,1,80.9999975280763
399,148,20974,2,0,P|472:143|514:148,1,90
282,83,21307,2,0,P|208:78|166:83,1,99.0000030212403
389,60,21641,6,0,B|402:103|402:103|398:150,1,90
233,256,21974,2,0,B|220:213|220:213|224:166,1,90
110,58,22307,5,0,0:0:0:0:
20,177,22474,1,0,0:0:0:0:
223,168,22641,5,0,0:0:0:0:
105,142,22807,1,0,0:0:0:0:
4,335,22974,6,0,B|97:309|86:377|182:364,1,180
233,256,23474,1,0,0:0:0:0:
359,360,23641,2,0,P|360:303|365:266,1,90
432,133,23974,1,0,0:0:0:0:
486,263,24141,1,0,0:0:0:0:
280,162,24307,6,0,B|232:141|232:141|81:142,1,180
64,46,24807,1,0,0:0:0:0:
43,215,24974,2,0,P|19:168|15:117,1,90
114,289,25307,2,0,P|135:250|142:205,1,90
227,56,25641,6,0,B|312:49|311:118|407:100,1,180
371,2,26141,1,0,0:0:0:0:
242,156,26307,2,0,P|240:219|248:267,1,90
409,348,26641,2,0,P|411:285|403:237,1,90
245,364,26974,5,0,0:0:0:0:
150,204,27141,1,0,0:0:0:0:
66,371,27307,1,0,0:0:0:0:
202,280,27474,1,0,0:0:0:0:
54,185,27641,2,0,P|50:245|42:287,1,90
178,129,27974,1,0,0:0:0:0:
279,235,28141,1,0,0:0:0:0:
365,68,28307,6,0,L|375:275,1,180
267,127,28807,2,0,P|213:123|169:130,1,90
365,68,29141,2,0,P|419:64|463:71,1,90
260,1,29474,1,0,0:0:0:0:
176,208,29641,6,0,B|73:181|98:243|-16:220,1,180
220,135,30141,2,0,P|259:194|260:228,1,90
36,142,30474,2,0,P|36:89|33:44,1,90
175,207,30807,6,0,P|172:252|173:297,1,90
323,166,31141,1,0,0:0:0:0:
461,322,31307,2,0,P|414:313|357:322,1,90
175,207,31641,1,0,0:0:0:0:
260,317,31807,1,0,0:0:0:0:
334,157,31974,2,0,P|336:212|342:258,1,90
186,109,32307,6,0,B|136:88|136:88|9:88,1,180
157,8,32807,1,0,0:0:0:0:
240,182,32974,1,0,0:0:0:0:
414,16,33141,1,0,0:0:0:0:
414,16,33224,1,0,0:0:0:0:
414,16,33307,2,0,L|508:12,1,90
387,185,33641,5,0,0:0:0:0:
309,33,33807,1,0,0:0:0:0:
227,202,33974,1,0,0:0:0:0:
349,107,34141,1,0,0:0:0:0:
444,294,34307,2,0,P|395:286|344:291,1,99.0000030212403
150,233,34641,1,0,0:0:0:0:
306,178,34807,1,0,0:0:0:0:
273,352,34974,5,0,0:0:0:0:
227,202,35140,1,0,0:0:0:0:
91,362,35307,2,0,P|85:306|78:258,1,99.0000030212403
118,139,35641,1,0,0:0:0:0:
193,308,35807,1,0,0:0:0:0:
318,152,35974,2,0,P|323:201|330:250,1,99.0000030212403
164,54,36307,6,0,P|108:50|59:54,1,99.0000030212403
318,152,36641,2,0,P|374:156|423:152,1,99.0000030212403
260,39,36974,1,0,0:0:0:0:
214,134,37141,1,0,0:0:0:0:
65,42,37307,1,0,0:0:0:0:
111,137,37474,1,0,0:0:0:0:
260,39,37641,6,0,P|315:30|367:38,1,99.0000030212403
367,282,37974,2,0,B|314:246|314:246|314:113,1,198.000006042481
412,199,38474,1,0,0:0:0:0:
214,134,38641,2,0,P|163:131|103:137,1,99.0000030212403
6,287,38974,6,0,B|115:270|87:346|199:330,1,198.000006042481
265,242,39474,2,0,P|217:231|168:233,1,99.0000030212403
313,355,39807,1,0,0:0:0:0:
383,164,39974,1,0,0:0:0:0:
478,340,40141,6,0,P|479:287|484:234,1,99.0000030212403
416,69,40474,1,0,0:0:0:0:
349,268,40641,1,0,0:0:0:0:
241,129,40807,2,0,P|192:123|121:128,1,99.0000030212403
283,36,41141,1,0,0:0:0:0:
349,268,41307,1,0,0:0:0:0:
349,268,41391,1,0,0:0:0:0:
349,268,41474,2,0,B|242:233|269:313|151:289,1,198.000006042481
46,123,42057,5,0,0:0:0:0:
256,172,42307,5,0,0:0:0:0:
47,264,42557,5,0,0:0:0:0:
170,62,42807,5,0,0:0:0:0:
256,172,42974,1,0,0:0:0:0:
256,172,43307,2,0,P|344:156|449:180,2,198.000006042481
23,305,44307,6,0,P|77:309|143:349,1,125.999996154785
459,285,44641,2,0,P|405:281|339:241,1,125.999996154785
176,41,44974,5,0,0:0:0:0:
252,215,45141,1,0,0:0:0:0:
309,3,45307,5,0,0:0:0:0:
148,162,45474,2,0,P|75:151|2:153,1,125.999996154785
176,41,45807,1,0,0:0:0:0:
222,303,45974,5,0,0:0:0:0:
298,89,46141,1,0,0:0:0:0:
398,299,46307,5,0,0:0:0:0:
148,162,46474,1,0,0:0:0:0:
411,60,46641,5,0,0:0:0:0:
302,353,46807,1,0,0:0:0:0:
148,74,46974,6,0,P|72:55|17:53,1,125.999996154785
352,127,47307,2,0,P|428:108|483:106,1,125.999996154785
134,240,47641,5,0,0:0:0:0:
379,294,47807,1,0,0:0:0:0:
68,337,47974,5,0,0:0:0:0:
299,222,48141,1,0,0:0:0:0:
43,129,48307,5,0,0:0:0:0:
195,329,48474,1,0,0:0:0:0:
209,79,48641,5,0,0:0:0:0:
74,328,48807,1,0,0:0:0:0:
331,209,48974,5,0,0:0:0:0:
27,108,49141,1,0,0:0:0:0:
360,16,49307,5,0,0:0:0:0:
143,189,49474,1,0,0:0:0:0:
143,189,49557,1,0,0:0:0:0:
143,189,49641,2,0,B|266:170|253:274|386:245,1,251.999992309571
209,79,50141,1,0,0:0:0:0:
178,309,50307,5,0,0:0:0:0:
342,148,50474,1,0,0:0:0:0:
455,360,50641,6,0,P|452:290|455:229,1,125.999996154785
202,321,50974,2,0,P|205:251|202:190,1,125.999996154785
28,33,51307,5,0,0:0:0:0:
101,262,51474,1,0,0:0:0:0:
222,33,51641,5,0,0:0:0:0:
28,172,51807,1,0,0:0:0:0:
345,224,51974,5,0,0:0:0:0:
117,94,52141,1,0,0:0:0:0:
361,43,52307,6,0,P|430:28|497:30,1,125.999996154785
152,157,52641,2,0,P|83:172|16:170,1,125.999996154785
345,224,52974,2,0,P|392:276|424:335,1,125.999996154785
220,37,53307,1,0,0:0:0:0:
220,37,53391,1,0,0:0:0:0:
220,37,53474,6,0,L|213:258,1,188.999994232178
205,261,53807,1,0,0:0:0:0:
123,65,53974,1,0,0:0:0:0:
370,135,54141,1,0,0:0:0:0:
183,274,54307,2,0,P|121:284|40:282,1,125.999996154785
295,215,54641,2,0,B|395:197|369:286|478:268,1,188.999994232178
487,235,54974,5,0,0:0:0:0:
279,100,55141,1,0,0:0:0:0:
219,332,55307,5,0,0:0:0:0:
400,151,55474,1,0,0:0:0:0:
138,110,55641,6,0,P|67:113|6:137,1,125.999996154785
345,43,55974,2,0,P|416:46|477:70,1,125.999996154785
188,215,56307,5,0,0:0:0:0:
389,128,56474,1,0,0:0:0:0:
180,32,56641,5,0,0:0:0:0:
305,224,56807,1,0,0:0:0:0:
343,17,56974,5,0,0:0:0:0:
154,252,57141,1,0,0:0:0:0:
485,224,57307,5,0,0:0:0:0:
130,110,57474,1,0,0:0:0:0:
317,312,57641,6,0,P|386:311|442:333,1,125.999996154785
248,137,57974,5,0,0:0:0:0:
155,301,58141,1,0,0:0:0:0:
99,91,58307,5,0,0:0:0:0:
311,228,58474,1,0,0:0:0:0:
35,288,58641,5,0,0:0:0:0:
193,63,58807,1,0,0:0:0:0:
347,337,58974,6,0,P|348:269|354:209,1,125.999996154785
177,280,59307,2,0,P|176:217|170:154,1,125.999996154785
14,370,59641,2,0,P|14:307|20:244,1,125.999996154785
114,50,59974,5,0,0:0:0:0:
247,234,60141,1,0,0:0:0:0:
247,234,60224,1,0,0:0:0:0:
247,234,60307,6,0,P|314:229|385:232,1,125.999996154785
228,100,60641,5,0,0:0:0:0:
179,298,60807,1,0,0:0:0:0:
433,184,60974,5,0,0:0:0:0:
133,123,61141,1,0,0:0:0:0:
270,342,61307,5,0,0:0:0:0:
343,91,61474,1,0,0:0:0:0:
468,359,61641,6,0,P|469:287|477:216,1,125.999996154785
229,84,61974,5,0,0:0:0:0:
346,279,62141,1,0,0:0:0:0:
128,191,62307,5,0,0:0:0:0:
343,117,62474,1,0,0:0:0:0:
220,240,62641,5,0,0:0:0:0:
149,81,62807,1,0,0:0:0:0:
94,227,62974,5,0,0:0:0:0:
328,133,63141,1,0,0:0:0:0:
65,49,63307,5,0,0:0:0:0:
314,288,63474,1,0,0:0:0:0:
263,16,63641,5,0,0:0:0:0:
122,334,63807,1,0,0:0:0:0:
431,131,63974,5,0,0:0:0:0:
431,131,64057,1,0,0:0:0:0:
431,131,64141,2,0,P|306:115|239:211,1,251.999992309571
486,365,64641,1,0,0:0:0:0:
349,204,64807,1,0,0:0:0:0:
172,343,64974,2,0,P|107:329|35:331,1,125.999996154785
357,225,65307,2,0,P|422:211|494:213,1,125.999996154785
210,70,65641,5,0,0:0:0:0:
139,252,65807,1,0,0:0:0:0:
371,220,65974,5,0,0:0:0:0:
107,113,66141,1,0,0:0:0:0:
199,332,66307,5,0,0:0:0:0:
307,75,66474,1,0,0:0:0:0:
435,346,66641,5,0,0:0:0:0:
244,153,66807,2,0,P|181:144|112:147,1,125.999996154785
329,57,67141,1,0,0:0:0:0:
438,326,67307,5,0,0:0:0:0:
403,170,67474,1,0,0:0:0:0:
274,332,67641,5,0,0:0:0:0:
296,186,67807,1,0,0:0:0:0:
90,348,67974,6,0,P|86:277|78:213,1,125.999996154785
279,49,68307,2,0,P|271:111|268:174,1,125.999996154785
462,332,68641,2,0,P|458:269|451:206,1,125.999996154785
160,107,68974,5,0,0:0:0:0:
330,233,69141,1,0,0:0:0:0:
88,242,69307,5,0,0:0:0:0:
305,100,69474,1,0,0:0:0:0:
247,314,69641,5,0,0:0:0:0:
141,76,69807,1,0,0:0:0:0:
424,169,69974,5,0,0:0:0:0:
129,212,70141,1,0,0:0:0:0:
315,25,70307,5,0,0:0:0:0:
372,301,70474,1,0,0:0:0:0:
46,154,70641,5,0,0:0:0:0:
378,93,70807,1,0,0:0:0:0:
378,93,70891,1,0,0:0:0:0:
378,93,70974,2,0,P|453:88|518:108,1,125.999996154785
218,0,71307,5,0,0:0:0:0:
125,198,71474,2,0,P|70:198|-16:209,1,125.999996154785
212,93,71807,1,0,0:0:0:0:
326,337,71974,5,0,0:0:0:0:
117,217,72141,1,0,0:0:0:0:
370,155,72307,5,0,0:0:0:0:
152,335,72474,1,0,0:0:0:0:
203,75,72641,5,0,0:0:0:0:
343,334,72807,1,0,0:0:0:0:
85,185,72974,5,0,0:0:0:0:
394,64,73141,1,0,0:0:0:0:
131,17,73307,6,0,P|63:8|-10:15,1,125.999996154785
164,245,73641,5,0,0:0:0:0:
251,30,73807,1,0,0:0:0:0:
349,251,73974,5,0,0:0:0:0:
70,91,74141,1,0,0:0:0:0:
373,42,74307,5,0,0:0:0:0:
221,343,74474,1,0,0:0:0:0:
263,32,74641,6,0,P|299:44|325:66,1,62.9999980773926
476,250,74807,2,0,P|379:226|268:314,2,251.999992309571
259,109,75641,1,0,0:0:0:0:
387,341,75807,1,0,0:0:0:0:
486,105,75974,2,0,B|384:78|391:157|289:130,1,188.999994232178
259,109,76307,5,0,0:0:0:0:
250,97,76641,1,0,0:0:0:0:
238,87,76974,1,0,0:0:0:0:
122,257,77141,1,0,0:0:0:0:
62,49,77307,2,0,L|44:127,1,62.9999980773926
11,328,77474,2,0,P|72:293|230:359,1,251.999992309571
