osu file format v14

[General]
AudioFilename: audio.mp3
AudioLeadIn: 0
PreviewTime: 51496
Countdown: 0
SampleSet: Soft
StackLeniency: 0.7
Mode: 0
LetterboxInBreaks: 0
WidescreenStoryboard: 1

[Editor]
Bookmarks: 76410,154752,174649
DistanceSpacing: 1
BeatDivisor: 4
GridSize: 4
TimelineZoom: 2.799999

[Metadata]
Title:Ashioto Tarte Tatin
TitleUnicode:足音タルトタタン♪
Artist:Megu (CV: Murakawa Rie), Syaro (CV: Uchida Maaya)
ArtistUnicode:メグ (CV: 村川梨衣), シャロ (CV: 内田真礼)
Creator:Kyuuchie
Version:MujinaMyMommy's Normal
Source:ご注文はうさぎですか??
Tags:gochuumon wa usagi desu ka?? is the order a rabbit season 2 second gochiusa ごちうさ anime japanese pop jpop j-pop duet song album kirima sharo natsu megumi 桐間 紗路 奈津 恵 Tsukinyuni Mujina Airiesu AyameMyMommy Pile Koldnoodl Shiwakaze MiyohashiKoori lolis loli vocals
BeatmapID:3139748
BeatmapSetID:1459441

[Difficulty]
HPDrainRate:3
CircleSize:3
OverallDifficulty:4
ApproachRate:5
SliderMultiplier:0.999999999999999
SliderTickRate:1

[Events]
//Background and Video events
0,0,"syaromegu.jpg",0,0
//Break Periods
2,149978,151065
//Storyboard Layer 0 (Background)
//Storyboard Layer 1 (Fail)
//Storyboard Layer 2 (Pass)
//Storyboard Layer 3 (Foreground)
//Storyboard Layer 4 (Overlay)
//Storyboard Sound Samples

[TimingPoints]
556,310.880829015544,4,2,2,40,1,0
556,-111.111111111111,4,2,2,40,0,0
4908,-111.111111111111,4,2,2,85,0,0
5530,-100,4,2,2,80,0,0
15478,-100,4,2,2,50,0,0
17343,-100,4,2,2,85,0,0
17965,-105.263157894737,4,2,2,65,0,0
27602,-105.263157894737,4,2,2,55,0,0
27913,-105.263157894737,4,2,2,70,0,0
35374,-105.263157894737,4,2,2,65,0,0
35530,-105.263157894737,4,2,2,60,0,0
35996,-105.263157894737,4,2,2,65,0,0
36151,-105.263157894737,4,2,2,60,0,0
36618,-105.263157894737,4,2,2,85,0,0
37317,-105.263157894737,4,2,2,60,0,0
37861,-105.263157894737,4,2,2,65,0,0
42835,-100,4,2,2,70,0,0
50296,-100,4,2,2,65,0,0
51540,-95.2380952380952,4,2,2,80,0,1
71436,-100,4,2,2,65,0,0
75167,-100,4,2,2,85,0,0
75789,-100,4,2,2,60,0,0
76410,-100,4,2,2,80,0,0
86359,-105.263157894737,4,2,2,60,0,0
93820,-105.263157894737,4,2,2,65,0,0
93975,-105.263157894737,4,2,2,60,0,0
94442,-105.263157894737,4,2,2,65,0,0
94597,-105.263157894737,4,2,2,60,0,0
95063,-105.263157894737,4,2,2,85,0,0
95996,-105.263157894737,4,2,2,60,0,0
96307,-105.263157894737,4,2,2,65,0,0
101281,-100,4,2,2,70,0,0
107499,-100,4,2,2,80,0,0
108742,-100,4,2,2,60,0,0
109986,-95.2380952380952,4,2,2,80,0,1
129882,-100,4,2,2,70,0,0
139208,-100,4,2,2,70,0,0
148535,-100,4,2,2,80,0,0
149778,-100,4,2,2,50,0,0
152265,-100,4,2,2,85,0,0
152421,-100,4,2,2,70,0,0
152732,-100,4,2,2,75,0,0
153043,-100,4,2,2,80,0,0
153353,-100,4,2,2,85,0,0
153509,-100,4,2,2,70,0,0
154752,-90.9090909090909,4,2,2,80,0,1
174649,-100,4,2,2,60,0,0
178379,-100,4,2,2,85,0,0
179001,-100,4,2,2,60,0,0
179623,-100,4,2,2,80,0,0
190037,-100,4,2,2,60,0,0
191436,-100,4,2,2,75,0,0
192058,-100,4,2,2,70,0,0
197343,-100,4,2,2,5,0,0

[Colours]
Combo1 : 255,32,143
Combo2 : 255,193,193
Combo3 : 174,180,238
Combo4 : 255,255,159

[HitObjects]
86,51,556,6,0,P|133:35|180:43,1,89.999997253418,2|2,0:0|0:0,0:0:0:0:
207,68,1022,2,0,P|251:72|293:56,2,89.999997253418,2|2|2,0:0|0:0|0:0,0:0:0:0:
146,188,2110,2,0,P|101:183|59:199,2,89.999997253418,2|2|0,0:0|0:0|0:0,0:0:0:0:
213,248,3043,6,0,P|257:268|303:255,1,89.999997253418,2|2,0:0|0:0,0:0:0:0:
328,227,3509,2,0,L|320:126,2,89.999997253418,2|2|2,0:0|0:0|0:0,0:0:0:0:
449,287,4597,1,2,0:0:0:0:
489,206,4908,2,0,L|485:150,1,44.999998626709,10|8,0:0|0:0,0:0:0:0:
462,122,5219,2,0,L|466:66,1,44.999998626709,8|8,0:0|0:0,0:0:0:0:
444,31,5530,6,0,P|394:27|350:49,1,99.9999999999999,6|10,1:2|0:0,0:0:0:0:
261,96,6151,2,0,P|211:99|167:77,1,99.9999999999999,2|10,1:2|0:0,0:0:0:0:
68,60,6773,2,0,P|73:109|78:165,1,99.9999999999999,2|10,1:2|0:0,0:0:0:0:
46,198,7239,2,0,P|49:240|45:271,1,50,10|0,0:0|1:2,0:0:0:0:
101,332,7706,1,8,0:0:0:0:
181,272,8017,5,2,1:2:0:0:
280,285,8328,1,10,0:0:0:0:
355,350,8638,2,0,P|401:367|450:361,1,99.9999999999999,2|10,1:2|0:0,0:0:0:0:
490,268,9260,2,0,L|484:160,1,99.9999999999999,2|10,1:2|0:0,0:0:0:0:
491,118,9726,2,0,P|453:89|386:93,1,99.9999999999999,10|2,0:0|1:2,0:0:0:0:
358,111,10193,1,10,0:0:0:0:
286,181,10504,6,0,P|236:175|186:171,1,99.9999999999999,6|10,1:2|0:0,0:0:0:0:
173,270,11125,2,0,P|222:274|272:280,1,99.9999999999999,2|10,1:2|0:0,0:0:0:0:
352,340,11747,2,0,P|368:294|360:234,1,99.9999999999999,2|10,1:2|0:0,0:0:0:0:
370,194,12214,2,0,P|367:155|370:129,1,50,10|0,0:0|1:2,0:0:0:0:
393,47,12680,1,8,0:0:0:0:
296,19,12991,5,2,1:2:0:0:
207,67,13302,1,10,0:0:0:0:
152,150,13612,2,0,L|147:249,1,99.9999999999999,2|10,1:2|0:0,0:0:0:0:
135,349,14234,2,0,P|183:351|227:317,1,99.9999999999999,2|10,1:2|0:0,0:0:0:0:
255,282,14701,2,0,P|303:280|347:314,1,99.9999999999999,10|2,0:0|1:2,0:0:0:0:
373,349,15167,1,8,0:0:0:0:
256,192,15478,12,8,17343,0:0:0:0:
198,159,17965,6,0,P|149:162|93:169,2,94.9999974632263,6|2|2,1:2|1:2|1:2,0:0:0:0:
288,202,18897,1,2,1:2:0:0:
288,202,19053,2,0,P|332:217|389:192,1,94.9999974632263,2|2,0:0|0:0,0:0:0:0:
416,176,19519,1,2,1:2:0:0:
466,256,19830,2,0,P|471:316|446:352,1,94.9999974632263,2|0,1:2|1:0,0:0:0:0:
358,348,20452,6,0,B|317:340|317:340|308:344|308:344|266:337,1,94.9999974632263,2|2,1:2|1:2,0:0:0:0:
175,371,21074,2,0,P|147:333|102:322,1,94.9999974632263,2|2,1:2|1:2,0:0:0:0:
58,341,21540,2,0,L|52:236,1,94.9999974632263,2|2,0:0|0:0,0:0:0:0:
80,207,22006,1,2,1:2:0:0:
64,113,22317,2,0,P|61:82|74:51,1,47.4999987316131,2|8,1:2|0:0,0:0:0:0:
98,32,22628,1,0,1:0:0:0:
192,21,22939,6,0,B|256:41|212:51|287:66,1,94.9999974632263,2|2,1:2|1:2,0:0:0:0:
370,60,23561,2,0,P|415:47|458:64,1,94.9999974632263,2|2,1:2|1:2,0:0:0:0:
481,105,24027,2,0,L|465:211,1,94.9999974632263,2|2,0:0|0:0,0:0:0:0:
436,235,24493,2,0,L|420:341,2,94.9999974632263,2|2|10,1:2|1:2|0:0,0:0:0:0:
361,175,25426,6,0,P|315:162|272:179,1,94.9999974632263,2|2,1:2|1:2,0:0:0:0:
240,213,25892,1,2,0:0:0:0:
240,213,26048,2,0,L|246:275,2,47.4999987316131,2|2|10,1:2|0:0|0:0,0:0:0:0:
196,194,26514,1,14,0:0:0:0:
27,25,27291,2,0,L|38:119,1,94.9999974632263,2|0,1:2|3:0,0:0:0:0:
40,214,27913,6,0,L|28:308,2,94.9999974632263,6|10|2,1:2|0:0|1:2,0:0:0:0:
118,158,28846,1,10,0:0:0:0:
118,158,29001,2,0,P|162:128|222:133,1,94.9999974632263,2|2,1:2|0:0,0:0:0:0:
246,144,29467,2,0,L|347:131,1,94.9999974632263,10|2,0:0|1:2,0:0:0:0:
423,85,30089,2,0,P|429:62|426:38,1,47.4999987316131,8|2,0:0|0:0,0:0:0:0:
385,14,30400,6,0,L|290:26,1,94.9999974632263,2|10,1:2|0:0,0:0:0:0:
205,68,31022,2,0,P|171:93|114:77,1,94.9999974632263,2|10,1:2|0:0,0:0:0:0:
77,65,31488,2,0,P|38:92|24:137,1,94.9999974632263,2|2,0:0|0:0,0:0:0:0:
34,183,31954,1,10,0:0:0:0:
94,256,32265,1,2,1:2:0:0:
188,260,32576,1,10,0:0:0:0:
262,201,32887,6,0,P|308:191|348:215,1,94.9999974632263,2|8,1:2|0:0,0:0:0:0:
382,257,33353,1,2,0:0:0:0:
382,257,33509,2,0,P|427:266|467:242,1,94.9999974632263,2|8,1:2|0:0,0:0:0:0:
485,200,33975,1,2,0:0:0:0:
485,200,34131,1,2,1:2:0:0:
455,109,34442,1,10,0:0:0:0:
372,62,34752,2,0,L|272:82,1,94.9999974632263,2|10,1:2|0:0,0:0:0:0:
243,105,35219,1,2,0:0:0:0:
243,105,35374,5,6,1:3:0:0:
78,153,35996,1,6,1:3:0:0:
116,318,36618,2,0,L|175:332,1,47.4999987316131,10|10,0:0|0:0,0:0:0:0:
207,312,36929,2,0,L|253:321,1,47.4999987316131,10|10,0:0|0:0,0:0:0:0:
294,299,37239,1,10,0:0:0:0:
385,323,37550,1,2,1:2:0:0:
446,255,37861,6,0,P|433:220|421:203,1,47.4999987316131,14|8,0:2|0:0,0:0:0:0:
380,204,38172,2,0,L|271:215,2,94.9999974632263,2|2|2,1:2|1:2|1:2,0:0:0:0:
403,111,39105,2,0,P|369:95|348:91,1,47.4999987316131,14|8,0:2|0:0,0:0:0:0:
311,94,39416,2,0,L|300:-15,2,94.9999974632263,2|2|2,1:2|1:2|1:2,0:0:0:0:
228,141,40348,6,0,P|189:156|175:157,1,47.4999987316131,14|8,0:2|0:0,0:0:0:0:
136,152,40659,2,0,L|126:246,2,94.9999974632263,2|2|2,1:2|1:2|1:2,0:0:0:0:
145,57,41592,2,0,P|184:42|198:41,1,47.4999987316131,10|8,0:2|0:0,0:0:0:0:
236,45,41903,1,2,1:2:0:0:
236,45,42058,2,0,L|254:151,1,94.9999974632263,2|2,0:2|1:2,0:0:0:0:
261,185,42524,1,10,0:0:0:0:
235,281,42835,6,0,P|196:307|141:304,1,99.9999999999999,6|10,1:2|0:0,0:0:0:0:
51,342,43457,2,0,P|47:277|42:231,1,99.9999999999999,2|10,1:2|0:0,0:0:0:0:
102,161,44079,2,0,P|62:129|4:132,2,99.9999999999999,2|10|2,1:2|0:0|1:2,0:0:0:0:
174,230,45011,1,10,0:0:0:0:
239,154,45322,1,2,1:2:0:0:
315,219,45633,2,0,L|424:233,2,99.9999999999999,10|2|10,0:0|1:2|0:0,0:0:0:0:
250,295,46566,1,2,1:2:0:0:
161,341,46877,6,0,L|102:348,1,50,10|2,0:0|0:0,0:0:0:0:
62,358,47188,2,0,P|47:302|70:251,1,99.9999999999999,2|10,1:2|0:0,0:0:0:0:
118,182,47809,2,0,P|181:177|235:175,1,99.9999999999999,2|10,1:2|0:0,0:0:0:0:
264,194,48276,1,2,0:0:0:0:
264,194,48431,2,0,P|295:145|284:87,1,99.9999999999999,2|10,1:2|0:0,0:0:0:0:
221,33,49053,2,0,P|171:35|121:39,1,99.9999999999999,10|10,0:0|0:0,0:0:0:0:
56,116,49675,1,10,0:0:0:0:
83,212,49986,1,10,0:0:0:0:
114,306,50296,2,0,B|239:285|239:285|324:337|324:337|458:313,1,350,8|8,0:0|0:0,0:0:0:0:
474,274,51540,6,0,P|489:222|460:164,1,104.999996795654,6|10,1:2|0:0,0:0:0:0:
388,110,52162,2,0,P|341:125|291:103,1,104.999996795654,2|10,1:2|0:0,0:0:0:0:
203,57,52783,1,2,1:2:0:0:
203,57,52939,2,0,L|140:70,1,52.4999983978271,2|8,0:0|0:0,0:0:0:0:
109,96,53250,2,0,P|83:146|98:207,1,104.999996795654,2|2,1:2|0:0,0:0:0:0:
123,233,53716,1,10,0:0:0:0:
220,272,54027,6,0,L|211:396,1,104.999996795654,2|10,1:2|0:0,0:0:0:0:
317,380,54649,2,0,L|324:275,1,104.999996795654,2|10,1:2|0:0,0:0:0:0:
328,173,55271,1,2,1:2:0:0:
328,173,55426,2,0,P|348:156|373:149,1,52.4999983978271,10|0,0:0|1:0,0:0:0:0:
425,159,55737,2,0,L|433:42,1,104.999996795654,2|10,0:0|0:0,0:0:0:0:
432,1,56203,1,2,1:2:0:0:
333,29,56514,5,4,1:2:0:0:
333,29,56669,2,0,L|329:81,2,52.4999983978271,2|10|8,0:0|0:0|0:0,0:0:0:0:
283,9,57136,2,0,P|223:16|173:26,1,104.999996795654,2|10,1:2|0:0,0:0:0:0:
106,100,57758,2,0,P|78:156|91:210,1,104.999996795654,4|8,1:2|0:0,0:0:0:0:
110,241,58224,1,10,0:0:0:0:
146,278,58379,2,0,L|259:260,1,104.999996795654,2|10,1:2|0:0,0:0:0:0:
300,169,59001,6,0,P|333:174|362:181,1,52.4999983978271,4|2,1:2|0:0,0:0:0:0:
395,206,59312,2,0,P|420:200|446:196,1,52.4999983978271,10|10,0:0|0:0,0:0:0:0:
498,203,59623,2,0,P|509:148|486:96,1,104.999996795654,2|10,1:2|0:0,0:0:0:0:
446,90,60089,1,2,0:0:0:0:
446,90,60245,1,2,1:2:0:0:
357,38,60555,1,0,1:0:0:0:
357,38,60711,2,0,L|253:58,1,104.999996795654,10|10,0:0|0:0,0:0:0:0:
203,72,61177,2,0,L|208:135,1,52.4999983978271,10|10,0:0|0:0,0:0:0:0:
164,154,61488,6,0,L|57:168,1,104.999996795654,6|10,1:2|0:0,0:0:0:0:
29,268,62110,2,0,L|133:254,1,104.999996795654,2|10,1:2|0:0,0:0:0:0:
212,332,62732,1,2,1:2:0:0:
212,332,62887,2,0,P|237:334|260:322,1,52.4999983978271,2|8,0:0|0:0,0:0:0:0:
302,289,63198,2,0,P|338:258|408:264,1,104.999996795654,2|2,1:2|0:0,0:0:0:0:
443,274,63664,1,10,0:0:0:0:
481,176,63975,6,0,P|494:128|475:67,1,104.999996795654,2|10,1:2|0:0,0:0:0:0:
387,25,64597,2,0,L|261:32,1,104.999996795654,2|10,1:2|0:0,0:0:0:0:
182,75,65219,1,2,1:2:0:0:
182,75,65374,2,0,L|126:71,1,52.4999983978271,10|8,0:0|0:0,0:0:0:0:
76,70,65685,2,0,P|51:129|66:178,1,104.999996795654,2|10,1:2|0:0,0:0:0:0:
92,207,66151,1,2,1:2:0:0:
178,267,66462,5,4,1:2:0:0:
178,267,66618,2,0,L|172:323,2,52.4999983978271,2|10|8,0:0|0:0|0:0,0:0:0:0:
225,245,67084,2,0,P|282:256|345:263,1,104.999996795654,2|10,1:2|0:0,0:0:0:0:
428,293,67706,2,0,L|435:226,1,52.4999983978271,4|2,1:2|0:0,0:0:0:0:
460,195,68017,2,0,L|465:142,1,52.4999983978271,10|10,0:0|0:0,0:0:0:0:
498,101,68328,2,0,P|478:72|405:55,1,104.999996795654,2|10,1:2|0:0,0:0:0:0:
326,111,68949,5,4,1:2:0:0:
326,111,69105,2,0,P|284:142|229:133,1,104.999996795654,2|10,0:0|0:0,0:0:0:0:
189,108,69571,2,0,P|156:112|127:124,1,52.4999983978271,2|2,1:2|0:0,0:0:0:0:
87,105,69882,2,0,P|66:131|54:160,1,52.4999983978271,10|2,0:0|0:0,0:0:0:0:
60,201,70193,2,0,L|75:326,1,104.999996795654,10|8,1:2|0:0,0:0:0:0:
101,343,70659,1,10,0:0:0:0:
186,303,70970,2,0,L|179:250,2,52.4999983978271,10|10|10,0:0|0:0|0:0,0:0:0:0:
220,331,71436,6,0,P|269:349|331:332,2,99.9999999999999,6|2|2,1:2|0:0|1:2,0:0:0:0:
272,257,72369,1,10,0:0:0:0:
337,175,72680,2,0,L|453:194,2,99.9999999999999,2|2|2,1:2|0:0|1:2,0:0:0:0:
250,224,73612,1,10,0:0:0:0:
165,169,73923,2,0,L|49:188,2,99.9999999999999,2|2|2,1:2|0:0|1:2,0:0:0:0:
250,224,74856,1,10,0:0:0:0:
337,175,75167,2,0,L|339:112,1,50,8|8,1:2|1:2,0:0:0:0:
341,74,75478,1,8,1:2:0:0:
46,16,76410,6,0,P|22:54|41:114,1,99.9999999999999,6|10,1:2|0:0,0:0:0:0:
80,193,77032,2,0,P|91:240|67:282,1,99.9999999999999,2|10,1:2|0:0,0:0:0:0:
116,369,77654,2,0,L|231:342,1,99.9999999999999,2|10,1:2|0:0,0:0:0:0:
254,317,78120,2,0,L|306:304,1,50,10|0,0:0|1:2,0:0:0:0:
382,365,78587,1,8,0:0:0:0:
453,295,78897,5,2,1:2:0:0:
394,213,79208,1,10,0:0:0:0:
466,143,79519,2,0,P|476:93|434:47,1,99.9999999999999,2|10,1:2|0:0,0:0:0:0:
356,17,80141,2,0,P|293:31|235:42,1,99.9999999999999,2|10,1:2|0:0,0:0:0:0:
214,62,80607,2,0,P|196:124|229:163,1,99.9999999999999,10|2,0:0|1:2,0:0:0:0:
243,190,81074,1,10,0:0:0:0:
280,282,81385,6,0,P|211:306|174:329,1,99.9999999999999,6|10,1:2|0:0,0:0:0:0:
103,373,82006,2,0,P|79:304|56:267,1,99.9999999999999,2|10,1:2|0:0,0:0:0:0:
6,199,82628,2,0,P|6:145|54:116,1,99.9999999999999,2|10,1:2|0:0,0:0:0:0:
74,82,83094,2,0,L|83:24,1,50,10|0,0:0|1:2,0:0:0:0:
179,11,83561,1,8,0:0:0:0:
250,81,83872,5,2,1:2:0:0:
330,22,84182,1,10,0:0:0:0:
406,87,84493,2,0,P|417:135|429:204,1,99.9999999999999,2|10,1:2|0:0,0:0:0:0:
469,275,85115,2,0,B|316:255|347:369|184:338,1,300,6|0,1:2|0:0,0:0:0:0:
111,275,86359,6,0,P|88:316|93:363,2,94.9999974632263,6|2|10,1:2|1:2|0:0,0:0:0:0:
187,216,87291,1,2,1:2:0:0:
187,216,87447,2,0,P|178:161|170:109,1,94.9999974632263,2|2,0:0|0:0,0:0:0:0:
171,74,87913,1,2,1:2:0:0:
95,16,88224,2,0,P|43:36|25:77,1,94.9999974632263,10|0,0:0|1:0,0:0:0:0:
10,162,88846,6,0,P|31:236|37:271,1,94.9999974632263,2|2,1:2|1:2,0:0:0:0:
65,343,89467,2,0,P|106:320|173:306,1,94.9999974632263,10|2,0:0|1:2,0:0:0:0:
191,280,89934,2,0,P|240:298|255:347,1,94.9999974632263,2|2,1:2|0:0,0:0:0:0:
284,372,90400,1,2,1:2:0:0:
374,344,90711,2,0,P|389:281|396:237,1,94.9999974632263,10|0,0:0|1:0,0:0:0:0:
461,184,91333,5,2,1:2:0:0:
428,94,91644,2,0,L|413:32,1,47.4999987316131,2|2,1:2|0:0,0:0:0:0:
377,21,91954,2,0,P|321:22|291:54,1,94.9999974632263,10|2,0:0|1:2,0:0:0:0:
261,84,92421,1,2,0:0:0:0:
205,161,92732,1,2,0:0:0:0:
205,161,92887,2,0,P|137:139|96:134,1,94.9999974632263,2|10,1:2|0:0,0:0:0:0:
29,90,93509,1,2,1:2:0:0:
12,183,93820,5,2,1:2:0:0:
113,343,94442,1,2,1:2:0:0:
278,250,95063,2,0,L|290:189,1,47.4999987316131,10|10,0:2|0:0,0:0:0:0:
264,161,95374,2,0,L|276:100,1,47.4999987316131,10|10,0:0|0:0,0:0:0:0:
298,73,95685,2,0,P|350:61|391:97,1,94.9999974632263,10|0,0:2|1:0,0:0:0:0:
461,135,96307,6,0,L|473:193,1,47.4999987316131,14|8,0:2|0:0,0:0:0:0:
470,229,96618,2,0,P|436:260|372:264,1,94.9999974632263,2|2,1:2|1:2,0:0:0:0:
295,251,97239,1,2,1:2:0:0:
241,329,97550,2,0,L|178:347,1,47.4999987316131,14|8,0:0|0:0,0:0:0:0:
149,354,97861,2,0,P|119:307|134:259,1,94.9999974632263,2|2,1:2|1:2,0:0:0:0:
178,191,98483,1,2,1:2:0:0:
235,115,98794,6,0,L|224:52,1,47.4999987316131,14|8,0:2|0:0,0:0:0:0:
193,33,99105,2,0,P|145:30|102:58,1,94.9999974632263,2|2,1:2|1:2,0:0:0:0:
39,120,99726,1,2,1:2:0:0:
84,203,100037,2,0,P|80:238|66:258,2,47.4999987316131,10|8|2,0:0|0:0|1:2,0:0:0:0:
127,181,100504,2,0,P|173:189|217:207,1,94.9999974632263,2|2,0:2|1:2,0:0:0:0:
255,235,100970,1,10,0:0:0:0:
341,185,101281,6,0,P|365:136|355:73,1,99.9999999999999,6|10,1:2|0:0,0:0:0:0:
442,30,101903,2,0,P|466:79|456:142,1,99.9999999999999,2|10,1:2|0:0,0:0:0:0:
427,216,102524,1,2,1:2:0:0:
492,291,102835,1,10,0:0:0:0:
440,376,103146,2,0,P|395:354|345:348,1,99.9999999999999,2|10,1:2|0:0,0:0:0:0:
255,303,103768,6,0,P|228:260|239:209,1,99.9999999999999,2|10,1:2|0:0,0:0:0:0:
292,130,104390,1,2,1:2:0:0:
250,38,104701,1,10,0:0:0:0:
160,82,105011,2,0,P|108:97|46:125,1,99.9999999999999,2|10,1:2|0:0,0:0:0:0:
16,202,105633,2,0,P|32:255|42:310,1,99.9999999999999,2|10,1:2|0:0,0:0:0:0:
120,359,106255,6,0,P|172:354|213:305,1,99.9999999999999,2|10,1:2|0:0,0:0:0:0:
273,249,106877,1,2,1:2:0:0:
340,323,107188,1,10,0:0:0:0:
403,245,107499,2,0,P|410:207|430:135,1,99.9999999999999,10|10,0:0|0:0,0:0:0:0:
451,104,107965,1,2,0:0:0:0:
451,104,108120,1,10,0:0:0:0:
384,29,108431,1,10,0:0:0:0:
299,82,108742,6,0,L|233:70,1,50,8|8,0:0|0:0,0:0:0:0:
212,39,109053,2,0,L|146:27,1,50,8|8,0:0|0:0,0:0:0:0:
115,46,109364,2,0,P|73:85|85:133,1,99.9999999999999,8|4,0:0|1:3,0:0:0:0:
28,216,109986,6,0,P|84:232|141:261,1,104.999996795654,6|10,1:2|0:0,0:0:0:0:
201,324,110607,2,0,P|248:346|299:360,1,104.999996795654,2|10,1:2|0:0,0:0:0:0:
392,310,111229,1,2,1:2:0:0:
392,310,111385,2,0,P|410:281|408:250,1,52.4999983978271,2|8,0:0|0:0,0:0:0:0:
445,224,111695,2,0,P|439:170|421:100,1,104.999996795654,2|2,1:2|0:0,0:0:0:0:
399,75,112162,1,10,0:0:0:0:
307,23,112473,6,0,P|272:52|275:115,1,104.999996795654,2|10,1:2|0:0,0:0:0:0:
188,172,113094,2,0,P|223:201|220:264,1,104.999996795654,2|10,1:2|0:0,0:0:0:0:
159,340,113716,1,2,1:2:0:0:
159,340,113872,2,0,P|114:352|90:364,1,52.4999983978271,10|0,0:0|1:0,0:0:0:0:
59,373,114182,2,0,P|29:331|39:269,1,104.999996795654,2|10,0:0|0:0,0:0:0:0:
59,233,114649,1,2,1:2:0:0:
114,144,114960,6,0,L|104:76,2,52.4999983978271,4|2|10,1:2|0:0|0:0,0:0:0:0:
161,177,115426,1,8,0:0:0:0:
161,177,115581,2,0,P|198:181|259:136,1,104.999996795654,2|10,1:2|0:0,0:0:0:0:
297,50,116203,2,0,L|234:33,2,52.4999983978271,4|2|8,1:2|0:0|0:0,0:0:0:0:
346,32,116669,1,10,0:0:0:0:
346,32,116825,2,0,P|388:64|396:126,1,104.999996795654,2|10,1:2|0:0,0:0:0:0:
471,188,117447,6,0,P|448:241|432:306,1,104.999996795654,4|10,1:2|0:0,0:0:0:0:
417,335,117913,1,10,0:0:0:0:
417,335,118068,2,0,P|375:352|344:351,1,52.4999983978271,2|2,1:2|0:0,0:0:0:0:
324,381,118379,2,0,P|282:363|261:340,1,52.4999983978271,10|2,0:0|0:0,0:0:0:0:
235,326,118690,1,2,1:2:0:0:
276,231,119001,1,0,1:0:0:0:
276,231,119157,2,0,P|267:158|245:109,1,104.999996795654,10|10,0:0|0:0,0:0:0:0:
224,87,119623,2,0,P|214:52|209:27,1,52.4999983978271,10|10,0:0|0:0,0:0:0:0:
171,0,119934,6,0,P|115:5|86:46,1,104.999996795654,6|10,1:2|0:0,0:0:0:0:
20,122,120555,2,0,P|49:171|108:181,1,104.999996795654,2|10,1:2|0:0,0:0:0:0:
177,255,121177,1,2,1:2:0:0:
177,255,121333,2,0,L|161:323,1,52.4999983978271,2|8,0:0|0:0,0:0:0:0:
187,353,121644,2,0,P|250:360|311:380,1,104.999996795654,2|2,1:2|0:0,0:0:0:0:
339,355,122110,1,10,0:0:0:0:
440,328,122421,6,0,P|447:274|462:221,1,104.999996795654,2|10,1:2|0:0,0:0:0:0:
374,165,123043,2,0,P|367:219|352:272,1,104.999996795654,2|10,1:2|0:0,0:0:0:0:
285,348,123664,1,2,1:2:0:0:
285,348,123820,2,0,P|261:313|261:283,1,52.4999983978271,10|8,0:0|0:0,0:0:0:0:
248,252,124131,2,0,P|200:227|142:248,1,104.999996795654,2|10,1:2|0:0,0:0:0:0:
112,272,124597,1,2,1:2:0:0:
27,334,124908,6,0,L|46:397,2,52.4999983978271,4|2|10,1:2|0:0|0:0,0:0:0:0:
10,289,125374,1,8,0:0:0:0:
10,289,125530,2,0,L|32:168,1,104.999996795654,2|10,1:2|0:0,0:0:0:0:
87,98,126151,2,0,L|23:80,2,52.4999983978271,4|2|10,1:2|0:0|0:0,0:0:0:0:
130,128,126618,1,10,0:0:0:0:
130,128,126773,2,0,L|240:104,1,104.999996795654,2|10,1:2|0:0,0:0:0:0:
299,187,127395,6,0,P|334:156|339:92,1,104.999996795654,4|10,1:2|0:0,0:0:0:0:
384,68,127861,1,10,0:0:0:0:
384,68,128017,2,0,L|457:86,1,52.4999983978271,2|2,1:2|0:0,0:0:0:0:
471,118,128328,2,0,L|491:190,1,52.4999983978271,10|2,0:0|0:0,0:0:0:0:
483,220,128638,6,0,P|432:247|383:292,1,104.999996795654,10|8,1:2|0:0,0:0:0:0:
366,321,129105,1,10,0:0:0:0:
267,283,129416,2,0,L|254:345,2,52.4999983978271,10|10|10,0:0|0:0|0:0,0:0:0:0:
282,235,129882,6,0,P|281:188|255:123,1,99.9999999999999,6|10,1:2|0:0,0:0:0:0:
169,105,130504,2,0,L|52:128,1,99.9999999999999,0|8,1:2|0:0,0:0:0:0:
28,214,131125,2,0,L|145:237,1,99.9999999999999,2|8,1:2|0:0,0:0:0:0:
176,241,131592,1,2,1:2:0:0:
176,241,131747,2,0,P|200:287|194:348,1,99.9999999999999,2|10,1:2|0:0,0:0:0:0:
292,371,132369,6,0,L|390:351,1,99.9999999999999,2|8,1:2|0:0,0:0:0:0:
487,376,132991,2,0,B|508:342|508:342|498:269,1,99.9999999999999,2|10,1:2|0:0,0:0:0:0:
508,182,133612,2,0,P|471:157|408:160,1,99.9999999999999,2|10,1:2|0:0,0:0:0:0:
380,190,134079,1,0,1:0:0:0:
380,190,134234,1,2,1:2:0:0:
312,263,134545,2,0,P|273:252|242:246,1,50,10|8,0:0|0:0,0:0:0:0:
213,254,134856,6,0,P|185:208|199:144,1,99.9999999999999,6|10,1:2|0:0,0:0:0:0:
277,109,135478,2,0,L|385:95,1,99.9999999999999,2|10,1:2|0:0,0:0:0:0:
468,55,136100,2,0,P|496:101|482:165,1,99.9999999999999,2|10,1:2|0:0,0:0:0:0:
474,194,136566,1,0,1:0:0:0:
474,194,136721,2,0,P|432:191|414:191,1,50,2|0,1:2|0:0,0:0:0:0:
374,194,137032,1,10,0:0:0:0:
278,223,137343,2,0,P|238:216|167:194,1,99.9999999999999,2|10,1:2|0:0,0:0:0:0:
105,265,137965,2,0,P|114:314|128:361,1,99.9999999999999,2|10,1:2|0:0,0:0:0:0:
228,361,138587,2,0,P|268:354|339:332,1,99.9999999999999,2|10,1:2|0:0,0:0:0:0:
424,350,139208,5,10,0:0:0:0:
421,249,139519,1,10,0:0:0:0:
492,179,139830,2,0,P|505:115|507:62,1,99.9999999999999,6|8,1:2|0:0,0:0:0:0:
421,27,140452,2,0,P|364:21|334:51,1,99.9999999999999,2|8,1:2|0:0,0:0:0:0:
264,119,141074,2,0,P|205:97|159:87,1,99.9999999999999,2|8,1:2|0:0,0:0:0:0:
119,84,141540,1,0,1:0:0:0:
119,84,141695,2,0,P|79:114|85:171,1,99.9999999999999,2|10,1:2|0:0,0:0:0:0:
131,246,142317,5,2,1:2:0:0:
78,331,142628,1,10,0:0:0:0:
163,382,142939,1,2,1:2:0:0:
247,324,143250,1,10,0:0:0:0:
338,364,143561,2,0,P|368:310|356:261,1,99.9999999999999,2|8,1:2|0:0,0:0:0:0:
290,205,144182,2,0,P|275:143|271:94,1,99.9999999999999,2|10,1:2|0:0,0:0:0:0:
295,64,144649,1,8,0:0:0:0:
295,64,144804,6,0,P|336:38|384:49,1,99.9999999999999,6|8,1:2|0:0,0:0:0:0:
464,109,145426,2,0,P|472:162|480:217,1,99.9999999999999,2|8,1:2|0:0,0:0:0:0:
450,304,146048,2,0,P|408:333|347:323,1,99.9999999999999,2|8,1:2|0:0,0:0:0:0:
271,285,146669,1,2,1:2:0:0:
210,364,146980,1,10,0:0:0:0:
129,304,147291,6,0,P|115:247|116:204,1,99.9999999999999,6|10,1:2|0:0,0:0:0:0:
31,152,147913,2,0,P|52:114|114:111,1,99.9999999999999,2|10,1:2|0:0,0:0:0:0:
177,35,148535,2,0,B|287:45|246:109|351:127,1,200,2|10,1:2|0:0,0:0:0:0:
433,92,149467,2,0,L|447:153,1,50,10|10,0:0|0:0,0:0:0:0:
461,187,149778,1,6,1:2:0:0:
256,192,152265,12,2,154131,0:0:0:0:
167,227,154752,6,0,L|33:205,1,110.000003356934,6|10,1:2|0:0,0:0:0:0:
81,101,155374,2,0,L|189:118,1,110.000003356934,2|10,1:2|0:0,0:0:0:0:
290,162,155996,1,2,1:2:0:0:
290,162,156151,2,0,P|306:122|308:96,1,55.0000016784668,2|8,0:0|0:0,0:0:0:0:
331,60,156462,2,0,L|451:49,1,110.000003356934,2|2,1:2|0:0,0:0:0:0:
496,49,156929,1,10,0:0:0:0:
437,142,157239,6,0,P|422:198|433:254,1,110.000003356934,2|10,1:2|0:0,0:0:0:0:
470,351,157861,2,0,P|416:359|363:344,1,110.000003356934,2|10,1:2|0:0,0:0:0:0:
263,298,158483,1,2,1:2:0:0:
263,298,158638,2,0,P|215:281|194:281,1,55.0000016784668,10|0,0:0|1:0,0:0:0:0:
174,322,158949,2,0,L|57:334,1,110.000003356934,2|10,0:0|0:0,0:0:0:0:
10,344,159416,1,2,1:2:0:0:
31,239,159726,5,4,1:2:0:0:
31,239,159882,2,0,L|17:179,2,55.0000016784668,2|10|8,0:0|0:0|0:0,0:0:0:0:
86,236,160348,2,0,L|195:224,1,110.000003356934,2|10,1:2|0:0,0:0:0:0:
293,275,160970,2,0,P|305:233|302:209,1,55.0000016784668,4|2,1:2|0:0,0:0:0:0:
346,186,161281,2,0,P|324:147|305:132,1,55.0000016784668,8|10,0:0|0:0,0:0:0:0:
281,97,161592,2,0,L|171:108,1,110.000003356934,2|10,1:2|0:0,0:0:0:0:
74,161,162214,6,0,P|40:207|50:270,1,110.000003356934,4|10,1:2|0:0,0:0:0:0:
85,293,162680,1,10,0:0:0:0:
85,293,162835,2,0,P|125:297|146:290,1,55.0000016784668,2|2,1:2|0:0,0:0:0:0:
186,320,163146,2,0,P|217:294|227:274,1,55.0000016784668,10|2,0:0|0:0,0:0:0:0:
262,242,163457,1,2,1:2:0:0:
343,323,163768,1,0,1:0:0:0:
343,323,163923,2,0,P|396:309|450:300,1,110.000003356934,10|10,0:0|0:0,0:0:0:0:
497,270,164390,2,0,P|496:226|480:205,1,55.0000016784668,10|10,0:0|0:0,0:0:0:0:
447,184,164701,6,0,L|458:75,1,110.000003356934,6|10,1:2|0:0,0:0:0:0:
357,30,165322,2,0,L|346:139,1,110.000003356934,2|10,1:2|0:0,0:0:0:0:
268,218,165944,1,2,1:2:0:0:
268,218,166100,2,0,P|221:233|191:231,1,55.0000016784668,2|8,0:0|0:0,0:0:0:0:
161,222,166410,2,0,L|150:113,1,110.000003356934,2|2,1:2|0:0,0:0:0:0:
143,57,166877,1,10,0:0:0:0:
54,122,167188,6,0,P|26:181|51:234,1,110.000003356934,2|10,1:2|0:0,0:0:0:0:
28,330,167809,2,0,P|87:358|140:333,1,110.000003356934,2|10,1:2|0:0,0:0:0:0:
227,296,168431,1,2,1:2:0:0:
227,296,168587,2,0,P|271:279|301:282,1,55.0000016784668,10|8,0:0|0:0,0:0:0:0:
325,306,168897,2,0,L|449:326,1,110.000003356934,2|10,1:2|0:0,0:0:0:0:
488,330,169364,1,2,1:2:0:0:
475,225,169675,5,4,1:2:0:0:
475,225,169830,2,0,L|488:167,2,55.0000016784668,2|10|8,0:0|0:0|0:0,0:0:0:0:
419,228,170296,2,0,L|310:210,1,110.000003356934,2|10,1:2|0:0,0:0:0:0:
201,229,170918,6,0,P|146:236|132:245,1,55.0000016784668,4|2,1:2|0:0,0:0:0:0:
92,228,171229,2,0,P|37:221|23:212,1,55.0000016784668,10|10,0:0|0:0,0:0:0:0:
2,179,171540,2,0,L|20:70,1,110.000003356934,2|10,1:2|0:0,0:0:0:0:
124,29,172162,5,4,1:2:0:0:
124,29,172317,2,0,P|177:53|243:32,1,110.000003356934,2|10,0:0|0:0,0:0:0:0:
280,31,172783,2,0,L|275:94,1,55.0000016784668,2|2,1:2|0:0,0:0:0:0:
318,120,173094,2,0,L|323:183,1,55.0000016784668,10|2,0:0|0:0,0:0:0:0:
320,229,173405,2,0,P|267:253|201:232,1,110.000003356934,10|8,1:2|0:0,0:0:0:0:
174,208,173872,1,10,0:0:0:0:
92,143,174182,1,10,0:0:0:0:
92,143,174338,2,0,P|90:104|105:80,1,55.0000016784668,10|10,0:0|0:0,0:0:0:0:
106,41,174649,6,0,P|62:23|3:37,2,99.9999999999999,6|2|2,1:2|0:0|1:2,0:0:0:0:
185,102,175581,1,10,0:0:0:0:
258,34,175892,2,0,P|302:16|361:30,2,99.9999999999999,2|2|2,1:2|0:0|1:2,0:0:0:0:
185,102,176825,1,10,0:0:0:0:
246,180,177136,2,0,L|238:294,2,99.9999999999999,2|2|2,1:2|0:0|1:2,0:0:0:0:
185,102,178068,1,10,0:0:0:0:
106,41,178379,2,0,P|71:32|42:32,1,50,0|0,1:0|1:0,0:0:0:0:
11,51,178690,1,0,1:0:0:0:
184,295,179623,6,0,P|233:279|282:301,1,99.9999999999999,6|10,1:2|0:0,0:0:0:0:
328,210,180245,2,0,P|374:227|420:211,1,99.9999999999999,2|10,1:2|0:0,0:0:0:0:
463,120,180866,2,0,P|471:69|447:27,1,99.9999999999999,2|10,1:2|0:0,0:0:0:0:
400,10,181333,2,0,P|356:17|341:18,1,50,10|0,0:0|1:2,0:0:0:0:
268,74,181799,1,8,0:0:0:0:
241,170,182110,5,2,1:2:0:0:
300,250,182421,1,10,0:0:0:0:
259,341,182732,2,0,P|226:366|159:357,1,99.9999999999999,2|10,1:2|0:0,0:0:0:0:
69,360,183353,2,0,P|66:300|53:251,1,99.9999999999999,2|10,1:2|0:0,0:0:0:0:
32,216,183820,2,0,P|43:167|44:117,1,99.9999999999999,10|2,0:0|1:2,0:0:0:0:
25,70,184286,1,10,0:0:0:0:
119,36,184597,6,0,P|189:30|223:57,1,99.9999999999999,6|10,1:2|0:0,0:0:0:0:
292,104,185219,2,0,P|340:115|385:96,1,99.9999999999999,2|10,1:2|0:0,0:0:0:0:
470,147,185840,2,0,L|464:262,1,99.9999999999999,2|10,1:2|0:0,0:0:0:0:
455,296,186307,2,0,P|440:336|422:353,1,50,10|0,0:0|1:2,0:0:0:0:
340,309,186773,1,8,0:0:0:0:
260,369,187084,5,2,1:2:0:0:
163,341,187395,1,10,0:0:0:0:
125,248,187706,2,0,P|147:193|134:137,1,99.9999999999999,2|10,1:2|0:0,0:0:0:0:
92,66,188328,2,0,L|211:38,1,99.9999999999999,6|10,1:2|0:0,0:0:0:0:
233,66,188794,2,0,L|330:43,1,99.9999999999999,10|2,0:0|1:2,0:0:0:0:
380,40,189260,2,0,P|376:73|377:98,1,50,10|8,0:0|0:0,0:0:0:0:
381,139,189571,6,0,B|437:150|491:239|443:361|305:372|251:286|251:286|254:239|296:219|333:231,1,499.999999999999,14|0,0:0|0:0,0:0:0:0:
284,143,191436,1,8,0:0:0:0:
186,120,191747,1,8,0:0:0:0:
98,168,192058,1,6,1:2:0:0:
256,192,192136,12,0,197343,0:0:0:0:
