osu file format v14

[General]
AudioFilename: audio.mp3
AudioLeadIn: 0
PreviewTime: 51496
Countdown: 0
SampleSet: Soft
StackLeniency: 0.6
Mode: 0
LetterboxInBreaks: 0
WidescreenStoryboard: 1

[Editor]
Bookmarks: 27913,51540,76410,96307,109986,129882,149778,164701,179623,184597,192058
DistanceSpacing: 0.9
BeatDivisor: 8
GridSize: 4
TimelineZoom: 2.899999

[Metadata]
Title:Ashioto Tarte Tatin
TitleUnicode:足音タルトタタン♪
Artist:Megu (CV: Murakawa Rie), Syaro (CV: Uchida Maaya)
ArtistUnicode:メグ (CV: 村川梨衣), シャロ (CV: 内田真礼)
Creator:Kyuuchie
Version:Kyuuchinyuni's A la Carte
Source:ご注文はうさぎですか??
Tags:gochuumon wa usagi desu ka?? is the order a rabbit season 2 second gochiusa ごちうさ anime japanese pop jpop j-pop duet song album kirima sharo natsu megumi 桐間 紗路 奈津 恵 Tsukinyuni Mujina Airiesu AyameMyMommy Pile Koldnoodl Shiwakaze MiyohashiKoori lolis loli vocals
BeatmapID:3084313
BeatmapSetID:1459441

[Difficulty]
HPDrainRate:5
CircleSize:3.8
OverallDifficulty:9
ApproachRate:9.3
SliderMultiplier:1.84
SliderTickRate:1

[Events]
//Background and Video events
0,0,"syaromegu.jpg",0,0
//Break Periods
//Storyboard Layer 0 (Background)
//Storyboard Layer 1 (Fail)
//Storyboard Layer 2 (Pass)
//Storyboard Layer 3 (Foreground)
//Storyboard Layer 4 (Overlay)
//Storyboard Sound Samples

[TimingPoints]
556,310.880829015544,4,2,2,40,1,0
556,-166.666666666667,4,2,2,40,0,0
4908,-100,4,2,2,85,0,0
5530,-90.9090909090909,4,2,2,80,0,0
15478,-90.9090909090909,4,2,2,50,0,0
17343,-90.9090909090909,4,2,2,85,0,0
17965,-133.333333333333,4,2,2,65,0,0
27602,-105.263157894737,4,2,2,55,0,0
27913,-100,4,2,2,70,0,0
29778,-166.666666666667,4,2,2,70,0,0
30400,-100,4,2,2,70,0,0
31954,-111.111111111111,4,2,2,70,0,0
32265,-166.666666666667,4,2,2,70,0,0
32887,-111.111111111111,4,2,2,70,0,0
34131,-166.666666666667,4,2,2,70,0,0
35374,-166.666666666667,4,2,2,65,0,0
35530,-166.666666666667,4,2,2,60,0,0
35996,-166.666666666667,4,2,2,65,0,0
36151,-166.666666666667,4,2,2,60,0,0
36618,-166.666666666667,4,2,2,85,0,0
37317,-166.666666666667,4,2,2,60,0,0
37861,-250,4,2,2,65,0,0
42058,-166.666666666667,4,2,2,65,0,0
42835,-133.333333333333,4,2,2,70,0,0
44079,-200,4,2,2,70,0,0
44701,-133.333333333333,4,2,2,70,0,0
50296,-111.111111111111,4,2,2,65,0,0
51229,-133.333333333333,4,2,2,65,0,0
51540,-83.3333333333333,4,2,2,80,0,0
71436,-125,4,2,2,65,0,0
75167,-125,4,2,2,85,0,0
75789,-200,4,2,2,60,0,0
76410,-90.9090909090909,4,2,2,80,0,0
85115,-125,4,2,2,80,0,0
86359,-166.666666666667,4,2,2,60,0,0
86980,-100,4,2,2,60,0,0
87447,-111.111111111111,4,2,2,60,0,0
87913,-166.666666666667,4,2,2,60,0,0
89467,-111.111111111111,4,2,2,60,0,0
91022,-250,4,2,2,60,0,0
91333,-142.857142857143,4,2,2,60,0,0
93820,-142.857142857143,4,2,2,65,0,0
93975,-142.857142857143,4,2,2,60,0,0
94442,-142.857142857143,4,2,2,65,0,0
94597,-142.857142857143,4,2,2,60,0,0
95063,-142.857142857143,4,2,2,85,0,0
95996,-142.857142857143,4,2,2,60,0,0
96307,-250.000000000001,4,2,2,65,0,0
100504,-166.666666666667,4,2,2,65,0,0
101281,-125,4,2,2,70,0,0
102524,-200,4,2,2,70,0,0
103146,-125,4,2,2,70,0,0
107499,-125,4,2,2,80,0,0
108742,-125,4,2,2,60,0,0
109986,-83.3333333333333,4,2,2,80,0,0
110607,-71.4285714285714,4,2,2,80,0,0
110918,-83.3333333333333,4,2,2,80,0,0
129882,-100,4,2,2,70,0,0
148535,-100,4,2,2,80,0,0
149778,-333.333333333333,4,2,2,50,0,0
152265,-166.666666666667,4,2,2,85,0,0
152421,-166.666666666667,4,2,2,70,0,0
152732,-166.666666666667,4,2,2,75,0,0
153043,-166.666666666667,4,2,2,80,0,0
153353,-166.666666666667,4,2,2,85,0,0
153509,-166.666666666667,4,2,2,70,0,0
154131,-125,4,2,2,70,0,0
154752,-83.3333333333333,4,2,2,80,0,0
164701,-83.3333333333333,4,2,2,80,0,0
174649,-125,4,2,2,60,0,0
178379,-125,4,2,2,85,0,0
179001,-200,4,2,2,60,0,0
179623,-90.9090909090909,4,2,2,80,0,0
189571,-166.666666666667,4,2,2,80,0,0
190037,-166.666666666667,4,2,2,60,0,0
191436,-166.666666666667,4,2,2,75,0,0
192058,-166.666666666667,4,2,2,70,0,0
197343,-166.666666666667,4,2,2,5,0,0

[Colours]
Combo1 : 255,32,143
Combo2 : 255,193,193
Combo3 : 174,180,238
Combo4 : 255,255,159

[HitObjects]
461,95,556,6,0,L|466:32,2,55.1999983154297,2|0|2,0:0|0:0|0:0,0:0:0:0:
412,159,1022,1,2,0:0:0:0:
412,159,1333,1,2,0:0:0:0:
484,329,1644,6,0,P|435:312|358:303,1,110.399996630859,2|0,0:0|0:0,0:0:0:0:
308,363,2110,2,0,P|289:345|291:301,1,55.1999983154297,2|0,0:0|0:0,0:0:0:0:
323,170,2421,2,0,P|295:219|233:221,1,110.399996630859,2|0,0:0|0:0,0:0:0:0:
187,179,2887,1,0,0:0:0:0:
88,328,3043,6,0,P|46:334|21:346,2,55.1999983154297,2|0|2,0:0|0:0|0:0,0:0:0:0:
170,366,3509,2,0,P|176:311|140:254,1,110.399996630859,2|2,0:0|0:0,0:0:0:0:
130,247,3975,1,0,0:0:0:0:
271,33,4131,2,0,P|263:91|253:151,1,110.399996630859,2|0,0:0|0:0,0:0:0:0:
69,168,4597,1,2,0:0:0:0:
69,168,4752,1,0,0:0:0:0:
146,70,4908,5,10,0:0:0:0:
304,264,5063,1,8,0:0:0:0:
345,267,5141,1,8,0:0:0:0:
381,246,5219,1,8,0:0:0:0:
391,206,5296,1,8,0:0:0:0:
376,167,5374,2,0,P|345:170|313:185,1,46,8|8,0:0|0:0,0:0:0:0:
156,356,5530,6,0,P|101:337|42:328,1,101.200003088379,6|0,1:2|0:0,0:0:0:0:
49,201,5840,2,0,P|104:220|163:229,1,101.200003088379,10|0,0:0|0:0,0:0:0:0:
359,331,6151,2,0,P|392:285|372:236,1,101.200003088379,2|0,1:2|0:0,0:0:0:0:
225,158,6462,2,0,P|215:109|246:72,1,101.200003088379,10|0,0:0|0:0,0:0:0:0:
347,33,6773,6,0,P|327:116|308:213,1,151.800004632569,2|0,1:2|0:0,0:0:0:0:
300,194,7084,1,10,0:0:0:0:
161,364,7239,1,10,0:0:0:0:
161,364,7317,1,8,0:0:0:0:
161,364,7395,2,0,P|197:312|242:324,1,101.200003088379,0|0,1:2|0:0,0:0:0:0:
478,273,7706,2,0,P|420:265|381:247,1,101.200003088379,8|0,0:0|0:0,0:0:0:0:
225,160,8017,6,0,P|186:151|136:192,1,101.200003088379,2|0,1:2|0:0,0:0:0:0:
319,356,8328,2,0,P|308:291|291:254,1,101.200003088379,10|0,0:0|0:0,0:0:0:0:
437,45,8638,2,0,P|490:65|492:131,1,101.200003088379,2|0,1:2|0:0,0:0:0:0:
430,182,8949,2,0,P|356:161|314:157,1,101.200003088379,10|0,0:0|0:0,0:0:0:0:
136,43,9260,6,0,P|68:67|95:156,1,151.800004632569,2|0,1:2|0:0,0:0:0:0:
89,150,9571,1,10,0:0:0:0:
237,72,9726,1,10,0:0:0:0:
237,72,9804,1,8,0:0:0:0:
237,72,9882,1,0,1:2:0:0:
307,278,10037,1,2,1:2:0:0:
199,177,10193,1,10,0:0:0:0:
88,305,10348,5,8,0:0:0:0:
94,318,10426,1,8,0:0:0:0:
102,333,10504,2,0,P|164:308|206:301,1,101.200003088379,6|0,1:2|0:0,0:0:0:0:
367,185,10815,2,0,P|309:170|292:124,1,101.200003088379,10|0,0:0|0:0,0:0:0:0:
377,4,11125,2,0,P|397:53|369:101,1,101.200003088379,2|0,1:2|0:0,0:0:0:0:
193,205,11436,2,0,P|140:185|85:185,1,101.200003088379,10|0,0:0|0:0,0:0:0:0:
273,357,11747,6,0,P|333:338|433:322,1,151.800004632569,2|0,1:2|0:0,0:0:0:0:
443,328,12058,1,10,0:0:0:0:
302,216,12214,1,10,0:0:0:0:
302,216,12291,1,8,0:0:0:0:
302,216,12369,1,0,1:2:0:0:
471,124,12524,1,0,0:0:0:0:
321,28,12680,2,0,P|345:95|353:144,1,101.200003088379,8|0,0:0|0:0,0:0:0:0:
176,371,12991,6,0,P|178:318|220:289,1,101.200003088379,2|0,1:2|0:0,0:0:0:0:
390,208,13302,2,0,P|343:232|296:210,1,101.200003088379,10|0,0:0|0:0,0:0:0:0:
143,106,13612,2,0,P|96:89|54:113,1,101.200003088379,2|0,1:2|0:0,0:0:0:0:
5,260,13923,2,0,P|61:238|109:229,1,101.200003088379,10|0,0:0|0:0,0:0:0:0:
248,23,14234,6,0,P|228:107|214:199,1,151.800004632569,2|0,1:2|0:0,0:0:0:0:
211,186,14545,1,10,0:0:0:0:
367,356,14701,1,10,0:0:0:0:
367,356,14778,1,8,0:0:0:0:
367,356,14856,2,0,P|380:295|391:253,1,101.200003088379,0|2,1:2|1:2,0:0:0:0:
469,40,15167,5,8,0:0:0:0:
464,84,15245,1,8,0:0:0:0:
434,116,15322,1,8,0:0:0:0:
392,132,15400,1,8,0:0:0:0:
348,124,15478,1,14,0:0:0:0:
256,192,15555,12,0,17188,0:0:0:0:
419,56,17343,5,8,0:0:0:0:
469,316,17654,1,8,0:0:0:0:
122,70,17965,6,0,P|137:127|149:207,1,138.000005264282,6|2,1:2|1:2,0:0:0:0:
2,377,18587,2,0,P|18:334|117:329,1,138.000005264282,2|2,1:2|1:2,0:0:0:0:
262,378,19053,2,0,P|301:365|321:334,1,69.0000026321412,2|0,0:0|1:2,0:0:0:0:
196,283,19364,1,2,0:0:0:0:
196,283,19519,2,0,P|184:342|177:368,1,69.0000026321412,2|0,1:2|0:0,0:0:0:0:
331,258,19830,2,0,P|323:224|316:190,1,69.0000026321412,2|0,1:2|0:0,0:0:0:0:
264,128,20141,1,0,1:0:0:0:
512,247,20452,6,0,P|453:246|415:330,1,138.000005264282,2|2,1:2|1:2,0:0:0:0:
216,131,21074,2,0,P|275:130|313:214,1,138.000005264282,2|2,1:2|1:2,0:0:0:0:
324,278,21540,2,0,P|275:263|237:259,1,69.0000026321412,2|0,0:0|1:2,0:0:0:0:
106,345,21851,1,2,0:0:0:0:
106,345,22006,2,0,P|155:330|193:326,1,69.0000026321412,2|0,1:2|0:0,0:0:0:0:
219,140,22317,5,2,1:2:0:0:
49,60,22473,1,8,0:0:0:0:
103,134,22628,5,0,1:0:0:0:
160,80,22783,1,8,0:0:0:0:
249,263,22939,6,0,P|182:243|165:236,1,69.0000026321412,2|0,1:2|0:0,0:0:0:0:
109,220,23250,1,2,1:2:0:0:
41,366,23405,1,2,0:0:0:0:
41,366,23561,2,0,P|104:337|189:328,1,138.000005264282,2|2,1:2|1:2,0:0:0:0:
354,346,24027,2,0,P|396:323|387:230,1,138.000005264282,2|2,0:0|0:0,0:0:0:0:
324,183,24493,1,2,1:2:0:0:
324,183,24649,1,2,0:0:0:0:
477,53,24804,2,0,P|471:95|467:136,1,69.0000026321412,2|0,1:2|0:0,0:0:0:0:
385,124,25115,2,0,P|391:82|395:41,1,69.0000026321412,10|0,0:0|0:0,0:0:0:0:
501,219,25426,5,2,1:2:0:0:
501,219,25581,1,2,0:0:0:0:
325,278,25737,2,0,P|284:267|244:265,1,69.0000026321412,2|2,1:2|0:0,0:0:0:0:
83,196,26048,1,2,1:2:0:0:
229,108,26203,1,2,0:0:0:0:
172,271,26359,1,10,0:0:0:0:
25,90,26514,1,14,0:0:0:0:
324,365,27291,5,2,1:2:0:0:
360,275,27447,1,0,0:0:0:0:
404,384,27602,2,0,P|407:369|414:354,7,21.8499994165421,0|0|0|0|0|0|0|0,3:0|3:0|3:0|3:0|3:0|3:0|3:0|3:0,0:0:0:0:
492,337,27913,6,0,B|512:296|512:296|484:260,1,92,6|0,1:2|0:0,0:0:0:0:
357,164,28224,2,0,P|345:216|333:256,1,92,10|0,0:0|0:0,0:0:0:0:
436,117,28535,1,2,1:2:0:0:
436,117,28690,1,0,0:0:0:0:
274,26,28846,5,10,0:0:0:0:
340,136,29001,2,0,P|322:211|305:269,1,138,2|0,1:2|0:0,0:0:0:0:
296,292,29312,1,2,0:0:0:0:
215,203,29467,2,0,P|168:196|132:220,1,92,10|0,0:0|0:0,0:0:0:0:
174,335,29778,2,0,P|181:303|188:279,1,55.1999983154297,2|0,1:2|0:0,0:0:0:0:
52,235,30089,1,8,0:0:0:0:
52,235,30245,1,2,0:0:0:0:
199,177,30400,6,0,P|228:168|290:157,1,92,2|0,1:2|0:0,0:0:0:0:
153,33,30711,2,0,P|146:62|124:121,1,92,10|0,0:0|0:0,0:0:0:0:
300,65,31022,5,2,1:2:0:0:
349,224,31177,1,0,0:0:0:0:
280,50,31333,1,10,0:0:0:0:
432,184,31488,6,0,P|484:164|480:92,1,138,2|0,0:0|0:0,0:0:0:0:
466,78,31799,1,2,0:0:0:0:
345,150,31954,2,0,B|328:192|328:192|349:224,1,82.7999974731446,10|0,0:0|0:0,0:0:0:0:
479,289,32265,2,0,P|452:281|426:276,1,55.1999983154297,2|0,1:2|0:0,0:0:0:0:
337,340,32576,2,0,P|310:345|283:353,1,55.1999983154297,10|0,0:0|0:0,0:0:0:0:
164,204,32887,6,0,B|184:224|212:236|212:236|184:280|176:336,1,165.599994946289,2|8,1:2|0:0,0:0:0:0:
175,336,33353,1,2,0:0:0:0:
84,156,33509,2,0,P|4:180|12:248,1,165.599994946289,2|8,1:2|0:0,0:0:0:0:
12,248,33975,1,2,0:0:0:0:
165,110,34131,6,0,P|157:82|153:54,1,55.1999983154297,2|0,1:2|0:0,0:0:0:0:
256,182,34442,2,0,P|264:154|268:126,1,55.1999983154297,10|0,0:0|0:0,0:0:0:0:
125,232,34752,1,2,1:2:0:0:
216,304,34908,1,2,0:0:0:0:
96,156,35063,1,10,0:0:0:0:
56,278,35219,1,2,0:0:0:0:
212,35,35374,5,6,1:3:0:0:
155,356,35996,1,6,1:3:0:0:
392,96,36618,5,10,0:0:0:0:
436,296,36773,1,10,0:0:0:0:
496,60,36929,5,10,0:0:0:0:
297,278,37084,1,10,0:0:0:0:
300,35,37240,5,10,0:0:0:0:
357,356,37550,1,2,1:2:0:0:
239,127,37861,5,14,0:2:0:0:
421,103,38017,1,8,0:0:0:0:
300,35,38172,2,0,P|304:51|308:75,1,36.8,2|0,1:2|0:0,0:0:0:0:
387,115,38483,2,0,P|390:96|394:79,1,36.8,2|2,1:2|0:0,0:0:0:0:
288,28,38794,2,0,P|292:44|296:68,1,36.8,2|2,1:2|0:0,0:0:0:0:
266,207,39105,5,14,0:2:0:0:
90,151,39261,1,8,0:0:0:0:
224,112,39416,2,0,P|220:124|216:148,1,36.8,2|0,1:2|0:0,0:0:0:0:
159,243,39726,2,0,P|157:225|152:208,1,36.8,2|2,1:2|0:0,0:0:0:0:
208,92,40037,1,2,1:2:0:0:
265,207,40193,1,2,0:0:0:0:
360,91,40348,5,14,0:2:0:0:
316,268,40504,1,8,0:0:0:0:
424,160,40659,2,0,L|388:168,1,36.8,2|0,1:2|0:0,0:0:0:0:
229,199,40970,2,0,L|265:207,1,36.8,2|0,1:2|0:0,0:0:0:0:
392,292,41281,2,0,L|356:300,1,36.8,2|2,1:2|0:0,0:0:0:0:
228,356,41592,5,10,0:2:0:0:
184,179,41748,1,8,0:0:0:0:
152,320,41903,1,2,1:2:0:0:
307,227,42058,2,0,B|363:243|331:275|391:291,1,110.399996630859,2|2,0:2|1:2,0:0:0:0:
448,356,42524,1,10,0:0:0:0:
424,212,42680,1,8,0:0:0:0:
424,212,42758,1,8,0:0:0:0:
424,212,42835,6,0,P|432:172|440:144,1,69.0000026321412,6|0,1:2|0:0,0:0:0:0:
272,76,43146,2,0,P|281:110|288:143,1,69.0000026321412,10|0,0:0|0:0,0:0:0:0:
408,8,43457,2,0,P|398:41|392:75,1,69.0000026321412,2|0,1:2|0:0,0:0:0:0:
304,224,43768,2,0,P|268:228|240:212,1,69.0000026321412,10|0,0:0|0:0,0:0:0:0:
144,133,44079,6,0,P|140:155|134:178,1,46,2|0,1:2|0:0,0:0:0:0:
58,220,44390,2,0,P|52:198|48:176,1,46,10|0,0:0|0:0,0:0:0:0:
104,52,44701,2,0,L|172:36,1,69.0000026321412,2|0,1:2|0:0,0:0:0:0:
236,108,45011,2,0,L|304:124,1,69.0000026321412,10|0,0:0|0:0,0:0:0:0:
464,64,45322,6,0,P|404:88|400:156,1,138.000005264282,2|10,1:2|0:0,0:0:0:0:
399,154,45789,1,0,0:0:0:0:
301,88,45944,2,0,P|269:100|233:108,1,69.0000026321412,2|0,1:2|0:0,0:0:0:0:
348,232,46255,2,0,P|381:239|413:251,1,69.0000026321412,10|0,0:0|0:0,0:0:0:0:
248,352,46566,6,0,P|220:260|204:220,1,138.000005264282,2|10,1:2|0:0,0:0:0:0:
204,221,47032,1,2,0:0:0:0:
92,336,47188,2,0,P|104:300|116:272,1,69.0000026321412,2|0,1:2|0:0,0:0:0:0:
252,284,47499,2,0,P|240:248|228:220,1,69.0000026321412,10|0,0:0|0:0,0:0:0:0:
72,160,47809,6,0,B|136:152|112:100|184:88,1,138.000005264282,2|10,1:2|0:0,0:0:0:0:
183,88,48276,1,2,0:0:0:0:
68,20,48431,2,0,B|44:44|44:44|52:80,1,69.0000026321412,2|0,1:2|0:0,0:0:0:0:
216,12,48742,2,0,P|260:28|284:32,1,69.0000026321412,10|0,0:0|0:0,0:0:0:0:
184,248,49053,5,10,0:0:0:0:
368,116,49208,1,2,0:0:0:0:
327,264,49364,1,10,0:0:0:0:
177,94,49519,1,2,0:0:0:0:
249,311,49675,1,10,0:0:0:0:
373,133,49830,1,10,0:0:0:0:
379,149,49907,1,8,0:0:0:0:
384,165,49985,1,10,0:0:0:0:
389,182,50063,1,8,0:0:0:0:
392,198,50140,1,10,0:0:0:0:
395,216,50218,1,8,0:0:0:0:
396,233,50296,6,0,P|416:237|436:245,1,41.3999987365723,8|8,0:0|0:0,0:0:0:0:
504,139,50452,2,0,P|484:135|464:127,1,41.3999987365723,8|8,0:0|0:0,0:0:0:0:
308,184,50607,6,0,P|288:191|268:195,1,41.3999987365723,8|8,0:0|0:0,0:0:0:0:
356,327,50762,2,0,P|375:319|395:315,1,41.3999987365723,8|8,0:0|0:0,0:0:0:0:
200,276,50918,6,0,L|192:316,1,41.3999987365723,8|8,0:0|0:0,0:0:0:0:
296,108,51074,2,0,L|288:68,1,41.3999987365723,8|8,0:0|0:0,0:0:0:0:
56,34,51229,5,8,0:0:0:0:
21,62,51307,1,8,0:0:0:0:
15,109,51385,1,8,0:0:0:0:
34,148,51462,1,8,0:0:0:0:
70,168,51540,6,0,B|112:157|117:122|117:122|160:90|228:132,1,165.599994946289,6|0,1:2|0:0,0:0:0:0:
268,194,51851,2,0,B|322:204|322:204|317:207|317:207|381:219,1,110.399996630859,10|0,0:0|0:0,0:0:0:0:
28,373,52162,6,0,B|-9:350|-9:350|-45:282|33:246,1,165.599994946289,2|0,1:2|0:0,0:0:0:0:
70,172,52473,2,0,P|55:113|32:68,1,110.399996630859,10|0,0:0|0:0,0:0:0:0:
191,265,52783,5,2,1:2:0:0:
289,69,52939,1,2,0:0:0:0:
107,168,53094,1,8,0:0:0:0:
330,298,53250,1,2,1:2:0:0:
330,298,53328,1,8,0:0:0:0:
330,298,53405,2,0,P|368:240|343:201,1,110.399996630859,0|2,1:0|0:0,0:0:0:0:
272,362,53716,1,10,0:0:0:0:
193,182,53872,1,2,0:0:0:0:
464,19,54027,6,0,B|478:88|412:108|412:108|390:77|343:77,1,165.599994946289,2|0,1:2|0:0,0:0:0:0:
302,127,54338,2,0,P|246:105|195:95,1,110.399996630859,10|0,0:0|0:0,0:0:0:0:
374,363,54649,6,0,B|398:319|369:282|355:301|328:255|359:195,1,165.599994946289,2|0,1:2|0:0,0:0:0:0:
431,153,54960,2,0,P|467:182|438:243,1,110.399996630859,10|0,0:0|0:0,0:0:0:0:
293,320,55271,1,2,1:2:0:0:
157,188,55426,1,10,0:0:0:0:
157,188,55504,1,8,0:0:0:0:
157,188,55581,1,0,1:0:0:0:
322,49,55737,2,0,P|302:114|291:175,1,110.399996630859,2|8,0:0|0:0,0:0:0:0:
112,331,56048,5,10,0:0:0:0:
99,315,56125,1,8,0:0:0:0:
104,295,56203,1,2,1:2:0:0:
166,74,56358,1,10,0:0:0:0:
146,89,56436,1,8,0:0:0:0:
120,85,56514,6,0,P|62:77|12:63,1,110.399996630859,4|2,1:2|0:0,0:0:0:0:
220,250,56825,2,0,P|273:235|327:228,1,110.399996630859,10|8,0:0|0:0,0:0:0:0:
75,195,57136,1,2,1:2:0:0:
253,77,57291,1,0,0:0:0:0:
54,198,57447,2,0,P|72:247|85:307,1,110.399996630859,10|0,0:0|0:0,0:0:0:0:
271,361,57758,5,4,1:2:0:0:
409,220,57913,2,0,P|426:274|393:315,1,110.399996630859,2|8,0:0|0:0,0:0:0:0:
203,170,58224,1,10,0:0:0:0:
203,170,58302,1,8,0:0:0:0:
203,170,58379,2,0,P|221:225|232:286,1,110.399996630859,2|0,1:2|0:0,0:0:0:0:
374,57,58690,2,0,P|356:112|345:173,1,110.399996630859,10|0,0:0|0:0,0:0:0:0:
280,64,59001,5,4,1:2:0:0:
434,224,59157,1,2,0:0:0:0:
464,102,59312,1,10,0:0:0:0:
308,244,59467,1,10,0:0:0:0:
180,69,59623,5,2,1:2:0:0:
346,163,59778,1,2,0:0:0:0:
125,272,59934,1,10,0:0:0:0:
216,155,60089,1,2,0:0:0:0:
353,323,60245,2,0,P|408:310|480:300,1,110.399996630859,2|8,1:2|0:0,0:0:0:0:
479,309,60478,1,8,0:0:0:0:
479,309,60555,1,0,1:0:0:0:
351,128,60711,6,0,P|304:147|307:217,1,110.399996630859,10|0,0:0|1:0,0:0:0:0:
461,85,61022,1,10,0:0:0:0:
461,85,61100,1,8,0:0:0:0:
461,85,61177,1,10,0:0:0:0:
434,235,61333,2,0,P|422:212|405:186,1,55.1999983154297,10|8,0:0|0:0,0:0:0:0:
274,40,61488,6,0,B|231:28|190:54|210:74|176:103|108:84,1,165.599994946289,6|0,1:2|0:0,0:0:0:0:
54,154,61799,2,0,P|36:91|16:50,1,110.399996630859,10|0,0:0|0:0,0:0:0:0:
290,219,62110,6,0,P|281:287|197:295,1,165.599994946289,2|0,1:2|0:0,0:0:0:0:
110,261,62421,2,0,P|54:283|4:296,1,110.399996630859,10|0,0:0|0:0,0:0:0:0:
195,180,62732,5,2,1:2:0:0:
297,326,62887,1,2,0:0:0:0:
186,164,63043,1,8,0:0:0:0:
395,87,63198,1,2,1:2:0:0:
395,87,63276,1,8,0:0:0:0:
395,87,63353,2,0,P|380:154|364:210,1,110.399996630859,0|2,1:0|0:0,0:0:0:0:
304,65,63664,1,10,0:0:0:0:
478,190,63820,1,2,0:0:0:0:
311,358,63975,6,0,B|250:343|250:343|231:352|231:352|137:328,1,165.599994946289,2|0,1:2|0:0,0:0:0:0:
63,363,64286,2,0,B|46:330|46:330|81:263,1,110.399996630859,10|0,0:0|0:0,0:0:0:0:
263,77,64597,6,0,B|285:66|308:36|308:36|281:90|266:142,1,165.599994946289,2|0,1:2|0:0,0:0:0:0:
177,161,64908,2,0,B|129:140|129:140|133:145|133:145|72:119,1,110.399996630859,10|0,0:0|0:0,0:0:0:0:
325,331,65219,5,2,1:2:0:0:
509,123,65374,1,10,0:0:0:0:
306,206,65530,1,8,0:0:0:0:
467,363,65685,2,0,P|449:316|448:248,1,110.399996630859,2|8,1:2|0:0,0:0:0:0:
222,242,65996,5,10,0:0:0:0:
218,256,66074,1,8,0:0:0:0:
221,270,66151,1,2,1:2:0:0:
386,64,66307,1,10,0:0:0:0:
361,57,66385,1,8,0:0:0:0:
335,71,66462,6,0,P|274:62|228:45,1,110.399996630859,4|2,1:2|0:0,0:0:0:0:
65,161,66773,2,0,P|126:170|175:187,1,110.399996630859,10|8,0:0|0:0,0:0:0:0:
108,55,67084,1,2,1:2:0:0:
292,181,67239,1,0,0:0:0:0:
59,350,67395,2,0,P|20:313|28:261,1,110.399996630859,10|0,0:0|0:0,0:0:0:0:
171,185,67706,5,4,1:2:0:0:
186,356,67861,1,2,0:0:0:0:
65,161,68017,1,10,0:0:0:0:
314,336,68172,1,10,0:0:0:0:
314,336,68250,1,8,0:0:0:0:
314,336,68328,2,0,P|354:288|345:242,1,110.399996630859,2|0,1:2|0:0,0:0:0:0:
203,93,68638,2,0,P|163:141|171:185,1,110.399996630859,10|0,0:0|0:0,0:0:0:0:
333,45,68949,5,4,1:2:0:0:
475,223,69105,2,0,P|505:170|472:117,1,110.399996630859,2|10,0:0|0:0,0:0:0:0:
270,252,69416,1,10,0:0:0:0:
405,89,69571,1,2,1:2:0:0:
455,312,69726,1,2,0:0:0:0:
316,161,69882,1,10,0:0:0:0:
197,348,70037,1,2,0:0:0:0:
26,183,70193,5,10,1:2:0:0:
63,217,70271,1,8,0:0:0:0:
112,208,70348,1,8,0:0:0:0:
137,163,70426,1,8,0:0:0:0:
137,112,70504,2,0,L|121:34,1,55.1999983154297,8|0,0:0|0:0,0:0:0:0:
250,222,70659,5,10,0:0:0:0:
416,86,70815,1,0,1:0:0:0:
215,10,70970,2,0,P|230:58|237:80,1,55.1999983154297,10|8,0:0|0:0,0:0:0:0:
375,238,71125,2,0,P|382:213|392:181,1,55.1999983154297,10|8,0:0|0:0,0:0:0:0:
161,252,71281,1,10,0:0:0:0:
161,277,71359,1,8,0:0:0:0:
178,295,71436,6,0,P|109:312|37:336,1,147.2,6|2,1:2|0:0,0:0:0:0:
86,221,71903,1,0,1:2:0:0:
86,221,72058,2,0,L|64:146,1,73.6,2|0,1:2|0:0,0:0:0:0:
140,100,72369,2,0,L|162:175,1,73.6,10|2,0:0|0:0,0:0:0:0:
349,289,72680,6,0,P|400:252|372:171,1,147.2,2|2,1:2|0:0,0:0:0:0:
314,117,73146,1,0,1:0:0:0:
314,117,73302,2,0,P|305:64|298:34,1,73.6,2|8,1:2|0:0,0:0:0:0:
391,1,73612,2,0,P|423:34|412:75,1,73.6,10|2,0:0|0:0,0:0:0:0:
290,204,73923,6,0,B|224:185|224:185|229:190|229:190|151:167,1,147.2,2|2,1:2|0:0,0:0:0:0:
0,54,74390,1,0,1:0:0:0:
0,54,74545,2,0,P|10:82|19:134,1,73.6,2|0,1:2|0:0,0:0:0:0:
102,104,74856,2,0,P|92:76|83:24,1,73.6,10|2,0:0|0:0,0:0:0:0:
300,275,75167,5,8,1:2:0:0:
277,174,75322,1,8,1:2:0:0:
254,73,75478,1,8,1:2:0:0:
471,346,75789,6,0,P|477:303|482:281,1,46,2|0,0:0|0:0,0:0:0:0:
428,241,76100,1,2,0:0:0:0:
428,241,76255,1,2,0:0:0:0:
261,353,76410,6,0,P|213:337|164:328,1,101.200003088379,6|0,1:2|0:0,0:0:0:0:
130,162,76721,2,0,P|82:178|33:187,1,101.200003088379,10|0,0:0|0:0,0:0:0:0:
76,345,77032,2,0,P|68:305|104:261,1,101.200003088379,2|0,1:2|0:0,0:0:0:0:
287,217,77343,2,0,P|256:243|200:234,1,101.200003088379,10|0,0:0|0:0,0:0:0:0:
92,80,77654,6,0,B|120:72|136:52|136:52|104:92|104:144,1,151.800004632569,2|0,1:2|0:0,0:0:0:0:
33,188,77965,1,10,0:0:0:0:
72,0,78120,1,10,0:0:0:0:
72,0,78198,1,8,0:0:0:0:
72,0,78276,1,0,1:2:0:0:
185,155,78431,1,0,0:0:0:0:
340,42,78587,2,0,P|396:36|440:24,1,101.200003088379,8|0,0:0|0:0,0:0:0:0:
321,217,78897,6,0,P|289:185|305:137,1,101.200003088379,2|0,1:2|0:0,0:0:0:0:
503,101,79208,2,0,P|480:152|468:196,1,101.200003088379,10|0,0:0|0:0,0:0:0:0:
421,359,79519,2,0,P|438:314|405:278,1,101.200003088379,2|0,1:2|0:0,0:0:0:0:
207,243,79830,2,0,P|229:294|241:338,1,101.200003088379,10|0,0:0|0:0,0:0:0:0:
370,183,80141,6,0,P|324:127|254:143,1,151.800004632569,2|0,1:2|0:0,0:0:0:0:
196,220,80452,1,10,0:0:0:0:
46,123,80607,1,10,0:0:0:0:
46,123,80684,1,8,0:0:0:0:
46,123,80763,1,0,1:2:0:0:
138,296,80918,1,2,1:2:0:0:
168,97,81074,1,10,0:0:0:0:
273,279,81229,5,8,0:0:0:0:
273,279,81307,1,8,0:0:0:0:
273,279,81385,2,0,P|308:308|360:300,1,101.200003088379,6|0,1:2|0:0,0:0:0:0:
489,183,81695,2,0,P|469:231|457:279,1,101.200003088379,10|0,0:0|0:0,0:0:0:0:
302,117,82006,2,0,P|322:165|334:213,1,101.200003088379,2|0,1:2|0:0,0:0:0:0:
484,64,82317,2,0,P|435:54|396:84,1,101.200003088379,10|0,0:0|0:0,0:0:0:0:
216,184,82628,6,0,B|201:165|180:152|180:152|204:112|208:52,1,151.800004632569,2|0,1:2|0:0,0:0:0:0:
286,37,82939,1,10,0:0:0:0:
152,236,83094,1,10,0:0:0:0:
152,236,83172,1,8,0:0:0:0:
152,236,83250,1,0,1:2:0:0:
321,109,83405,1,0,0:0:0:0:
383,312,83561,2,0,B|344:330|313:299|313:299|283:269|244:287,1,151.800004632569,8|0,0:0|0:0,0:0:0:0:
163,336,83872,6,0,P|115:312|71:296,1,101.200003088379,2|0,1:2|0:0,0:0:0:0:
228,149,84182,2,0,P|275:131|320:108,1,101.200003088379,10|0,0:0|0:0,0:0:0:0:
157,27,84493,2,0,P|123:62|133:110,1,101.200003088379,2|0,1:2|0:0,0:0:0:0:
309,209,84804,2,0,P|318:257|285:292,1,101.200003088379,10|0,0:0|0:0,0:0:0:0:
48,288,85115,2,0,B|-20:303|-51:210|8:148|136:183|143:285|143:285|155:279|155:279|159:337|213:358|213:358|184:328|188:280,1,515.2,6|0,1:2|0:0,0:0:0:0:
200,200,86359,6,0,P|208:180|216:148,1,55.1999983154297,6|0,1:2|0:0,0:0:0:0:
318,129,86669,2,0,P|308:103|302:77,1,55.1999983154297,2|0,1:2|0:0,0:0:0:0:
199,38,86980,2,0,P|128:32|112:88,1,138,10|0,0:0|0:0,0:0:0:0:
116,108,87291,1,2,1:2:0:0:
216,149,87447,6,0,P|236:222|246:285,1,124.199996209717,2|0,0:0|0:0,0:0:0:0:
249,296,87758,1,2,0:0:0:0:
360,232,87913,2,0,P|350:257|343:284,1,55.1999983154297,2|0,1:2|0:0,0:0:0:0:
428,376,88224,2,0,P|504:332|484:272,1,165.599994946289,10|0,0:0|0:0,0:0:0:0:
371,178,88846,6,0,P|367:205|359:231,1,55.1999983154297,2|0,1:2|0:0,0:0:0:0:
456,132,89157,2,0,P|459:159|467:185,1,55.1999983154297,2|0,1:2|0:0,0:0:0:0:
374,82,89467,6,0,B|342:78|326:50|326:50|290:42|266:62,1,124.199996209717,10|0,0:0|0:0,0:0:0:0:
256,72,89778,1,2,1:2:0:0:
162,13,89934,2,0,B|135:96|135:96|151:108|159:124,1,124.199996209717,2|0,1:2|0:0,0:0:0:0:
168,139,90245,1,2,0:0:0:0:
8,108,90400,2,0,P|24:152|34:187,1,82.7999974731446,2|0,1:2|0:0,0:0:0:0:
64,334,90711,2,0,B|64:300|96:284|96:284|128:268|128:236,1,124.199996209717,10|0,0:0|0:0,0:0:0:0:
148,228,91022,2,0,P|144:260|132:280,1,55.2,0|0,1:0|0:0,0:0:0:0:
160,368,91333,6,0,P|192:356|224:348,1,64.399998034668,2|0,1:2|0:0,0:0:0:0:
240,260,91644,2,0,P|270:271|301:279,1,64.399998034668,2|2,1:2|0:0,0:0:0:0:
377,343,91954,2,0,P|388:280|396:248,1,96.599997052002,10|0,0:0|0:0,0:0:0:0:
400,232,92265,1,2,1:2:0:0:
504,300,92421,2,0,B|512:268|512:268|492:241,1,64.399998034668,2|0,0:0|0:0,0:0:0:0:
455,156,92732,5,2,0:0:0:0:
510,80,92887,1,2,1:2:0:0:
455,156,93043,1,2,0:0:0:0:
367,122,93198,2,0,P|339:134|303:142,1,64.399998034668,10|0,0:0|0:0,0:0:0:0:
400,232,93509,2,0,P|431:239|460:251,1,64.399998034668,2|0,1:2|0:0,0:0:0:0:
422,46,93820,5,2,1:2:0:0:
346,334,94442,1,2,1:2:0:0:
103,143,95063,5,10,0:2:0:0:
269,275,95219,1,10,0:0:0:0:
180,84,95374,5,10,0:0:0:0:
3,257,95530,1,10,0:0:0:0:
90,46,95685,5,10,0:2:0:0:
166,334,95996,1,0,1:0:0:0:
336,60,96307,5,14,0:2:0:0:
384,243,96462,1,8,0:0:0:0:
421,117,96618,2,0,P|415:147|414:164,1,36.8,2|0,1:2|0:0,0:0:0:0:
321,174,96929,2,0,P|327:144|328:127,1,36.8,2|2,1:2|0:0,0:0:0:0:
220,260,97239,1,2,1:2:0:0:
178,168,97395,1,2,0:0:0:0:
142,346,97550,5,14,0:0:0:0:
307,266,97706,1,8,0:0:0:0:
125,259,97861,2,0,L|79:246,1,36.8,2|2,1:2|0:0,0:0:0:0:
48,157,98172,2,0,L|94:170,1,36.8,2|2,1:2|0:0,0:0:0:0:
178,168,98483,1,2,1:2:0:0:
126,96,98638,1,2,0:0:0:0:
18,235,98794,5,14,0:2:0:0:
221,84,98949,1,8,0:0:0:0:
302,212,99105,2,0,L|350:204,1,36.8,2|0,1:2|0:0,0:0:0:0:
381,109,99416,2,0,L|333:117,1,36.8,2|0,1:2|0:0,0:0:0:0:
434,233,99726,2,0,L|426:185,1,36.8,2|2,1:2|0:0,0:0:0:0:
360,307,100037,5,10,0:0:0:0:
466,94,100193,1,8,0:0:0:0:
367,292,100348,1,2,1:2:0:0:
229,116,100504,2,0,B|199:109|174:132|190:133|164:167|134:158,1,110.399996630859,2|2,0:2|1:2,0:0:0:0:
65,104,100970,1,10,0:0:0:0:
213,249,101125,1,8,0:0:0:0:
213,249,101203,1,8,0:0:0:0:
213,249,101281,6,0,P|251:255|294:266,1,73.6,6|0,1:2|0:0,0:0:0:0:
389,179,101592,2,0,P|351:173|308:162,1,73.6,10|0,0:0|0:0,0:0:0:0:
345,344,101903,2,0,P|387:313|384:264,1,73.6,2|0,1:2|0:0,0:0:0:0:
275,66,102214,2,0,P|233:97|236:146,1,73.6,10|0,0:0|0:0,0:0:0:0:
130,208,102524,6,0,P|94:204|67:202,1,46,2|0,1:2|0:0,0:0:0:0:
49,113,102835,2,0,P|85:117|112:119,1,46,10|0,0:0|0:0,0:0:0:0:
213,249,103146,2,0,P|255:233|305:225,1,73.6,2|0,1:2|0:0,0:0:0:0:
409,127,103457,2,0,P|367:111|317:103,1,73.6,10|0,0:0|0:0,0:0:0:0:
378,344,103768,6,0,B|392:319|424:308|424:308|442:250|391:219,1,147.2,2|10,1:2|0:0,0:0:0:0:
404,228,104234,1,0,0:0:0:0:
250,354,104390,2,0,P|197:341|160:337,1,73.6,2|0,1:2|0:0,0:0:0:0:
68,220,104701,2,0,P|41:260|56:301,1,73.6,10|0,0:0|0:0,0:0:0:0:
156,113,105011,6,0,P|173:174|196:264,1,147.2,2|10,1:2|0:0,0:0:0:0:
193,255,105478,1,0,0:0:0:0:
388,244,105633,2,0,P|443:224|474:218,1,73.6,2|0,1:2|0:0,0:0:0:0:
482,87,105944,2,0,P|427:107|396:113,1,73.6,10|0,0:0|0:0,0:0:0:0:
235,39,106255,6,0,P|178:37|161:121,1,147.2,2|10,1:2|0:0,0:0:0:0:
155,112,106721,1,0,0:0:0:0:
253,229,106877,2,0,P|266:175|246:145,1,73.6,2|0,1:2|0:0,0:0:0:0:
70,147,107188,2,0,P|57:201|77:231,1,73.6,10|0,0:0|0:0,0:0:0:0:
275,338,107499,5,10,0:0:0:0:
368,132,107654,1,2,0:0:0:0:
185,267,107809,1,10,0:0:0:0:
92,64,107965,1,2,0:0:0:0:
259,205,108120,5,10,0:0:0:0:
416,40,108276,1,10,0:0:0:0:
428,53,108353,1,8,0:0:0:0:
429,71,108431,1,10,0:0:0:0:
376,296,108587,5,10,0:0:0:0:
376,296,108664,1,8,0:0:0:0:
376,296,108742,1,8,0:0:0:0:
195,371,108897,5,8,0:0:0:0:
227,288,109053,1,8,0:0:0:0:
258,205,109208,1,8,0:0:0:0:
302,332,109364,5,8,0:0:0:0:
139,218,109519,1,8,1:3:0:0:
146,234,109597,1,8,1:3:0:0:
154,250,109675,1,4,1:3:0:0:
289,117,109830,1,8,0:0:0:0:
36,4,109986,6,0,B|56:28|85:35|85:35|62:78|53:136,1,165.599994946289,6|0,1:2|0:0,0:0:0:0:
1,209,110296,2,0,P|-16:260|24:292,1,110.399996630859,10|0,0:0|0:0,0:0:0:0:
143,146,110607,6,0,B|190:137|208:91|208:91|264:76|306:113,1,193.199994104004,2|0,1:2|0:0,0:0:0:0:
388,156,110918,2,0,P|404:84|416:48,1,110.399996630859,10|0,0:0|0:0,0:0:0:0:
308,205,111229,5,2,1:2:0:0:
264,16,111385,1,2,0:0:0:0:
391,249,111540,1,8,0:0:0:0:
143,146,111695,1,2,1:2:0:0:
143,146,111773,1,8,0:0:0:0:
143,146,111851,2,0,P|159:198|171:253,1,110.399996630859,0|2,1:0|0:0,0:0:0:0:
305,112,112162,1,10,0:0:0:0:
104,36,112317,1,2,0:0:0:0:
308,205,112473,6,0,B|392:225|368:145|460:169,1,165.599994946289,2|0,1:2|0:0,0:0:0:0:
496,252,112783,2,0,P|476:300|460:360,1,110.399996630859,10|0,0:0|0:0,0:0:0:0:
275,290,113094,6,0,P|211:242|221:165,1,165.599994946289,2|0,1:2|0:0,0:0:0:0:
305,112,113405,2,0,P|284:61|270:8,1,110.399996630859,10|0,0:0|0:0,0:0:0:0:
388,156,113716,5,2,1:2:0:0:
161,63,113872,1,10,0:0:0:0:
161,63,113949,1,8,0:0:0:0:
161,63,114027,1,0,1:0:0:0:
308,205,114182,1,2,0:0:0:0:
58,242,114338,1,8,0:0:0:0:
305,112,114493,5,10,0:0:0:0:
305,112,114571,1,8,0:0:0:0:
305,112,114649,1,2,1:2:0:0:
200,350,114804,5,10,0:0:0:0:
200,350,114882,1,8,0:0:0:0:
200,350,114960,2,0,P|188:288|172:244,1,110.399996630859,4|2,1:2|0:0,0:0:0:0:
56,132,115271,2,0,P|37:184|27:238,1,110.399996630859,10|8,0:0|0:0,0:0:0:0:
218,166,115581,1,2,1:2:0:0:
100,304,115737,1,0,0:0:0:0:
284,228,115892,2,0,P|340:220|376:256,1,110.399996630859,10|0,0:0|0:0,0:0:0:0:
204,148,116203,5,4,1:2:0:0:
260,320,116359,2,0,P|299:356|351:347,1,110.399996630859,2|8,0:0|0:0,0:0:0:0:
160,240,116669,1,10,0:0:0:0:
160,240,116747,1,8,0:0:0:0:
160,240,116825,2,0,P|100:252|52:264,1,110.399996630859,2|0,1:2|0:0,0:0:0:0:
132,76,117136,2,0,P|192:88|240:100,1,110.399996630859,10|0,0:0|0:0,0:0:0:0:
392,180,117447,5,4,1:2:0:0:
292,0,117602,1,2,0:0:0:0:
405,200,117758,1,10,0:0:0:0:
440,48,117913,1,10,0:0:0:0:
324,244,118068,5,2,1:2:0:0:
488,308,118224,1,2,0:0:0:0:
303,154,118379,1,10,0:0:0:0:
201,371,118535,1,2,0:0:0:0:
392,180,118690,2,0,P|412:116|428:76,1,110.399996630859,2|8,1:2|0:0,0:0:0:0:
434,62,118923,1,8,0:0:0:0:
440,48,119001,1,0,1:0:0:0:
235,218,119157,6,0,P|200:188|208:128,1,110.399996630859,10|0,0:0|1:0,0:0:0:0:
351,22,119467,1,10,0:0:0:0:
345,36,119545,1,8,0:0:0:0:
339,49,119622,1,10,0:0:0:0:
100,70,119778,2,0,P|107:96|113:123,1,55.1999983154297,10|8,0:0|0:0,0:0:0:0:
303,154,119934,6,0,B|256:133|221:175|239:179|209:220|158:201,1,165.599994946289,6|0,1:2|0:0,0:0:0:0:
68,199,120245,2,0,B|24:236|24:236|44:285,1,110.399996630859,10|0,0:0|0:0,0:0:0:0:
184,348,120555,6,0,P|273:324|353:312,1,165.599994946289,2|0,1:2|0:0,0:0:0:0:
416,372,120866,2,0,B|459:334|459:334|439:285,1,110.399996630859,10|0,0:0|0:0,0:0:0:0:
303,154,121177,5,2,1:2:0:0:
345,311,121333,1,2,0:0:0:0:
459,139,121488,1,8,0:0:0:0:
278,245,121644,1,2,1:2:0:0:
278,245,121721,1,8,0:0:0:0:
278,245,121799,1,0,1:0:0:0:
213,27,121954,1,2,0:0:0:0:
303,154,122110,1,10,0:0:0:0:
343,4,122265,1,2,0:0:0:0:
212,178,122421,6,0,P|232:256|248:346,1,165.599994946289,2|0,1:2|0:0,0:0:0:0:
332,376,122732,2,0,P|346:322|367:271,1,110.399996630859,10|0,0:0|0:0,0:0:0:0:
484,104,123043,6,0,B|439:78|400:117|418:123|384:161|335:138,1,165.599994946289,2|0,1:2|0:0,0:0:0:0:
272,72,123353,2,0,P|218:86|164:93,1,110.399996630859,10|0,0:0|0:0,0:0:0:0:
336,138,123664,5,2,1:2:0:0:
101,27,123820,1,10,0:0:0:0:
268,200,123975,1,8,0:0:0:0:
13,250,124131,1,2,1:2:0:0:
247,110,124286,1,8,0:0:0:0:
159,333,124442,5,10,0:0:0:0:
149,336,124519,1,8,0:0:0:0:
139,339,124597,1,2,1:2:0:0:
356,228,124752,5,10,0:0:0:0:
366,231,124829,1,8,0:0:0:0:
376,234,124908,2,0,P|411:204|403:144,1,110.399996630859,4|2,1:2|0:0,0:0:0:0:
240,20,125219,2,0,P|256:76|264:128,1,110.399996630859,10|8,0:0|0:0,0:0:0:0:
364,40,125530,1,2,1:2:0:0:
236,216,125685,1,0,0:0:0:0:
376,28,125840,2,0,P|428:17|465:55,1,110.399996630859,10|0,0:0|0:0,0:0:0:0:
263,127,126151,6,0,P|211:107|157:94,1,110.399996630859,4|2,1:2|0:0,0:0:0:0:
376,234,126462,2,0,P|427:214|481:201,1,110.399996630859,10|10,0:0|0:0,0:0:0:0:
496,200,126695,1,8,0:0:0:0:
508,200,126773,1,2,1:2:0:0:
349,323,126929,1,0,0:0:0:0:
263,127,127084,2,0,P|225:164|235:216,1,110.399996630859,10|0,0:0|0:0,0:0:0:0:
483,121,127395,5,4,1:2:0:0:
376,234,127550,1,2,0:0:0:0:
289,43,127706,1,10,0:0:0:0:
461,208,127861,1,10,0:0:0:0:
208,305,128017,5,2,1:2:0:0:
398,147,128172,1,2,0:0:0:0:
402,383,128328,1,10,0:0:0:0:
263,127,128483,1,2,0:0:0:0:
123,331,128638,5,10,1:2:0:0:
86,332,128715,1,8,0:0:0:0:
57,311,128793,1,8,0:0:0:0:
49,276,128871,1,8,0:0:0:0:
64,243,128949,6,0,P|96:236|116:228,1,55.1999983154297,8|0,0:0|0:0,0:0:0:0:
260,320,129105,2,0,P|234:310|207:304,1,55.1999983154297,10|0,0:0|0:0,0:0:0:0:
5,155,129260,6,0,P|15:103|66:93,1,110.399996630859,0|10,1:0|0:0,0:0:0:0:
156,136,129493,1,8,0:0:0:0:
172,124,129571,2,0,P|177:96|187:71,1,55.1999983154297,10|8,0:0|0:0,0:0:0:0:
50,39,129726,2,0,P|59:64|65:91,1,55.1999983154297,10|8,0:0|0:0,0:0:0:0:
190,273,129882,6,0,P|246:253|370:239,2,184,6|10|0,1:2|0:0|1:2,0:0:0:0:
37,219,130659,1,0,0:0:0:0:
176,80,130815,2,0,P|222:116|213:161,1,92,8|0,0:0|0:0,0:0:0:0:
91,345,131125,2,0,P|108:280|109:234,1,92,2|0,1:2|0:0,0:0:0:0:
3,44,131436,2,0,P|8:89|21:133,1,92,8|2,0:0|1:2,0:0:0:0:
21,133,131669,1,8,0:0:0:0:
21,133,131747,1,2,1:2:0:0:
108,70,131903,1,0,0:0:0:0:
280,247,132058,2,0,P|231:228|179:226,1,92,10|0,0:0|0:0,0:0:0:0:
363,348,132369,6,0,P|426:354|449:262,1,138,2|0,1:2|0:0,0:0:0:0:
426,226,132680,2,0,P|436:163|433:124,1,92,8|0,0:0|0:0,0:0:0:0:
274,354,132991,1,2,1:2:0:0:
426,226,133146,1,0,0:0:0:0:
285,95,133302,2,0,P|305:148|316:197,1,92,10|0,0:0|0:0,0:0:0:0:
110,328,133612,6,0,P|108:258|190:225,1,138,2|0,1:2|0:0,0:0:0:0:
227,263,133923,2,0,P|275:270|321:288,1,92,10|0,0:0|1:0,0:0:0:0:
329,301,134157,1,8,0:0:0:0:
329,301,134234,1,2,1:2:0:0:
443,224,134390,1,0,0:0:0:0:
303,77,134545,1,10,0:0:0:0:
407,337,134701,5,8,0:0:0:0:
407,337,134778,1,8,0:0:0:0:
407,337,134856,2,0,P|389:194|374:132,1,184,6|10,1:2|0:0,0:0:0:0:
471,36,135322,1,0,0:0:0:0:
471,36,135478,2,0,P|507:79|478:136,1,92,2|0,1:2|0:0,0:0:0:0:
311,223,135789,2,0,P|255:206|207:206,1,92,10|0,0:0|0:0,0:0:0:0:
87,49,136100,6,0,P|153:61|184:63,1,92,2|0,1:2|0:0,0:0:0:0:
74,270,136410,2,0,P|36:239|56:170,1,92,10|0,0:0|1:0,0:0:0:0:
46,185,136644,1,8,0:0:0:0:
46,185,136721,1,2,1:2:0:0:
232,293,136877,1,0,0:0:0:0:
88,366,137032,2,0,P|40:354|-15:346,1,92,10|0,0:0|0:0,0:0:0:0:
221,206,137343,6,0,B|324:190|288:283|381:289,1,184,2|10,1:2|0:0,0:0:0:0:
510,172,137809,1,0,0:0:0:0:
374,70,137965,2,0,P|338:108|362:160,1,92,2|0,1:2|0:0,0:0:0:0:
468,318,138276,2,0,P|456:255|435:213,1,92,10|0,0:0|0:0,0:0:0:0:
226,44,138587,6,0,P|160:61|164:151,1,138,2|0,1:2|0:0,0:0:0:0:
195,180,138897,2,0,P|180:245|178:279,1,92,10|8,0:0|0:0,0:0:0:0:
184,287,139131,1,8,0:0:0:0:
184,287,139208,1,10,0:0:0:0:
344,143,139364,1,8,0:0:0:0:
357,138,139442,1,8,0:0:0:0:
370,134,139519,1,10,0:0:0:0:
116,226,139675,5,8,0:0:0:0:
116,226,139752,1,8,0:0:0:0:
116,226,139830,2,0,P|180:199|262:292,1,184,6|8,1:2|0:0,0:0:0:0:
393,148,140296,1,0,0:0:0:0:
469,351,140452,2,0,P|398:325|350:331,1,92,2|0,1:2|0:0,0:0:0:0:
199,182,140763,2,0,P|244:176|285:155,1,92,8|0,0:0|0:0,0:0:0:0:
461,53,141074,6,0,B|485:85|518:107|518:107|476:144|468:206,1,184,2|8,1:2|0:0,0:0:0:0:
290,356,141540,1,0,1:0:0:0:
290,356,141618,1,8,0:0:0:0:
290,356,141695,2,0,P|295:301|303:259,1,92,2|0,1:2|0:0,0:0:0:0:
117,49,142006,2,0,P|124:94|128:140,1,92,10|0,0:0|0:0,0:0:0:0:
0,320,142317,6,0,P|-18:260|54:223,1,138,2|0,1:2|0:0,0:0:0:0:
105,258,142628,2,0,P|161:235|207:231,1,92,10|0,0:0|0:0,0:0:0:0:
333,136,142939,1,2,1:2:0:0:
333,136,143094,1,0,0:0:0:0:
153,63,143250,2,0,P|120:113|141:154,1,92,10|0,0:0|0:0,0:0:0:0:
230,368,143561,6,0,B|215:312|250:278|265:299|312:253|275:179,1,184,2|8,1:2|0:0,0:0:0:0:
372,67,144027,1,0,1:0:0:0:
372,67,144105,1,8,0:0:0:0:
372,67,144182,1,2,1:2:0:0:
201,224,144338,1,0,0:0:0:0:
410,313,144493,1,10,0:0:0:0:
293,136,144649,5,8,0:0:0:0:
293,136,144726,1,8,0:0:0:0:
293,136,144804,2,0,P|314:249|316:329,1,184,6|8,1:2|0:0,0:0:0:0:
456,117,145271,1,0,0:0:0:0:
456,117,145426,2,0,P|440:185|436:219,1,92,2|0,1:2|0:0,0:0:0:0:
249,368,145737,2,0,P|211:338|211:285,1,92,8|0,0:0|0:0,0:0:0:0:
359,86,146048,6,0,B|302:74|263:115|287:116|259:165|173:141,1,184,2|8,1:2|0:0,0:0:0:0:
7,179,146514,1,0,0:0:0:0:
118,44,146669,2,0,P|101:125|101:169,1,92,2|0,1:2|0:0,0:0:0:0:
251,312,146980,2,0,P|227:252|195:252,1,92,10|0,0:0|0:0,0:0:0:0:
58,354,147291,6,0,P|114:329|161:329,1,92,6|0,1:2|0:0,0:0:0:0:
263,161,147602,2,0,P|319:186|366:186,1,92,10|0,0:0|0:0,0:0:0:0:
207,249,147913,1,2,1:2:0:0:
207,249,148068,1,0,0:0:0:0:
391,355,148224,2,0,P|413:300|381:264,1,92,10|0,0:0|0:0,0:0:0:0:
241,73,148535,5,2,1:2:0:0:
463,207,148690,1,2,0:0:0:0:
191,262,148846,5,2,1:2:0:0:
389,142,149001,1,2,0:0:0:0:
154,19,149157,1,10,0:0:0:0:
295,264,149312,1,10,0:0:0:0:
295,264,149390,1,8,0:0:0:0:
295,264,149467,1,10,0:0:0:0:
456,53,149623,5,10,0:0:0:0:
456,53,149701,1,8,0:0:0:0:
456,53,149778,2,0,P|484:66|508:74,3,55.1999983154297,6|2|2|2,1:2|1:2|1:2|1:2,0:0:0:0:
404,148,151022,2,0,P|377:156|352:168,3,55.1999983154297,2|2|2|2,1:2|1:2|1:2|1:2,0:0:0:0:
304,88,152265,5,10,0:0:0:0:
272,201,152421,1,8,0:0:0:0:
272,201,152499,1,8,0:0:0:0:
272,201,152576,1,10,0:0:0:0:
404,148,152732,1,8,0:0:0:0:
404,148,152810,1,8,0:0:0:0:
404,148,152887,1,10,0:0:0:0:
492,252,153043,2,0,P|496:231|500:219,1,27.5999991577149,8|8,0:0|0:0,0:0:0:0:
484,112,153198,1,10,0:0:0:0:
376,276,153353,5,8,0:0:0:0:
376,276,153431,1,8,0:0:0:0:
376,276,153509,1,10,0:0:0:0:
346,265,153586,1,8,0:0:0:0:
315,266,153664,1,8,0:0:0:0:
287,279,153742,1,8,0:0:0:0:
264,300,153819,1,10,0:0:0:0:
242,321,153897,1,8,0:0:0:0:
214,334,153975,1,8,0:0:0:0:
183,335,154053,1,8,0:0:0:0:
153,325,154131,6,0,P|146:300|142:288,1,36.8,10|8,0:0|0:0,0:0:0:0:
271,200,154286,2,0,P|275:182|281:165,1,36.8,8|8,0:0|0:0,0:0:0:0:
189,100,154442,6,0,P|195:118|200:136,1,36.8,10|8,0:0|0:0,0:0:0:0:
325,383,154597,2,0,P|329:365|336:348,1,36.8,8|8,0:0|0:0,0:0:0:0:
440,68,154752,6,0,B|456:92|484:104|484:104|452:148|448:204,1,165.599994946289,6|0,1:2|0:0,0:0:0:0:
366,229,155063,2,0,B|312:212|336:180|280:164,1,110.399996630859,10|0,0:0|0:0,0:0:0:0:
56,108,155374,2,0,P|84:204|96:268,1,165.599994946289,2|0,1:2|0:0,0:0:0:0:
173,317,155685,2,0,P|227:302|241:254,1,110.399996630859,10|0,0:0|0:0,0:0:0:0:
67,356,155996,5,2,1:2:0:0:
181,175,156151,1,2,0:0:0:0:
340,318,156307,1,8,0:0:0:0:
121,95,156462,5,2,1:2:0:0:
121,95,156540,1,8,0:0:0:0:
121,95,156618,1,0,1:0:0:0:
173,317,156773,1,2,0:0:0:0:
286,57,156929,1,10,0:0:0:0:
241,255,157084,1,2,0:0:0:0:
84,0,157239,6,0,P|0:20|4:84,1,165.599994946289,2|0,1:2|0:0,0:0:0:0:
60,152,157550,2,0,P|108:136|168:124,1,110.399996630859,10|0,0:0|0:0,0:0:0:0:
396,223,157861,2,0,P|312:203|316:139,1,165.599994946289,2|0,1:2|0:0,0:0:0:0:
372,71,158172,2,0,P|420:87|480:99,1,110.399996630859,10|0,0:0|0:0,0:0:0:0:
305,15,158483,5,2,1:2:0:0:
240,276,158638,1,10,0:0:0:0:
240,276,158716,1,8,0:0:0:0:
240,276,158794,1,0,1:0:0:0:
102,47,158949,5,2,0:0:0:0:
184,343,159105,1,8,0:0:0:0:
359,91,159260,5,10,0:0:0:0:
375,84,159338,1,8,0:0:0:0:
395,80,159416,1,2,1:2:0:0:
173,220,159571,5,10,0:0:0:0:
157,213,159649,1,8,0:0:0:0:
137,209,159726,2,0,P|88:224|28:236,1,110.399996630859,4|2,1:2|0:0,0:0:0:0:
271,358,160037,2,0,P|325:368|377:384,1,110.399996630859,10|8,0:0|0:0,0:0:0:0:
254,189,160348,1,2,1:2:0:0:
97,358,160504,1,0,0:0:0:0:
268,172,160659,2,0,B|304:132|304:132|284:80,1,110.399996630859,10|0,0:0|0:0,0:0:0:0:
172,220,160970,5,4,1:2:0:0:
73,32,161125,2,0,P|88:81|100:141,1,110.399996630859,2|8,0:0|0:0,0:0:0:0:
372,106,161436,1,10,0:0:0:0:
372,106,161514,1,8,0:0:0:0:
372,106,161592,2,0,P|335:69|283:79,1,110.399996630859,2|0,1:2|0:0,0:0:0:0:
172,220,161903,2,0,P|134:257|82:247,1,110.399996630859,10|0,0:0|0:0,0:0:0:0:
216,1,162214,5,4,1:2:0:0:
300,188,162369,1,2,0:0:0:0:
125,47,162524,1,10,0:0:0:0:
82,247,162680,1,10,0:0:0:0:
283,79,162835,5,2,1:2:0:0:
317,297,162991,1,2,0:0:0:0:
103,146,163146,1,10,0:0:0:0:
60,346,163302,1,2,0:0:0:0:
300,188,163457,6,0,P|336:176|408:160,1,110.399996630859,2|8,1:2|0:0,0:0:0:0:
420,160,163690,1,8,0:0:0:0:
432,160,163768,1,0,1:0:0:0:
254,24,163923,2,0,P|214:58|228:109,1,110.399996630859,10|0,0:0|1:0,0:0:0:0:
377,266,164234,1,10,0:0:0:0:
377,282,164312,1,8,0:0:0:0:
369,294,164389,1,10,0:0:0:0:
320,152,164545,2,0,P|347:146|373:138,1,55.1999983154297,10|8,0:0|0:0,0:0:0:0:
407,24,164701,6,0,P|473:51|478:154,1,165.599994946289,6|0,1:2|0:0,0:0:0:0:
410,173,165011,2,0,B|362:158|362:158|367:167|367:167|301:146,1,110.399996630859,10|0,0:0|0:0,0:0:0:0:
168,357,165322,2,0,B|183:337|223:324|223:324|255:257|190:222,1,165.599994946289,2|0,1:2|0:0,0:0:0:0:
117,254,165633,2,0,P|132:187|138:141,1,110.399996630859,10|0,0:0|0:0,0:0:0:0:
36,307,165944,1,2,1:2:0:0:
236,143,166100,1,2,0:0:0:0:
0,71,166255,1,8,0:0:0:0:
301,243,166410,5,2,1:2:0:0:
301,243,166488,1,8,0:0:0:0:
301,243,166566,2,0,P|357:226|419:219,1,110.399996630859,0|2,1:0|0:0,0:0:0:0:
369,121,166877,1,10,0:0:0:0:
234,303,167032,1,2,0:0:0:0:
427,356,167188,6,0,P|502:313|498:243,1,165.599994946289,2|0,1:2|0:0,0:0:0:0:
468,164,167499,2,0,P|449:100|448:44,1,110.399996630859,10|0,0:0|0:0,0:0:0:0:
282,45,167809,2,0,P|224:56|231:169,1,165.599994946289,2|0,1:2|0:0,0:0:0:0:
198,230,168120,2,0,P|149:214|86:208,1,110.399996630859,10|0,0:0|0:0,0:0:0:0:
11,115,168431,5,2,1:2:0:0:
262,311,168587,1,10,0:0:0:0:
0,243,168742,1,8,0:0:0:0:
260,166,168897,2,0,P|221:156|190:130,1,55.1999983154297,2|0,1:2|0:0,0:0:0:0:
76,33,169053,1,8,0:0:0:0:
328,252,169208,5,10,0:0:0:0:
342,247,169286,1,8,0:0:0:0:
359,242,169364,1,2,1:2:0:0:
148,350,169519,1,10,0:0:0:0:
131,346,169597,1,8,0:0:0:0:
115,342,169675,6,0,P|71:326|0:317,1,110.399996630859,4|2,1:2|0:0,0:0:0:0:
220,215,169986,1,10,0:0:0:0:
12,154,170141,1,8,0:0:0:0:
258,363,170296,2,0,P|292:307|278:260,1,110.399996630859,2|0,1:2|0:0,0:0:0:0:
127,107,170607,2,0,P|93:163|107:210,1,110.399996630859,10|0,0:0|0:0,0:0:0:0:
285,74,170918,5,4,1:2:0:0:
387,309,171074,1,2,0:0:0:0:
276,56,171229,1,10,0:0:0:0:
474,210,171385,1,10,0:0:0:0:
474,210,171462,1,8,0:0:0:0:
474,210,171540,2,0,P|504:144|467:112,1,110.399996630859,2|0,1:2|0:0,0:0:0:0:
282,266,171851,2,0,P|223:246|167:242,1,110.399996630859,10|0,0:0|0:0,0:0:0:0:
371,166,172162,5,4,1:2:0:0:
146,72,172317,1,2,0:0:0:0:
285,190,172473,1,10,0:0:0:0:
419,37,172628,1,10,0:0:0:0:
148,154,172783,1,2,1:2:0:0:
454,278,172939,1,2,0:0:0:0:
296,97,173094,1,10,0:0:0:0:
147,335,173250,1,2,0:0:0:0:
76,53,173405,5,10,1:2:0:0:
41,93,173482,1,8,0:0:0:0:
51,146,173560,1,8,0:0:0:0:
97,172,173638,1,8,0:0:0:0:
148,154,173716,2,0,L|213:121,1,55.1999983154297,8|0,0:0|0:0,0:0:0:0:
313,220,173872,1,10,0:0:0:0:
416,40,174027,1,0,1:0:0:0:
221,238,174182,5,10,0:0:0:0:
221,238,174260,1,8,0:0:0:0:
221,238,174338,2,0,L|236:309,1,55.1999983154297,10|8,0:0|0:0,0:0:0:0:
433,188,174493,2,0,L|418:117,1,55.1999983154297,10|8,0:0|0:0,0:0:0:0:
260,35,174649,6,0,P|205:48|205:137,1,147.2,6|2,1:2|0:0,0:0:0:0:
113,186,175115,1,0,1:2:0:0:
113,186,175271,2,0,L|37:171,1,73.6,2|0,1:2|0:0,0:0:0:0:
0,255,175581,2,0,L|76:270,1,73.6,10|2,0:0|0:0,0:0:0:0:
217,342,175892,6,0,B|264:348|289:325|282:314|300:289|358:294,1,147.2,2|2,1:2|0:0,0:0:0:0:
425,323,176359,1,0,1:0:0:0:
425,323,176514,2,0,B|448:297|448:297|427:234,1,73.6,2|8,1:2|0:0,0:0:0:0:
375,201,176825,2,0,L|383:120,1,73.6,10|2,0:0|0:0,0:0:0:0:
440,23,177136,6,0,P|496:35|488:119,1,147.2,2|2,1:2|0:0,0:0:0:0:
384,128,177602,1,0,1:0:0:0:
384,128,177758,2,0,P|325:117|294:113,1,73.6,2|0,1:2|0:0,0:0:0:0:
284,207,178068,2,0,P|225:218|194:222,1,73.6,10|2,0:0|0:0,0:0:0:0:
119,55,178379,5,0,1:0:0:0:
94,151,178535,1,0,1:0:0:0:
69,247,178690,1,0,1:0:0:0:
227,355,179001,6,0,L|272:345,1,46,2|0,0:0|0:0,0:0:0:0:
353,288,179312,1,2,0:0:0:0:
353,288,179467,1,2,0:0:0:0:
160,229,179623,6,0,P|120:220|60:204,1,101.200003088379,6|0,1:2|0:0,0:0:0:0:
236,108,179934,2,0,P|276:99|336:83,1,101.200003088379,10|0,0:0|0:0,0:0:0:0:
152,36,180245,2,0,P|115:68|123:116,1,101.200003088379,2|0,1:2|0:0,0:0:0:0:
273,221,180555,2,0,P|309:253|301:301,1,101.200003088379,10|0,0:0|0:0,0:0:0:0:
88,342,180866,6,0,B|85:300|123:279|123:279|161:257|159:218,1,151.800004632569,2|0,1:2|0:0,0:0:0:0:
218,155,181177,1,10,0:0:0:0:
261,379,181333,1,10,0:0:0:0:
261,379,181411,1,8,0:0:0:0:
261,379,181489,1,0,1:2:0:0:
76,204,181644,1,0,0:0:0:0:
324,69,181799,2,0,P|311:118|300:168,1,101.200003088379,8|0,0:0|0:0,0:0:0:0:
463,307,182110,6,0,P|465:253|434:222,1,101.200003088379,2|0,1:2|0:0,0:0:0:0:
232,236,182421,2,0,P|268:276|312:276,1,101.200003088379,10|0,0:0|0:0,0:0:0:0:
446,114,182732,2,0,P|434:64|421:15,1,101.200003088379,2|0,1:2|0:0,0:0:0:0:
271,155,183043,2,0,P|282:105|295:56,1,101.200003088379,10|0,0:0|0:0,0:0:0:0:
104,184,183353,2,0,P|36:172|24:100,1,151.800004632569,2|0,1:2|0:0,0:0:0:0:
80,32,183664,5,10,0:0:0:0:
196,229,183820,1,10,0:0:0:0:
196,229,183897,1,8,0:0:0:0:
196,229,183975,1,0,1:2:0:0:
295,56,184131,1,2,1:2:0:0:
112,280,184286,1,10,0:0:0:0:
389,378,184442,1,8,0:0:0:0:
389,378,184519,1,8,0:0:0:0:
389,378,184597,6,0,P|435:324|418:281,1,101.200003088379,6|0,1:2|0:0,0:0:0:0:
265,150,184908,2,0,P|282:212|288:261,1,101.200003088379,10|0,0:0|0:0,0:0:0:0:
435,80,185219,2,0,P|418:142|412:191,1,101.200003088379,2|0,1:2|0:0,0:0:0:0:
242,334,185530,2,0,P|196:280|213:237,1,101.200003088379,10|0,0:0|0:0,0:0:0:0:
306,97,185840,6,0,L|283:274,1,151.800004632569,2|0,1:2|0:0,0:0:0:0:
345,309,186151,1,10,0:0:0:0:
192,170,186307,1,10,0:0:0:0:
192,170,186385,1,8,0:0:0:0:
192,170,186462,1,0,1:2:0:0:
435,80,186618,1,0,0:0:0:0:
200,255,186773,2,0,P|146:237|96:227,1,101.200003088379,8|0,0:0|0:0,0:0:0:0:
212,11,187084,6,0,P|247:70|231:114,1,101.200003088379,2|0,1:2|0:0,0:0:0:0:
57,151,187395,2,0,P|22:92|38:48,1,101.200003088379,10|0,0:0|0:0,0:0:0:0:
200,255,187706,2,0,P|249:256|308:273,1,101.200003088379,2|0,1:2|0:0,0:0:0:0:
444,154,188017,2,0,P|395:153|336:136,1,101.200003088379,10|0,0:0|0:0,0:0:0:0:
118,347,188328,6,0,P|71:279|130:217,1,151.800004632569,6|0,1:2|0:0,0:0:0:0:
163,170,188638,1,10,0:0:0:0:
365,338,188794,1,10,0:0:0:0:
365,338,188872,1,8,0:0:0:0:
365,338,188949,1,0,1:0:0:0:
428,104,189105,1,2,1:2:0:0:
149,244,189260,2,0,L|94:224,1,50.6000015441895,10|8,0:0|0:0,0:0:0:0:
306,65,189416,2,0,L|361:45,1,50.6000015441895,8|8,0:0|0:0,0:0:0:0:
266,347,189571,5,14,0:0:0:0:
256,192,189649,12,0,191281,0:0:0:0:
380,324,191436,5,8,0:0:0:0:
288,72,191747,1,8,0:0:0:0:
37,362,192058,1,6,1:2:0:0:
256,192,192136,12,0,197343,0:0:0:0:
