osu file format v14

[General]
AudioFilename: audio.mp3
AudioLeadIn: 0
PreviewTime: 51496
Countdown: 0
SampleSet: Soft
StackLeniency: 0.6
Mode: 0
LetterboxInBreaks: 0
WidescreenStoryboard: 1

[Editor]
Bookmarks: 15478,17965,28224,35374,37861,42835,51540,76410,96307,96929,109986,129882,149778,164701,179623,184597,192058
DistanceSpacing: 1
BeatDivisor: 4
GridSize: 32
TimelineZoom: 2.899999

[Metadata]
Title:Ashioto Tarte Tatin
TitleUnicode:足音タルトタタン♪
Artist:Megu (CV: Murakawa Rie), Syaro (CV: Uchida Maaya)
ArtistUnicode:メグ (CV: 村川梨衣), シャロ (CV: 内田真礼)
Creator:Kyuuchie
Version:KoldNoodl's Extra
Source:ご注文はうさぎですか??
Tags:gochuumon wa usagi desu ka?? is the order a rabbit season 2 second gochiusa ごちうさ anime japanese pop jpop j-pop duet song album kirima sharo natsu megumi 桐間 紗路 奈津 恵 Tsukinyuni Mujina Airiesu AyameMyMommy Pile Koldnoodl Shiwakaze MiyohashiKoori lolis loli vocals
BeatmapID:3435265
BeatmapSetID:1459441

[Difficulty]
HPDrainRate:4.6
CircleSize:4
OverallDifficulty:8.5
ApproachRate:9
SliderMultiplier:1.8
SliderTickRate:1

[Events]
//Background and Video events
0,0,"syaromegu.jpg",0,0
//Break Periods
//Storyboard Layer 0 (Background)
//Storyboard Layer 1 (Fail)
//Storyboard Layer 2 (Pass)
//Storyboard Layer 3 (Foreground)
//Storyboard Layer 4 (Overlay)
//Storyboard Sound Samples

[TimingPoints]
556,310.880829015544,4,2,2,40,1,0
556,-142.857142857143,4,2,2,40,0,0
4908,-142.857142857143,4,2,2,85,0,0
5063,-100,4,2,2,85,0,0
5530,-100,4,2,2,80,0,0
15478,-100,4,2,2,50,0,0
17343,-100,4,2,2,85,0,0
17965,-125,4,2,2,65,0,0
27602,-125,4,2,2,55,0,0
27913,-125,4,2,2,70,0,0
35374,-125,4,2,2,65,0,0
35530,-125,4,2,2,60,0,0
35996,-125,4,2,2,65,0,0
36151,-125,4,2,2,60,0,0
36618,-125,4,2,2,85,0,0
37317,-125,4,2,2,60,0,0
37861,-125,4,2,2,65,0,0
42835,-125,4,2,2,70,0,0
50296,-100,4,2,2,65,0,0
51540,-100,4,2,2,80,0,1
71436,-125,4,2,2,65,0,0
75167,-125,4,2,2,85,0,0
75789,-125,4,2,2,60,0,0
76410,-100,4,2,2,80,0,0
86359,-125,4,2,2,60,0,0
93820,-125,4,2,2,65,0,0
93975,-125,4,2,2,60,0,0
94442,-125,4,2,2,65,0,0
94597,-125,4,2,2,60,0,0
95063,-125,4,2,2,85,0,0
95996,-125,4,2,2,60,0,0
96307,-125,4,2,2,65,0,0
101281,-125,4,2,2,70,0,0
107499,-125,4,2,2,80,0,0
108742,-125,4,2,2,60,0,0
109986,-100,4,2,2,80,0,1
129882,-100,4,2,2,70,0,0
148535,-100,4,2,2,80,0,0
149778,-166.666666666667,4,2,2,50,0,0
152265,-100,4,2,2,85,0,0
152421,-100,4,2,2,70,0,0
152732,-100,4,2,2,75,0,0
153043,-100,4,2,2,80,0,0
153353,-100,4,2,2,85,0,0
153509,-100,4,2,2,70,0,0
154752,-100,4,2,2,80,0,1
174649,-125,4,2,2,60,0,0
178379,-125,4,2,2,85,0,0
179001,-125,4,2,2,60,0,0
179623,-100,4,2,2,80,0,0
190037,-100,4,2,2,60,0,0
191436,-100,4,2,2,75,0,0
192058,-100,4,2,2,70,0,0
197343,-100,4,2,2,5,0,0

[Colours]
Combo1 : 255,32,143
Combo2 : 255,193,193
Combo3 : 174,180,238
Combo4 : 255,255,159

[HitObjects]
31,64,556,5,2,0:0:0:0:
88,127,711,1,0,0:0:0:0:
165,89,866,1,2,0:0:0:0:
229,155,1022,2,0,P|246:210|233:293,1,125.999996154785,2|2,0:0|0:0,0:0:0:0:
239,277,1644,6,0,P|273:264|367:253,1,125.999996154785,2|0,0:0|0:0,0:0:0:0:
465,344,2110,2,0,P|439:330|407:322,1,62.9999980773926,2|0,0:0|0:0,0:0:0:0:
467,247,2421,2,0,P|484:192|469:108,1,125.999996154785,2|0,0:0|0:0,0:0:0:0:
476,124,3043,5,2,0:0:0:0:
390,144,3198,1,0,0:0:0:0:
370,58,3353,1,2,0:0:0:0:
301,113,3509,2,0,P|245:94|172:82,1,125.999996154785,2|2,0:0|0:0,0:0:0:0:
179,82,4131,6,0,P|139:138|155:211,1,125.999996154785,2|0,0:0|0:0,0:0:0:0:
239,283,4597,2,0,P|256:243|229:176,1,94.499997116089,2|0,0:0|0:0,0:0:0:0:
245,194,4908,5,10,0:0:0:0:
51,296,5063,1,8,0:0:0:0:
64,290,5141,1,8,0:0:0:0:
79,285,5219,1,8,0:0:0:0:
93,281,5296,1,8,0:0:0:0:
107,277,5374,1,8,0:0:0:0:
122,273,5452,1,8,0:0:0:0:
136,270,5530,6,0,P|180:277|223:295,1,90,6|0,1:2|0:0,0:0:0:0:
367,139,5840,2,0,P|325:156|281:163,1,90,10|0,0:0|0:0,0:0:0:0:
366,280,6151,1,2,1:2:0:0:
464,154,6307,1,0,0:0:0:0:
361,291,6462,2,0,P|376:332|387:383,1,90,10|0,0:0|0:0,0:0:0:0:
195,200,6773,6,0,P|181:141|263:48,1,180,2|10,1:2|0:0,0:0:0:0:
287,156,7239,1,10,0:0:0:0:
287,156,7317,1,8,0:0:0:0:
287,156,7395,1,0,1:2:0:0:
126,60,7550,1,0,0:0:0:0:
318,0,7706,1,8,0:0:0:0:
126,60,7861,1,0,0:0:0:0:
195,200,8017,6,0,P|209:242|217:286,1,90,2|0,1:2|0:0,0:0:0:0:
28,207,8328,2,0,P|35:162|50:120,1,90,10|0,0:0|0:0,0:0:0:0:
95,296,8638,1,2,1:2:0:0:
170,127,8794,1,0,0:0:0:0:
89,307,8949,2,0,P|29:290|-14:285,1,90,10|0,0:0|0:0,0:0:0:0:
213,194,9260,6,0,P|300:186|366:244,1,180,2|10,1:2|0:0,0:0:0:0:
240,371,9726,1,10,0:0:0:0:
240,371,9804,1,8,0:0:0:0:
240,371,9882,2,0,P|251:316|274:267,1,90,0|2,1:2|1:2,0:0:0:0:
379,133,10193,2,0,P|431:150|471:157,1,90,10|8,0:0|0:0,0:0:0:0:
474,152,10426,1,8,0:0:0:0:
480,144,10504,6,0,P|469:89|446:40,1,90,6|0,1:2|0:0,0:0:0:0:
363,215,10815,2,0,P|346:256|339:301,1,90,10|0,0:0|0:0,0:0:0:0:
299,125,11125,1,2,1:2:0:0:
446,231,11281,1,0,0:0:0:0:
285,118,11436,2,0,P|226:101|171:96,1,90,10|0,0:0|0:0,0:0:0:0:
58,245,11747,6,0,P|145:255|225:180,1,180,2|10,1:2|0:0,0:0:0:0:
102,75,12214,1,10,0:0:0:0:
102,75,12291,1,8,0:0:0:0:
102,75,12369,1,0,1:2:0:0:
192,8,12524,1,0,0:0:0:0:
120,175,12680,1,8,0:0:0:0:
0,89,12835,1,0,0:0:0:0:
142,254,12991,6,0,P|160:304|171:353,1,90,2|0,1:2|0:0,0:0:0:0:
329,245,13302,2,0,P|339:201|355:159,1,90,10|0,0:0|0:0,0:0:0:0:
378,340,13612,1,2,1:2:0:0:
235,266,13768,1,0,0:0:0:0:
385,346,13923,2,0,P|432:328|488:318,1,90,10|0,0:0|0:0,0:0:0:0:
449,129,14234,6,0,P|384:69|296:76,1,180,2|10,1:2|0:0,0:0:0:0:
163,167,14701,1,10,0:0:0:0:
163,167,14778,1,8,0:0:0:0:
163,167,14856,1,0,1:2:0:0:
202,14,15011,1,2,1:2:0:0:
353,159,15167,5,8,0:0:0:0:
343,191,15245,1,8,0:0:0:0:
335,224,15322,1,8,0:0:0:0:
329,257,15400,1,8,0:0:0:0:
324,290,15478,1,14,0:0:0:0:
256,192,15555,12,0,17032,0:0:0:0:
256,192,17343,5,8,0:0:0:0:
256,192,17654,5,8,0:0:0:0:
256,192,17965,6,0,P|219:162|121:174,2,144,6|2|2,1:2|1:2|1:2,0:0:0:0:
339,345,18897,1,2,1:2:0:0:
402,296,19053,2,0,P|413:245|422:152,1,144,2|2,0:0|0:0,0:0:0:0:
468,91,19519,1,2,1:2:0:0:
319,9,19830,2,0,P|303:53|301:103,1,72,2|0,1:2|0:0,0:0:0:0:
171,181,20141,2,0,P|124:165|39:150,1,108,0|0,1:0|0:0,0:0:0:0:
56,137,20452,6,0,P|42:63|106:2,2,144,2|2|2,1:2|1:2|1:2,0:0:0:0:
0,283,21385,1,2,1:2:0:0:
62,329,21540,2,0,P|119:307|211:290,1,144,2|2,0:0|0:0,0:0:0:0:
336,240,22006,2,0,P|295:227|245:219,1,72,2|0,1:2|0:0,0:0:0:0:
180,204,22317,5,2,1:2:0:0:
285,314,22473,1,8,0:0:0:0:
405,183,22628,5,0,1:0:0:0:
279,308,22783,1,8,0:0:0:0:
307,207,22939,6,0,P|297:143|270:51,1,144,2|2,1:2|1:2,0:0:0:0:
187,22,23405,1,2,0:0:0:0:
187,22,23561,2,0,P|122:46|113:117,1,144,2|2,1:2|1:2,0:0:0:0:
36,221,24027,6,0,B|112:193|96:256|195:224,1,144,2|2,0:0|0:0,0:0:0:0:
233,172,24493,1,2,1:2:0:0:
233,172,24649,1,2,0:0:0:0:
297,259,24804,2,0,P|285:299|283:338,1,72,2|0,1:2|0:0,0:0:0:0:
411,262,25115,2,0,P|432:220|401:150,1,108,10|0,0:0|0:0,0:0:0:0:
399,142,25426,6,0,P|354:157|313:160,1,72,2|2,1:2|0:0,0:0:0:0:
207,66,25737,2,0,P|252:51|293:48,1,72,2|2,1:2|0:0,0:0:0:0:
245,163,26048,1,2,1:2:0:0:
354,70,26203,1,2,0:0:0:0:
306,234,26359,1,10,0:0:0:0:
135,134,26514,1,14,0:0:0:0:
135,134,26980,6,0,P|127:157|123:178,2,28.8,2|0|0,0:0|0:0|0:0,0:0:0:0:
29,319,27291,6,0,P|83:300|127:295,1,72,2|0,1:2|0:0,0:0:0:0:
202,231,27602,2,0,P|203:240|207:263,7,18,0|0|0|0|0|0|0|0,3:0|3:0|3:0|3:0|3:0|3:0|3:0|3:0,0:0:0:0:
224,277,27913,6,0,P|275:292|355:297,1,108,6|0,1:2|0:0,0:0:0:0:
357,294,28224,2,0,P|344:342|338:388,1,72,10|0,0:0|0:0,0:0:0:0:
465,284,28535,2,0,P|501:233|465:149,1,144,2|10,1:2|0:0,0:0:0:0:
362,71,29001,6,0,P|380:127|396:220,1,144,2|2,1:2|0:0,0:0:0:0:
263,294,29467,2,0,P|272:252|286:219,1,72,10|0,0:0|0:0,0:0:0:0:
216,114,29778,2,0,P|256:134|296:138,1,72,2|0,1:2|0:0,0:0:0:0:
354,280,30089,1,8,0:0:0:0:
282,138,30245,1,2,0:0:0:0:
184,213,30400,6,0,P|150:199|116:188,1,72,2|0,1:2|0:0,0:0:0:0:
2,119,30711,2,0,P|40:104|77:78,1,72,10|0,0:0|0:0,0:0:0:0:
30,215,31022,2,0,P|14:265|-1:360,1,144,2|10,1:2|0:0,0:0:0:0:
106,307,31488,6,0,P|150:302|225:373,1,144,2|2,0:0|0:0,0:0:0:0:
378,262,31954,2,0,P|335:281|271:290,1,108,10|0,0:0|0:0,0:0:0:0:
263,281,32265,2,0,P|269:241|287:210,1,72,2|0,1:2|0:0,0:0:0:0:
161,95,32576,2,0,P|174:137|181:184,1,72,10|0,0:0|0:0,0:0:0:0:
122,225,32887,6,0,P|65:224|31:143,1,144,2|8,1:2|0:0,0:0:0:0:
77,81,33353,1,2,0:0:0:0:
211,153,33509,6,0,P|268:152|302:71,1,144,2|8,1:2|0:0,0:0:0:0:
256,9,33975,1,2,0:0:0:0:
155,93,34131,6,0,P|168:126|176:161,1,72,2|0,1:2|0:0,0:0:0:0:
316,159,34442,2,0,P|302:192|294:227,1,72,10|0,0:0|0:0,0:0:0:0:
258,337,34752,1,2,1:2:0:0:
205,239,34908,1,2,0:0:0:0:
358,304,35063,1,10,0:0:0:0:
406,221,35219,1,2,0:0:0:0:
498,378,35374,5,6,1:3:0:0:
486,368,35996,5,6,1:3:0:0:
470,353,36618,5,10,0:0:0:0:
392,306,36773,1,10,0:0:0:0:
505,250,36929,1,10,0:0:0:0:
345,196,37084,1,10,0:0:0:0:
404,59,37239,2,0,P|423:88|427:107,3,36,10|2|2|2,0:0|0:0|0:0|0:0,0:0:0:0:
500,120,37550,2,0,P|487:152|473:166,3,36,2|2|2|2,1:2|0:0|0:0|0:0,0:0:0:0:
429,208,37861,5,14,0:2:0:0:
281,128,38017,1,8,0:0:0:0:
217,174,38172,2,0,P|201:216|198:256,1,72,2|0,1:2|0:0,0:0:0:0:
273,359,38483,2,0,P|307:345|372:339,1,72,2|2,1:2|0:0,0:0:0:0:
188,326,38794,2,0,P|154:312|89:306,1,72,2|2,1:2|0:0,0:0:0:0:
52,355,39105,5,14,0:2:0:0:
0,198,39260,1,8,0:0:0:0:
54,140,39416,2,0,P|103:160|142:164,1,72,2|0,1:2|0:0,0:0:0:0:
236,89,39726,2,0,P|228:45|213:16,1,72,2|2,1:2|0:0,0:0:0:0:
202,168,40037,1,2,1:2:0:0:
318,103,40193,1,2,0:0:0:0:
403,211,40348,6,0,P|391:244|383:279,1,72,14|8,0:2|0:0,0:0:0:0:
231,170,40659,2,0,P|243:203|251:238,1,72,2|0,1:2|0:0,0:0:0:0:
107,384,40970,2,0,P|64:365|50:265,1,144,2|2,1:2|1:2,0:0:0:0:
115,205,41436,1,2,0:0:0:0:
17,174,41592,5,10,0:2:0:0:
121,304,41747,2,0,P|184:292|222:282,1,72,8|2,0:0|1:2,0:0:0:0:
176,112,42058,2,0,P|119:138|104:230,1,144,2|2,0:2|1:2,0:0:0:0:
288,267,42524,2,0,P|294:220|306:173,1,72,10|8,0:0|0:0,0:0:0:0:
307,190,42758,1,8,0:0:0:0:
313,184,42835,6,0,P|277:177|244:164,1,72,6|0,1:2|0:0,0:0:0:0:
367,71,43146,2,0,P|402:77|435:90,1,72,10|0,0:0|0:0,0:0:0:0:
486,214,43457,1,2,1:2:0:0:
392,159,43612,1,0,0:0:0:0:
497,222,43768,2,0,P|481:273|471:313,1,72,10|0,0:0|0:0,0:0:0:0:
352,377,44079,6,0,B|269:359|315:317|216:307,2,144,2|10|2,1:2|0:0|1:2,0:0:0:0:
242,227,44856,1,0,0:0:0:0:
242,227,45011,2,0,P|186:240|153:259,1,72,10|0,0:0|0:0,0:0:0:0:
69,383,45322,2,0,P|103:328|74:282,1,108,2|0,1:2|0:0,0:0:0:0:
69,281,45633,6,0,P|57:234|37:193,1,72,10|0,0:0|0:0,0:0:0:0:
172,144,45944,2,0,P|158:177|150:212,1,72,2|0,1:2|0:0,0:0:0:0:
3,108,46255,2,0,P|40:122|72:128,1,72,10|0,0:0|0:0,0:0:0:0:
252,64,46566,2,0,P|204:59|140:32,1,108,2|0,1:2|0:0,0:0:0:0:
131,42,46877,5,10,0:0:0:0:
200,144,47032,1,2,0:0:0:0:
331,105,47188,2,0,P|347:63|344:27,1,72,2|0,1:2|0:0,0:0:0:0:
279,195,47499,2,0,P|269:243|298:310,1,108,10|0,0:0|0:0,0:0:0:0:
309,315,47809,6,0,P|361:293|386:291,1,72,2|0,1:2|0:0,0:0:0:0:
476,240,48120,1,10,0:0:0:0:
357,183,48276,1,2,0:0:0:0:
431,68,48431,2,0,P|445:118|439:161,1,72,2|0,1:2|0:0,0:0:0:0:
280,117,48742,2,0,P|227:110|162:96,1,108,10|0,0:0|0:0,0:0:0:0:
153,78,49053,5,10,0:0:0:0:
107,198,49208,1,2,0:0:0:0:
0,112,49364,1,10,0:0:0:0:
50,271,49519,1,2,0:0:0:0:
201,185,49675,1,10,0:0:0:0:
148,375,49830,1,10,0:0:0:0:
145,368,49908,1,8,0:0:0:0:
143,360,49986,2,0,P|169:350|191:343,1,36,10|8,0:0|0:0,0:0:0:0:
248,276,50141,2,0,P|272:296|287:316,1,36,10|8,0:0|0:0,0:0:0:0:
385,374,50296,5,8,0:0:0:0:
388,340,50374,1,8,0:0:0:0:
393,307,50452,1,8,0:0:0:0:
401,274,50530,1,8,0:0:0:0:
411,242,50607,2,0,P|406:220|385:190,3,45,8|8|8|8,0:0|0:0|0:0|0:0,0:0:0:0:
501,125,50918,2,0,P|479:117|442:117,3,45,8|8|8|8,0:0|0:0|0:0|0:0,0:0:0:0:
404,17,51229,2,0,P|385:30|364:60,3,45,8|8|8|8,0:0|0:0|0:0|0:0,0:0:0:0:
354,126,51540,6,0,P|304:106|255:99,1,90,6|0,1:2|0:0,0:0:0:0:
100,222,51851,2,0,P|150:202|199:195,1,90,10|0,0:0|0:0,0:0:0:0:
295,213,52162,1,2,1:2:0:0:
166,88,52317,1,0,0:0:0:0:
304,224,52473,2,0,P|298:284|282:320,1,90,10|0,0:0|0:0,0:0:0:0:
188,183,52783,5,2,1:2:0:0:
76,320,52939,2,0,P|142:299|183:294,1,90,2|8,0:0|0:0,0:0:0:0:
0,134,53250,1,2,1:2:0:0:
0,134,53328,1,8,0:0:0:0:
0,134,53405,1,0,1:0:0:0:
25,244,53561,1,2,0:0:0:0:
195,71,53716,1,10,0:0:0:0:
170,181,53872,1,2,0:0:0:0:
2,41,54027,6,0,P|62:57|106:62,1,90,2|0,1:2|0:0,0:0:0:0:
247,182,54338,2,0,P|202:189|159:201,1,90,10|0,0:0|0:0,0:0:0:0:
364,67,54649,1,2,1:2:0:0:
204,26,54804,1,0,0:0:0:0:
317,224,54960,2,0,P|328:168|300:120,1,90,10|0,0:0|0:0,0:0:0:0:
436,17,55271,5,2,1:2:0:0:
220,185,55426,1,10,0:0:0:0:
213,175,55504,1,8,0:0:0:0:
211,162,55581,1,0,1:0:0:0:
456,218,55737,1,2,0:0:0:0:
289,331,55892,1,8,0:0:0:0:
353,150,56048,2,0,P|347:124|331:89,2,45,10|8|2,0:0|0:0|1:2,0:0:0:0:
419,294,56359,1,10,0:0:0:0:
419,294,56436,1,8,0:0:0:0:
419,294,56514,1,4,1:2:0:0:
333,234,56669,5,2,0:0:0:0:
219,369,56825,2,0,P|168:353|116:346,1,90,10|8,0:0|0:0,0:0:0:0:
232,172,57136,2,0,P|244:233|262:275,1,90,2|0,1:2|0:0,0:0:0:0:
48,384,57447,2,0,P|46:312|102:246,1,135,10|0,0:0|0:0,0:0:0:0:
109,263,57758,5,4,1:2:0:0:
167,80,57913,2,0,P|129:97|74:114,1,90,2|8,0:0|0:0,0:0:0:0:
268,189,58224,1,10,0:0:0:0:
268,189,58302,1,8,0:0:0:0:
268,189,58379,2,0,P|325:204|360:216,1,90,2|0,1:2|0:0,0:0:0:0:
465,48,58690,2,0,P|391:31|341:90,1,135,10|0,0:0|0:0,0:0:0:0:
324,77,59001,5,4,1:2:0:0:
460,166,59157,1,2,0:0:0:0:
326,248,59312,1,10,0:0:0:0:
326,248,59467,1,10,0:0:0:0:
199,103,59623,2,0,P|210:40|236:-7,1,90,2|2,1:2|0:0,0:0:0:0:
238,224,59934,2,0,P|227:287|201:334,1,90,10|2,0:0|0:0,0:0:0:0:
44,111,60245,5,2,1:2:0:0:
168,183,60400,1,8,0:0:0:0:
160,185,60478,1,8,0:0:0:0:
153,190,60555,1,0,1:0:0:0:
0,312,60711,2,0,P|52:319|115:340,1,90,10|0,0:0|1:0,0:0:0:0:
97,327,60944,1,8,0:0:0:0:
106,324,61022,2,0,P|118:357|122:388,1,45,10|8,0:0|0:0,0:0:0:0:
256,213,61177,2,0,P|244:246|240:277,1,45,10|8,0:0|0:0,0:0:0:0:
371,356,61333,5,10,0:0:0:0:
371,356,61410,1,8,0:0:0:0:
371,356,61488,2,0,P|417:333|483:326,1,90,6|0,1:2|0:0,0:0:0:0:
319,165,61799,2,0,P|273:188|207:195,1,90,10|0,0:0|0:0,0:0:0:0:
432,230,62110,1,2,1:2:0:0:
479,86,62265,1,0,0:0:0:0:
426,246,62421,2,0,P|406:189|406:142,1,90,10|0,0:0|0:0,0:0:0:0:
242,15,62732,5,2,1:2:0:0:
401,51,62887,2,0,P|353:74|306:83,1,90,2|8,0:0|0:0,0:0:0:0:
148,43,63198,1,2,1:2:0:0:
148,43,63276,1,8,0:0:0:0:
148,43,63353,1,0,1:0:0:0:
294,165,63509,1,2,0:0:0:0:
141,230,63664,1,10,0:0:0:0:
235,49,63820,1,2,0:0:0:0:
107,135,63975,6,0,P|47:125|-4:110,1,90,2|0,1:2|0:0,0:0:0:0:
191,312,64286,2,0,P|234:301|279:294,1,90,10|0,0:0|0:0,0:0:0:0:
92,250,64597,1,2,1:2:0:0:
259,170,64752,1,0,0:0:0:0:
195,384,64908,2,0,P|173:333|192:283,1,90,10|0,0:0|0:0,0:0:0:0:
275,95,65219,5,2,1:2:0:0:
342,309,65374,1,10,0:0:0:0:
111,232,65530,1,8,0:0:0:0:
359,182,65685,1,2,1:2:0:0:
174,124,65840,1,8,0:0:0:0:
350,63,65996,1,10,0:0:0:0:
350,63,66074,1,8,0:0:0:0:
350,63,66151,1,2,1:2:0:0:
263,176,66307,2,0,P|254:200|247:241,2,45,10|8|4,0:0|0:0|1:2,0:0:0:0:
141,26,66618,5,2,0:0:0:0:
276,86,66773,1,10,0:0:0:0:
141,26,66929,1,8,0:0:0:0:
68,166,67084,2,0,P|120:142|174:127,1,90,2|0,1:2|0:0,0:0:0:0:
305,195,67395,2,0,P|289:247|283:310,1,90,10|0,0:0|0:0,0:0:0:0:
247,107,67706,5,4,1:2:0:0:
201,238,67861,1,2,0:0:0:0:
388,203,68017,1,10,0:0:0:0:
229,355,68172,1,10,0:0:0:0:
229,355,68250,1,8,0:0:0:0:
229,355,68328,2,0,P|167:334|124:327,1,90,2|0,1:2|0:0,0:0:0:0:
368,303,68638,2,0,P|430:282|473:275,1,90,10|0,0:0|0:0,0:0:0:0:
248,146,68949,5,4,1:2:0:0:
342,276,69105,2,0,P|384:221|350:115,1,180,2|10,0:0|0:0,0:0:0:0:
216,14,69571,1,2,1:2:0:0:
134,175,69726,1,2,0:0:0:0:
241,117,69882,1,10,0:0:0:0:
76,52,70037,1,2,0:0:0:0:
253,126,70193,5,10,1:2:0:0:
243,158,70271,1,8,0:0:0:0:
235,191,70348,1,8,0:0:0:0:
229,224,70426,1,8,0:0:0:0:
226,257,70504,1,8,0:0:0:0:
107,370,70659,2,0,P|57:357|4:341,1,90,10|0,0:0|1:0,0:0:0:0:
98,217,70970,5,10,0:0:0:0:
98,217,71048,1,8,0:0:0:0:
98,217,71125,2,0,P|129:241|144:269,1,45,10|8,0:0|0:0,0:0:0:0:
305,250,71281,2,0,P|303:289|288:317,1,45,10|8,0:0|0:0,0:0:0:0:
224,353,71436,6,0,P|292:340|351:379,1,144,6|2,1:2|0:0,0:0:0:0:
489,251,71903,1,0,1:2:0:0:
449,378,72058,6,0,P|421:310|414:253,1,108,2|0,1:2|0:0,0:0:0:0:
396,247,72369,2,0,P|409:197|432:170,1,72,10|2,0:0|0:0,0:0:0:0:
473,58,72680,6,0,B|387:64|431:111|336:117,1,144,2|2,1:2|0:0,0:0:0:0:
239,40,73146,1,0,1:0:0:0:
274,185,73302,5,2,1:2:0:0:
346,116,73457,1,8,0:0:0:0:
269,197,73612,2,0,P|288:248|296:286,1,72,10|2,0:0|0:0,0:0:0:0:
163,193,73923,6,0,P|101:193|26:257,1,144,2|2,1:2|0:0,0:0:0:0:
121,283,74390,1,0,1:0:0:0:
74,172,74545,2,0,P|73:116|90:83,1,72,2|0,1:2|0:0,0:0:0:0:
245,223,74856,2,0,P|246:167|229:134,1,72,10|2,0:0|0:0,0:0:0:0:
169,56,75167,5,8,1:2:0:0:
215,340,75322,1,8,1:2:0:0:
454,165,75478,1,8,1:2:0:0:
454,165,76410,6,0,P|437:207|428:268,1,90,6|0,1:2|0:0,0:0:0:0:
267,105,76721,2,0,P|284:147|293:208,1,90,10|0,0:0|0:0,0:0:0:0:
240,330,77032,1,2,1:2:0:0:
348,251,77188,1,0,0:0:0:0:
231,339,77343,2,0,P|184:338|137:318,1,90,10|0,0:0|0:0,0:0:0:0:
14,198,77654,6,0,P|37:264|59:385,1,180,2|10,1:2|0:0,0:0:0:0:
139,210,78120,1,10,0:0:0:0:
139,210,78198,1,8,0:0:0:0:
139,210,78276,2,0,P|151:159|178:110,1,90,0|0,1:2|0:0,0:0:0:0:
18,29,78587,1,8,0:0:0:0:
72,131,78742,1,0,0:0:0:0:
245,90,78897,6,0,P|295:101|335:141,1,90,2|0,1:2|0:0,0:0:0:0:
233,281,79208,2,0,P|233:213|260:169,1,90,10|0,0:0|0:0,0:0:0:0:
378,64,79519,1,2,1:2:0:0:
317,220,79675,1,0,0:0:0:0:
480,130,79830,2,0,P|472:68|454:16,1,90,10|0,0:0|0:0,0:0:0:0:
416,212,80141,6,0,P|385:294|411:379,1,180,2|10,1:2|0:0,0:0:0:0:
485,289,80607,1,10,0:0:0:0:
485,289,80685,1,8,0:0:0:0:
485,289,80763,1,0,1:2:0:0:
316,365,80918,1,2,1:2:0:0:
283,171,81074,2,0,P|315:230|308:260,1,90,10|8,0:0|0:0,0:0:0:0:
308,256,81307,1,8,0:0:0:0:
301,260,81385,6,0,P|259:246|215:238,1,90,6|0,1:2|0:0,0:0:0:0:
51,341,81695,2,0,P|93:326|137:318,1,90,10|0,0:0|0:0,0:0:0:0:
115,224,82006,1,2,1:2:0:0:
239,340,82162,1,0,0:0:0:0:
108,214,82317,2,0,P|99:163|119:116,1,90,10|0,0:0|0:0,0:0:0:0:
262,52,82628,6,0,P|237:109|207:232,1,180,2|10,1:2|0:0,0:0:0:0:
57,45,83094,1,10,0:0:0:0:
57,45,83172,1,8,0:0:0:0:
57,45,83250,2,0,P|123:31|162:9,1,90,0|0,1:2|0:0,0:0:0:0:
92,220,83561,1,8,0:0:0:0:
1,111,83716,1,0,0:0:0:0:
206,208,83872,6,0,P|261:192|298:186,1,90,2|0,1:2|0:0,0:0:0:0:
408,54,84182,2,0,P|363:45|320:32,1,90,10|0,0:0|0:0,0:0:0:0:
385,226,84493,1,2,1:2:0:0:
238,103,84649,1,0,0:0:0:0:
394,234,84804,2,0,P|408:281|400:343,1,90,10|0,0:0|0:0,0:0:0:0:
347,121,85115,5,6,1:2:0:0:
256,192,85193,12,0,86048,0:0:0:0:
93,296,86359,6,0,P|127:257|224:266,1,144,6|2,1:2|1:2,0:0:0:0:
341,374,86980,2,0,P|346:320|373:227,1,144,10|2,0:0|1:2,0:0:0:0:
426,179,87447,2,0,P|422:129|408:97,1,72,2|0,0:0|0:0,0:0:0:0:
326,36,87758,1,2,0:0:0:0:
266,90,87913,1,2,1:2:0:0:
134,13,88224,1,10,0:0:0:0:
171,160,88535,1,0,1:0:0:0:
23,94,88846,6,0,P|46:151|68:245,1,144,2|2,1:2|1:2,0:0:0:0:
9,378,89467,2,0,B|91:356|44:315|148:299,1,144,10|2,0:0|1:2,0:0:0:0:
183,251,89934,1,2,1:2:0:0:
321,368,90245,1,2,0:0:0:0:
390,328,90400,1,2,1:2:0:0:
286,209,90711,2,0,P|272:241|267:277,1,72,10|0,0:0|0:0,0:0:0:0:
374,215,91022,2,0,P|368:179|354:146,1,72,0|0,1:0|0:0,0:0:0:0:
393,65,91333,6,0,P|360:100|256:105,1,144,2|2,1:2|1:2,0:0:0:0:
212,56,91799,1,2,0:0:0:0:
118,143,91954,1,10,0:0:0:0:
4,13,92265,5,2,1:2:0:0:
118,53,92421,1,2,0:0:0:0:
33,219,92732,5,2,0:0:0:0:
71,339,92887,1,2,1:2:0:0:
141,235,93043,1,2,0:0:0:0:
185,372,93198,2,0,P|230:357|266:353,1,72,10|0,0:0|0:0,0:0:0:0:
401,281,93509,2,0,P|367:269|332:263,1,72,2|0,1:2|0:0,0:0:0:0:
351,360,93820,5,2,1:2:0:0:
241,253,94442,5,2,1:2:0:0:
400,176,95063,5,10,0:2:0:0:
289,122,95219,1,10,0:0:0:0:
446,43,95374,1,10,0:0:0:0:
238,9,95530,1,10,0:0:0:0:
323,215,95685,2,0,P|339:263|361:382,1,144,10|0,0:2|1:0,0:0:0:0:
358,354,96307,5,14,0:2:0:0:
186,252,96462,1,8,0:0:0:0:
126,302,96618,2,0,P|115:337|117:376,1,72,2|0,1:2|0:0,0:0:0:0:
203,234,96929,2,0,P|204:198|193:164,1,72,2|2,1:2|0:0,0:0:0:0:
120,108,97239,1,2,1:2:0:0:
94,193,97395,1,2,0:0:0:0:
230,93,97550,6,0,P|263:106|298:111,1,72,14|8,0:0|0:0,0:0:0:0:
391,186,97861,2,0,P|426:179|459:164,1,72,2|2,1:2|0:0,0:0:0:0:
397,93,98172,1,2,1:2:0:0:
397,93,98328,1,2,0:0:0:0:
308,195,98483,2,0,P|299:229|294:265,1,72,2|2,1:2|0:0,0:0:0:0:
331,336,98794,5,14,0:2:0:0:
141,258,98949,1,8,0:0:0:0:
195,314,99105,2,0,P|204:348|209:384,1,72,2|0,1:2|0:0,0:0:0:0:
45,302,99416,2,0,P|89:290|125:275,1,72,2|0,1:2|0:0,0:0:0:0:
227,195,99726,2,0,P|183:183|147:168,1,72,2|2,1:2|0:0,0:0:0:0:
228,66,100037,5,10,0:0:0:0:
75,207,100193,2,0,P|76:158|97:117,1,72,8|2,0:0|1:2,0:0:0:0:
247,52,100504,2,0,P|307:76|396:95,1,144,2|2,0:2|1:2,0:0:0:0:
510,160,100970,2,0,P|464:168|431:186,1,72,10|8,0:0|0:0,0:0:0:0:
439,185,101203,1,8,0:0:0:0:
437,193,101281,6,0,P|448:227|453:262,1,72,6|0,1:2|0:0,0:0:0:0:
318,344,101592,2,0,P|323:308|334:274,1,72,10|0,0:0|0:0,0:0:0:0:
428,347,101903,1,2,1:2:0:0:
428,347,102058,1,0,0:0:0:0:
350,190,102214,2,0,P|307:195|255:212,1,72,10|0,0:0|0:0,0:0:0:0:
101,273,102524,6,0,P|161:316|229:301,2,144,2|10|2,1:2|0:0|1:2,0:0:0:0:
145,98,103302,1,0,0:0:0:0:
203,165,103457,2,0,P|185:212|175:259,1,72,10|0,0:0|0:0,0:0:0:0:
13,162,103768,6,0,P|65:153|124:130,1,108,2|0,1:2|0:0,0:0:0:0:
145,98,104079,2,0,P|131:51|127:17,1,72,10|0,0:0|0:0,0:0:0:0:
280,183,104390,2,0,P|294:136|298:102,1,72,2|0,1:2|0:0,0:0:0:0:
227,38,104701,1,10,0:0:0:0:
227,38,104856,1,0,0:0:0:0:
186,189,105011,2,0,P|204:247|224:315,1,108,2|0,1:2|0:0,0:0:0:0:
239,306,105322,6,0,P|284:300|322:258,1,72,10|0,0:0|0:0,0:0:0:0:
444,314,105633,2,0,P|416:278|360:266,1,72,2|0,1:2|0:0,0:0:0:0:
348,132,105944,2,0,P|330:173|348:227,1,72,10|0,0:0|0:0,0:0:0:0:
478,163,106255,6,0,P|464:110|456:40,1,108,2|0,1:2|0:0,0:0:0:0:
446,43,106566,2,0,P|398:31|349:11,1,72,10|0,0:0|0:0,0:0:0:0:
270,138,106877,2,0,P|318:126|367:106,1,72,2|0,1:2|0:0,0:0:0:0:
222,22,107188,2,0,P|169:44|160:119,1,108,10|0,0:0|0:0,0:0:0:0:
126,105,107499,5,10,0:0:0:0:
178,237,107654,1,2,0:0:0:0:
66,182,107809,1,10,0:0:0:0:
40,320,107965,1,2,0:0:0:0:
198,227,108120,1,10,0:0:0:0:
44,79,108276,1,10,0:0:0:0:
39,87,108353,1,8,0:0:0:0:
35,100,108431,1,10,0:0:0:0:
125,302,108587,1,10,0:0:0:0:
121,289,108664,1,8,0:0:0:0:
116,281,108742,5,8,0:0:0:0:
216,314,108897,1,8,0:0:0:0:
277,229,109053,1,8,0:0:0:0:
216,145,109208,1,8,0:0:0:0:
277,60,109364,6,0,P|310:74|361:81,1,72,8|8,0:0|1:3,0:0:0:0:
352,77,109597,1,8,1:3:0:0:
358,72,109675,2,0,P|352:42|341:20,2,36,4|8|8,1:3|0:3|0:0,0:0:0:0:
426,207,109986,6,0,P|434:162|450:121,1,90,6|0,1:2|0:0,0:0:0:0:
322,292,110296,2,0,P|313:247|297:206,1,90,10|0,0:0|0:0,0:0:0:0:
199,91,110607,1,2,1:2:0:0:
298,207,110763,1,0,0:0:0:0:
128,221,110918,2,0,P|169:194|222:182,1,90,10|0,0:0|0:0,0:0:0:0:
295,103,111229,5,2,1:2:0:0:
136,14,111385,2,0,P|163:65|174:121,1,90,2|8,0:0|0:0,0:0:0:0:
21,222,111695,1,2,1:2:0:0:
21,222,111773,1,8,0:0:0:0:
21,222,111851,1,0,1:0:0:0:
201,268,112006,1,2,0:0:0:0:
130,168,112162,1,10,0:0:0:0:
79,331,112317,1,2,0:0:0:0:
220,176,112473,6,0,P|262:194|305:205,1,90,2|0,1:2|0:0,0:0:0:0:
451,298,112783,2,0,P|434:341|427:393,1,90,10|0,0:0|0:0,0:0:0:0:
401,178,113094,1,2,1:2:0:0:
279,282,113250,1,0,0:0:0:0:
410,169,113405,2,0,P|426:127|433:82,1,90,10|0,0:0|0:0,0:0:0:0:
259,14,113716,5,2,1:2:0:0:
347,238,113872,1,10,0:0:0:0:
347,238,113949,1,8,0:0:0:0:
347,238,114027,1,0,1:0:0:0:
215,118,114182,1,2,0:0:0:0:
159,310,114338,1,8,0:0:0:0:
250,213,114493,2,0,P|221:207|190:195,2,45,10|8|2,0:0|0:0|1:2,0:0:0:0:
83,364,114804,1,10,0:0:0:0:
83,364,114882,1,8,0:0:0:0:
83,364,114960,1,4,1:2:0:0:
9,220,115115,5,2,0:0:0:0:
141,292,115271,2,0,P|126:232|104:191,1,90,10|8,0:0|0:0,0:0:0:0:
229,65,115581,2,0,P|278:80|333:84,1,90,2|0,1:2|0:0,0:0:0:0:
147,118,115892,2,0,P|105:105|4:93,1,135,10|0,0:0|0:0,0:0:0:0:
0,72,116203,5,4,1:2:0:0:
123,216,116359,2,0,P|172:201|227:197,1,90,2|8,0:0|0:0,0:0:0:0:
282,44,116669,1,10,0:0:0:0:
282,44,116747,1,8,0:0:0:0:
282,44,116825,2,0,P|237:38|194:24,1,90,2|0,1:2|0:0,0:0:0:0:
295,255,117136,2,0,P|321:194|277:115,1,135,10|0,0:0|0:0,0:0:0:0:
274,128,117447,5,4,1:2:0:0:
442,179,117602,1,2,0:0:0:0:
409,22,117758,1,10,0:0:0:0:
409,22,117913,1,10,0:0:0:0:
367,208,118068,2,0,P|378:260|387:316,1,90,2|2,1:2|0:0,0:0:0:0:
174,239,118379,2,0,P|239:226|296:201,1,90,10|2,0:0|0:0,0:0:0:0:
123,330,118690,5,2,1:2:0:0:
278,194,118846,1,8,0:0:0:0:
278,194,118923,1,8,0:0:0:0:
278,194,119001,1,0,1:0:0:0:
14,87,119157,2,0,P|24:130|39:193,1,90,10|0,0:0|1:0,0:0:0:0:
39,180,119390,1,8,0:0:0:0:
44,183,119467,2,0,P|79:170|104:157,1,45,10|8,0:0|0:0,0:0:0:0:
236,43,119623,2,0,P|216:33|195:26,1,45,10|8,0:0|0:0,0:0:0:0:
193,203,119778,1,10,0:0:0:0:
386,77,119934,6,0,P|360:113|351:157,1,90,6|0,1:2|0:0,0:0:0:0:
500,319,120245,2,0,P|491:275|465:238,1,90,10|0,0:0|0:0,0:0:0:0:
308,285,120555,1,2,1:2:0:0:
459,152,120711,1,0,0:0:0:0:
295,292,120866,2,0,P|251:281|208:266,1,90,10|0,0:0|0:0,0:0:0:0:
392,236,121177,5,2,1:2:0:0:
123,288,121333,2,0,P|132:244|151:203,1,90,2|8,0:0|0:0,0:0:0:0:
254,138,121644,1,2,1:2:0:0:
254,138,121721,1,8,0:0:0:0:
254,138,121799,1,0,1:0:0:0:
112,85,121954,1,2,0:0:0:0:
236,216,122110,1,10,0:0:0:0:
32,275,122265,1,2,0:0:0:0:
226,375,122421,6,0,P|274:354|344:343,1,90,2|0,1:2|0:0,0:0:0:0:
430,201,122732,2,0,P|386:190|345:171,1,90,10|0,0:0|0:0,0:0:0:0:
406,293,123043,1,2,1:2:0:0:
250,226,123198,1,0,0:0:0:0:
417,297,123353,2,0,P|434:347|439:391,1,90,10|0,0:0|0:0,0:0:0:0:
371,88,123664,5,2,1:2:0:0:
190,283,123820,1,10,0:0:0:0:
121,44,123975,1,8,0:0:0:0:
257,213,124131,1,2,1:2:0:0:
290,48,124286,1,8,0:0:0:0:
143,166,124442,1,10,0:0:0:0:
143,166,124519,1,8,0:0:0:0:
143,166,124597,1,2,1:2:0:0:
296,143,124752,2,0,P|329:161|349:178,2,45,10|8|4,0:0|0:0|1:2,0:0:0:0:
202,98,125063,5,2,0:0:0:0:
266,244,125219,1,10,0:0:0:0:
198,88,125374,1,8,0:0:0:0:
46,207,125530,2,0,P|99:191|138:184,1,90,2|0,1:2|0:0,0:0:0:0:
296,290,125840,2,0,P|243:274|204:267,1,90,10|0,0:0|0:0,0:0:0:0:
293,164,126151,5,4,1:2:0:0:
181,297,126307,1,2,0:0:0:0:
152,168,126462,1,10,0:0:0:0:
286,382,126618,1,10,0:0:0:0:
286,382,126695,1,8,0:0:0:0:
286,382,126773,2,0,P|348:361|391:354,1,90,2|0,1:2|0:0,0:0:0:0:
506,223,127084,2,0,P|444:202|401:195,1,90,10|0,0:0|0:0,0:0:0:0:
262,63,127395,5,4,1:2:0:0:
348,243,127550,1,2,0:0:0:0:
421,98,127706,1,10,0:0:0:0:
338,158,127861,1,10,0:0:0:0:
401,11,128017,2,0,P|464:30|513:40,1,90,2|2,1:2|0:0,0:0:0:0:
327,150,128328,2,0,P|283:160|240:174,1,90,10|2,0:0|0:0,0:0:0:0:
61,114,128638,5,10,1:2:0:0:
73,82,128716,1,8,0:0:0:0:
96,58,128794,1,8,0:0:0:0:
127,46,128872,1,8,0:0:0:0:
161,47,128949,1,8,0:0:0:0:
230,159,129105,2,0,P|217:212|212:265,1,90,10|0,0:0|1:0,0:0:0:0:
114,175,129416,1,10,0:0:0:0:
39,333,129571,1,10,0:0:0:0:
39,333,129649,1,8,0:0:0:0:
39,333,129726,2,0,P|76:320|110:314,1,45,10|8,0:0|0:0,0:0:0:0:
212,247,129882,6,0,P|225:300|230:353,1,90,6|0,1:2|0:0,0:0:0:0:
368,178,130193,2,0,P|355:231|350:284,1,90,10|0,0:0|0:0,0:0:0:0:
423,322,130504,1,0,1:2:0:0:
423,322,130659,1,0,0:0:0:0:
282,191,130815,2,0,P|270:147|264:102,1,90,8|0,0:0|0:0,0:0:0:0:
392,6,131125,6,0,P|456:22|484:127,1,180,2|8,1:2|0:0,0:0:0:0:
271,90,131592,1,2,1:2:0:0:
271,90,131669,1,8,0:0:0:0:
271,90,131747,2,0,P|326:101|377:100,1,90,2|0,1:2|0:0,0:0:0:0:
511,248,132058,2,0,P|468:204|387:222,1,135,10|0,0:0|0:0,0:0:0:0:
359,201,132369,6,0,P|387:276|408:380,2,180,2|8|2,1:2|0:0|1:2,0:0:0:0:
205,264,133146,1,0,0:0:0:0:
299,132,133302,2,0,P|283:174|277:218,1,90,10|0,0:0|0:0,0:0:0:0:
153,358,133612,6,0,P|99:338|16:331,1,135,2|0,1:2|0:0,0:0:0:0:
4,308,133923,2,0,P|0:263|22:225,1,90,10|0,0:0|1:0,0:0:0:0:
29,223,134157,1,8,0:0:0:0:
36,224,134234,1,2,1:2:0:0:
138,81,134390,1,0,0:0:0:0:
30,45,134545,2,0,P|51:105|57:143,1,90,10|8,0:0|0:0,0:0:0:0:
60,136,134778,1,8,0:0:0:0:
67,138,134856,6,0,P|117:161|181:168,1,90,6|0,1:2|0:0,0:0:0:0:
286,25,135167,2,0,P|256:73|233:218,1,180,10|2,0:0|1:2,0:0:0:0:
165,58,135633,1,0,0:0:0:0:
322,152,135789,2,0,P|375:136|418:130,1,90,10|0,0:0|0:0,0:0:0:0:
250,279,136100,6,0,P|232:219|232:170,1,90,2|0,1:2|0:0,0:0:0:0:
346,297,136410,1,10,0:0:0:0:
200,365,136566,1,0,1:0:0:0:
200,365,136644,1,8,0:0:0:0:
200,365,136721,1,2,1:2:0:0:
362,292,136877,1,0,0:0:0:0:
140,232,137032,2,0,P|116:270|119:314,1,90,10|0,0:0|0:0,0:0:0:0:
245,166,137343,6,0,P|186:159|68:113,1,180,2|10,1:2|0:0,0:0:0:0:
183,65,137809,1,0,0:0:0:0:
245,257,137965,2,0,P|297:236|351:227,1,90,2|0,1:2|0:0,0:0:0:0:
371,60,138276,2,0,P|334:94|326:151,1,90,10|0,0:0|0:0,0:0:0:0:
470,259,138587,1,2,1:2:0:0:
411,141,138742,1,0,0:0:0:0:
476,268,138897,2,0,P|461:317|456:368,1,90,10|8,0:0|0:0,0:0:0:0:
452,363,139131,1,8,0:0:0:0:
445,368,139208,2,0,P|392:347|325:336,1,90,10|8,0:0|0:0,0:0:0:0:
354,333,139442,1,8,0:0:0:0:
353,325,139519,1,10,0:0:0:0:
245,165,139675,5,8,0:0:0:0:
245,165,139752,1,8,0:0:0:0:
245,165,139830,2,0,P|224:228|211:357,2,180,6|8|2,1:2|0:0|1:2,0:0:0:0:
162,36,140607,1,0,0:0:0:0:
320,57,140763,2,0,P|274:76|231:89,1,90,8|0,0:0|0:0,0:0:0:0:
64,34,141074,1,2,1:2:0:0:
64,34,141385,6,0,P|88:86|100:142,1,90,8|0,0:0|1:0,0:0:0:0:
96,117,141618,1,8,0:0:0:0:
96,117,141695,1,2,1:2:0:0:
0,229,141851,1,0,0:0:0:0:
185,192,142006,2,0,P|204:140|213:98,1,90,10|0,0:0|0:0,0:0:0:0:
90,281,142317,6,0,P|148:323|224:304,1,135,2|0,1:2|0:0,0:0:0:0:
221,295,142628,2,0,P|271:311|327:322,1,90,10|0,0:0|0:0,0:0:0:0:
475,215,142939,2,0,P|448:273|442:320,1,90,2|0,1:2|0:0,0:0:0:0:
316,138,143250,2,0,P|343:196|349:243,1,90,10|0,0:0|0:0,0:0:0:0:
391,32,143561,6,0,P|341:86|222:71,1,180,2|8,1:2|0:0,0:0:0:0:
105,10,144027,1,0,1:0:0:0:
105,10,144105,1,8,0:0:0:0:
105,10,144182,2,0,P|119:52|130:114,1,90,2|0,1:2|0:0,0:0:0:0:
73,272,144493,1,10,0:0:0:0:
0,153,144649,5,8,0:0:0:0:
0,153,144726,1,8,0:0:0:0:
0,153,144804,2,0,P|70:170|183:187,1,180,6|8,1:2|0:0,0:0:0:0:
128,96,145271,1,0,0:0:0:0:
246,241,145426,2,0,P|260:178|255:134,1,90,2|0,1:2|0:0,0:0:0:0:
100,263,145737,2,0,P|100:307|112:350,1,90,8|0,0:0|0:0,0:0:0:0:
344,280,146048,2,0,P|297:270|248:247,1,90,2|0,1:2|0:0,0:0:0:0:
195,110,146359,1,8,0:0:0:0:
258,253,146514,1,0,0:0:0:0:
426,181,146669,6,0,P|449:232|452:286,1,90,2|0,1:2|0:0,0:0:0:0:
292,118,146980,2,0,P|299:73|319:33,1,90,10|0,0:0|0:0,0:0:0:0:
439,103,147291,1,6,1:2:0:0:
326,212,147447,1,0,0:0:0:0:
205,48,147602,1,10,0:0:0:0:
302,127,147758,1,0,0:0:0:0:
147,262,147913,2,0,P|103:250|58:246,1,90,2|0,1:2|0:0,0:0:0:0:
91,50,148224,2,0,P|134:61|179:65,1,90,10|0,0:0|0:0,0:0:0:0:
315,218,148535,5,2,1:2:0:0:
290,111,148690,1,2,0:0:0:0:
196,179,148846,1,2,1:2:0:0:
272,15,149001,1,2,0:0:0:0:
404,142,149157,1,10,0:0:0:0:
217,279,149312,1,10,0:0:0:0:
217,279,149390,1,8,0:0:0:0:
217,279,149467,1,10,0:0:0:0:
308,97,149623,2,0,P|321:125|332:166,1,45,10|8,0:0|0:0,0:0:0:0:
374,342,149778,6,0,P|385:289|412:243,3,107.999996704102,6|2|2|2,1:2|1:2|1:2|1:2,0:0:0:0:
233,249,151022,6,0,P|221:196|195:149,3,107.999996704102,2|2|2|2,1:2|1:2|1:2|1:2,0:0:0:0:
100,350,152265,5,10,0:0:0:0:
216,266,152421,2,0,P|237:272|257:282,2,45,8|8|10,0:0|0:0|0:0,0:0:0:0:
70,194,152732,2,0,P|48:200|28:210,2,45,8|8|10,0:0|0:0|0:0,0:0:0:0:
270,96,153043,2,0,P|291:102|311:112,2,45,8|8|10,0:0|0:0|0:0,0:0:0:0:
100,17,153353,2,0,P|121:67|124:94,1,45,8|8,0:0|0:0,0:0:0:0:
143,198,153509,5,10,0:0:0:0:
153,194,153586,1,8,0:0:0:0:
164,190,153664,1,8,0:0:0:0:
174,187,153742,1,8,0:0:0:0:
185,183,153819,1,10,0:0:0:0:
196,179,153897,1,8,0:0:0:0:
206,175,153975,1,8,0:0:0:0:
217,171,154053,1,8,0:0:0:0:
227,167,154131,1,10,0:0:0:0:
271,162,154208,1,8,0:0:0:0:
313,176,154286,1,8,0:0:0:0:
346,207,154364,1,8,0:0:0:0:
363,248,154441,1,10,0:0:0:0:
361,293,154519,1,8,0:0:0:0:
341,333,154597,2,0,P|303:319|263:313,1,45,8|8,0:0|0:0,0:0:0:0:
172,366,154752,6,0,P|177:296|198:238,1,90,6|0,1:2|0:0,0:0:0:0:
37,122,155063,2,0,P|46:165|47:210,1,90,10|0,0:0|0:0,0:0:0:0:
260,275,155374,1,2,1:2:0:0:
140,151,155530,1,0,0:0:0:0:
262,81,155685,2,0,P|238:133|228:185,1,90,10|0,0:0|0:0,0:0:0:0:
170,54,155996,5,2,1:2:0:0:
328,155,156151,2,0,P|385:148|418:113,1,90,2|8,0:0|0:0,0:0:0:0:
328,26,156462,1,2,1:2:0:0:
328,26,156540,1,8,0:0:0:0:
328,26,156618,1,0,1:0:0:0:
495,142,156773,1,2,0:0:0:0:
433,20,156929,1,10,0:0:0:0:
312,172,157084,1,2,0:0:0:0:
464,294,157239,6,0,P|450:239|425:187,1,90,2|0,1:2|0:0,0:0:0:0:
227,256,157550,2,0,P|279:272|332:285,1,90,10|0,0:0|0:0,0:0:0:0:
433,375,157861,1,2,1:2:0:0:
347,206,158016,1,0,0:0:0:0:
195,350,158172,2,0,P|192:295|226:250,1,90,10|0,0:0|0:0,0:0:0:0:
301,109,158483,5,2,1:2:0:0:
118,215,158638,1,10,0:0:0:0:
104,210,158716,1,8,0:0:0:0:
90,207,158794,1,0,1:0:0:0:
159,55,158949,1,2,0:0:0:0:
269,212,159105,1,8,0:0:0:0:
338,6,159260,1,10,0:0:0:0:
194,145,159416,1,2,1:2:0:0:
41,10,159571,1,10,0:0:0:0:
41,10,159649,1,8,0:0:0:0:
41,10,159726,1,4,1:2:0:0:
145,52,159882,5,2,0:0:0:0:
70,208,160037,2,0,P|55:151|63:113,1,90,10|8,0:0|0:0,0:0:0:0:
249,218,160348,2,0,P|253:262|238:305,1,90,2|0,1:2|0:0,0:0:0:0:
0,319,160659,2,0,P|68:295|156:281,1,135,10|0,0:0|0:0,0:0:0:0:
149,261,160970,5,4,1:2:0:0:
256,117,161125,2,0,P|204:133|154:141,1,90,2|8,0:0|0:0,0:0:0:0:
318,298,161436,1,10,0:0:0:0:
318,298,161514,1,8,0:0:0:0:
318,298,161592,2,0,P|327:238|300:196,1,90,2|0,1:2|0:0,0:0:0:0:
262,0,161903,2,0,P|225:41|258:125,1,135,10|0,0:0|0:0,0:0:0:0:
256,117,162213,5,4,1:2:0:0:
412,16,162369,1,2,0:0:0:0:
364,139,162524,1,10,0:0:0:0:
364,139,162679,1,10,0:0:0:0:
487,228,162835,2,0,P|499:184|481:113,1,90,2|2,1:2|0:0,0:0:0:0:
320,260,163146,2,0,P|314:304|326:347,1,90,10|2,0:0|0:0,0:0:0:0:
405,217,163457,5,2,1:2:0:0:
206,162,163612,1,8,0:0:0:0:
216,158,163690,1,8,0:0:0:0:
224,150,163768,1,0,1:0:0:0:
380,31,163923,2,0,P|325:49|279:56,1,90,10|0,0:0|1:0,0:0:0:0:
286,49,164156,1,0,1:0:0:0:
278,44,164234,2,0,P|284:9|291:-12,1,45,10|8,0:0|0:0,0:0:0:0:
177,42,164390,2,0,P|130:62|109:65,1,45,10|8,0:0|0:0,0:0:0:0:
5,7,164545,5,10,0:0:0:0:
5,7,164623,1,8,0:0:0:0:
5,7,164701,2,0,P|28:66|37:127,1,90,6|0,1:2|0:0,0:0:0:0:
148,250,165011,2,0,P|199:227|250:219,1,90,10|0,0:0|0:0,0:0:0:0:
93,153,165322,1,2,1:2:0:0:
36,299,165477,1,0,0:0:0:0:
101,152,165633,2,0,P|50:175|-1:183,1,90,10|0,0:0|0:0,0:0:0:0:
208,317,165944,5,2,1:2:0:0:
304,152,166100,2,0,P|320:213|319:270,1,90,2|8,0:0|0:0,0:0:0:0:
222,131,166410,1,2,1:2:0:0:
222,131,166488,1,8,0:0:0:0:
222,131,166566,1,0,1:0:0:0:
415,185,166721,1,2,0:0:0:0:
270,54,166877,1,10,0:0:0:0:
441,0,167032,1,2,0:0:0:0:
352,97,167188,6,0,P|331:166|327:208,1,90,2|0,1:2|0:0,0:0:0:0:
149,64,167499,2,0,P|188:52|244:23,1,90,10|0,0:0|0:0,0:0:0:0:
223,216,167810,1,2,1:2:0:0:
60,146,167966,1,0,0:0:0:0:
234,215,168120,2,0,P|246:160|246:119,1,90,10|0,0:0|0:0,0:0:0:0:
102,287,168431,5,2,1:2:0:0:
332,188,168587,1,10,0:0:0:0:
195,384,168742,1,8,0:0:0:0:
394,339,168897,1,2,1:2:0:0:
232,253,169053,1,8,0:0:0:0:
439,169,169208,1,10,0:0:0:0:
439,169,169286,1,8,0:0:0:0:
439,169,169364,1,2,1:2:0:0:
318,288,169519,2,0,P|310:312|302:350,2,45,10|8|4,0:0|0:0|1:2,0:0:0:0:
293,155,169830,5,2,0:0:0:0:
406,258,169985,1,10,0:0:0:0:
293,155,170141,1,8,0:0:0:0:
183,303,170296,2,0,P|141:291|93:283,1,90,2|0,1:2|0:0,0:0:0:0:
32,109,170607,2,0,P|74:121|122:129,1,90,10|0,0:0|0:0,0:0:0:0:
244,67,170918,5,4,1:2:0:0:
194,207,171073,1,2,0:0:0:0:
143,37,171229,1,10,0:0:0:0:
301,162,171385,1,10,0:0:0:0:
301,162,171462,1,8,0:0:0:0:
301,162,171540,2,0,P|332:108|325:58,1,90,2|0,1:2|0:0,0:0:0:0:
180,209,171851,2,0,P|184:253|211:289,1,90,10|0,0:0|0:0,0:0:0:0:
239,29,172161,5,4,1:2:0:0:
55,157,172317,2,0,P|131:139|233:109,1,180,2|10,0:0|0:0,0:0:0:0:
54,53,172783,1,2,1:2:0:0:
165,171,172938,1,2,0:0:0:0:
0,265,173094,1,10,0:0:0:0:
60,135,173249,1,2,0:0:0:0:
256,214,173405,5,10,1:2:0:0:
277,252,173482,1,8,0:0:0:0:
282,297,173560,1,8,0:0:0:0:
268,339,173638,1,8,0:0:0:0:
239,373,173715,1,8,0:0:0:0:
83,303,173872,2,0,P|142:291|196:273,1,90,10|0,0:0|1:0,0:0:0:0:
354,353,174182,5,10,0:0:0:0:
354,353,174260,1,8,0:0:0:0:
354,353,174338,2,0,P|369:320|375:292,1,45,10|8,0:0|0:0,0:0:0:0:
448,217,174493,2,0,P|405:203|391:193,1,45,10|8,0:0|0:0,0:0:0:0:
275,103,174649,6,0,P|294:172|305:243,1,144,6|2,1:2|0:0,0:0:0:0:
135,202,175115,1,0,1:2:0:0:
107,309,175271,2,0,P|160:314|205:286,1,108,2|0,1:2|0:0,0:0:0:0:
224,265,175581,2,0,P|222:230|213:195,1,72,10|2,0:0|0:0,0:0:0:0:
80,90,175892,6,0,P|26:132|29:202,1,144,2|2,1:2|0:0,0:0:0:0:
195,103,176359,1,0,1:0:0:0:
123,177,176514,1,2,1:2:0:0:
171,13,176669,1,8,0:0:0:0:
301,124,176825,2,0,P|334:111|369:103,1,72,10|2,0:0|0:0,0:0:0:0:
502,42,177136,6,0,P|486:90|470:196,1,144,2|2,1:2|0:0,0:0:0:0:
385,284,177602,1,0,1:0:0:0:
322,215,177758,2,0,P|356:207|390:195,1,72,2|0,1:2|0:0,0:0:0:0:
444,355,178068,2,0,P|409:363|375:375,1,72,10|2,0:0|0:0,0:0:0:0:
123,275,178379,5,0,1:0:0:0:
376,376,178535,1,0,1:0:0:0:
340,93,178690,1,0,1:0:0:0:
340,93,179623,6,0,P|322:151|316:209,1,90,6|0,1:2|0:0,0:0:0:0:
163,109,179934,2,0,P|155:64|140:22,1,90,10|0,0:0|0:0,0:0:0:0:
94,226,180244,1,2,1:2:0:0:
238,156,180400,1,0,0:0:0:0:
86,233,180555,2,0,P|33:225|-10:206,1,90,10|0,0:0|0:0,0:0:0:0:
142,358,180866,6,0,P|186:314|295:328,1,180,2|10,1:2|0:0,0:0:0:0:
423,178,181332,1,10,0:0:0:0:
423,178,181410,1,8,0:0:0:0:
423,178,181488,1,0,1:2:0:0:
272,237,181643,1,0,0:0:0:0:
479,361,181799,1,8,0:0:0:0:
371,261,181954,1,0,0:0:0:0:
490,121,182110,6,0,P|504:163|512:207,1,90,2|0,1:2|0:0,0:0:0:0:
328,103,182421,2,0,P|335:58|350:16,1,90,10|0,0:0|0:0,0:0:0:0:
400,186,182731,1,2,1:2:0:0:
228,98,182887,1,0,0:0:0:0:
411,198,183043,2,0,P|399:246|393:308,1,90,10|0,0:0|0:0,0:0:0:0:
254,197,183353,6,0,P|167:197|105:270,1,180,2|10,1:2|0:0,0:0:0:0:
219,380,183820,1,10,0:0:0:0:
219,380,183897,1,8,0:0:0:0:
219,380,183975,2,0,P|216:298|190:264,1,90,0|2,1:2|1:2,0:0:0:0:
47,162,184286,2,0,P|99:179|139:186,1,90,10|8,0:0|0:0,0:0:0:0:
143,178,184519,1,8,0:0:0:0:
149,170,184597,6,0,P|140:113|118:62,1,90,6|0,1:2|0:0,0:0:0:0:
301,0,184908,2,0,P|286:42|280:87,1,90,10|0,0:0|0:0,0:0:0:0:
394,206,185218,1,2,1:2:0:0:
464,49,185374,1,0,0:0:0:0:
275,101,185529,2,0,P|319:108|362:121,1,90,10|0,0:0|0:0,0:0:0:0:
495,257,185840,6,0,P|425:310|337:300,1,180,2|10,1:2|0:0,0:0:0:0:
231,219,186307,1,10,0:0:0:0:
231,219,186384,1,8,0:0:0:0:
231,219,186462,1,0,1:2:0:0:
209,347,186617,1,0,0:0:0:0:
321,218,186773,1,8,0:0:0:0:
124,155,186928,1,0,0:0:0:0:
286,41,187084,6,0,P|266:100|261:152,1,90,2|0,1:2|0:0,0:0:0:0:
136,257,187395,2,0,P|127:212|112:170,1,90,10|0,0:0|0:0,0:0:0:0:
22,77,187705,1,2,1:2:0:0:
186,123,187861,1,0,0:0:0:0:
24,253,188017,2,0,P|16:314|39:350,1,90,10|0,0:0|0:0,0:0:0:0:
220,226,188328,6,0,B|319:237|269:287|381:312,1,180,6|10,1:2|0:0,0:0:0:0:
481,171,188794,1,10,0:0:0:0:
481,171,188871,1,8,0:0:0:0:
481,171,188949,1,0,1:0:0:0:
294,92,189104,1,2,1:2:0:0:
376,196,189260,5,10,0:0:0:0:
381,163,189338,1,8,0:0:0:0:
387,130,189415,1,8,0:0:0:0:
395,97,189493,1,8,0:0:0:0:
405,65,189571,1,14,0:0:0:0:
256,192,189648,12,0,191125,0:0:0:0:
114,96,191436,5,8,0:0:0:0:
400,170,191747,5,8,0:0:0:0:
209,367,192058,5,6,1:2:0:0:
256,192,192136,12,0,197343,0:0:0:0:
