osu file format v14

[General]
AudioFilename: audio.mp3
AudioLeadIn: 0
PreviewTime: 51496
Countdown: 0
SampleSet: Soft
StackLeniency: 0.6
Mode: 0
LetterboxInBreaks: 0
WidescreenStoryboard: 1

[Editor]
Bookmarks: 27913,51540,71436,76410,96307,109986,129882,149778,154752,179623,184597,192058
DistanceSpacing: 0.9
BeatDivisor: 8
GridSize: 32
TimelineZoom: 2.899999

[Metadata]
Title:Ashioto Tarte Tatin
TitleUnicode:足音タルトタタン♪
Artist:Megu (CV: Murakawa Rie), Syaro (CV: Uchida Maaya)
ArtistUnicode:メグ (CV: 村川梨衣), シャロ (CV: 内田真礼)
Creator:Kyuuchie
Version:Hard
Source:ご注文はうさぎですか??
Tags:gochuumon wa usagi desu ka?? is the order a rabbit season 2 second gochiusa ごちうさ anime japanese pop jpop j-pop duet song album kirima sharo natsu megumi 桐間 紗路 奈津 恵 Tsukinyuni Mujina Airiesu AyameMyMommy Pile Koldnoodl Shiwakaze MiyohashiKoori lolis loli vocals
BeatmapID:3468828
BeatmapSetID:1459441

[Difficulty]
HPDrainRate:4
CircleSize:3.2
OverallDifficulty:6
ApproachRate:8
SliderMultiplier:1.4
SliderTickRate:1

[Events]
//Background and Video events
0,0,"syaromegu.jpg",0,0
//Break Periods
//Storyboard Layer 0 (Background)
//Storyboard Layer 1 (Fail)
//Storyboard Layer 2 (Pass)
//Storyboard Layer 3 (Foreground)
//Storyboard Layer 4 (Overlay)
//Storyboard Sound Samples

[TimingPoints]
556,310.880829015544,4,2,2,40,1,0
556,-142.857142857143,4,2,2,40,0,0
4908,-142.857142857143,4,2,2,85,0,0
5530,-90.9090909090909,4,2,2,80,0,0
15478,-90.9090909090909,4,2,2,50,0,0
17343,-90.9090909090909,4,2,2,85,0,0
17965,-111.111111111111,4,2,2,65,0,0
27602,-111.111111111111,4,2,2,55,0,0
27913,-99.9999999999999,4,2,2,70,0,0
35374,-99.9999999999999,4,2,2,65,0,0
35530,-99.9999999999999,4,2,2,60,0,0
35996,-99.9999999999999,4,2,2,65,0,0
36151,-99.9999999999999,4,2,2,60,0,0
36618,-99.9999999999999,4,2,2,85,0,0
37317,-99.9999999999999,4,2,2,60,0,0
37861,-111.111111111111,4,2,2,65,0,0
42680,-100,4,2,2,65,0,0
42835,-100,4,2,2,70,0,0
50296,-100,4,2,2,65,0,0
51540,-90.9090909090909,4,2,2,80,0,0
71436,-111.111111111111,4,2,2,65,0,0
75167,-111.111111111111,4,2,2,85,0,0
75789,-111.111111111111,4,2,2,60,0,0
76410,-90.9090909090908,4,2,2,80,0,0
86048,-90.9090909090908,4,2,2,5,0,0
86359,-111.111111111111,4,2,2,60,0,0
93820,-111.111111111111,4,2,2,65,0,0
93975,-111.111111111111,4,2,2,60,0,0
94442,-111.111111111111,4,2,2,65,0,0
94597,-111.111111111111,4,2,2,60,0,0
95063,-111.111111111111,4,2,2,85,0,0
95996,-111.111111111111,4,2,2,60,0,0
96307,-111.111111111111,4,2,2,65,0,0
101281,-99.9999999999999,4,2,2,70,0,0
107499,-99.9999999999999,4,2,2,80,0,0
108742,-99.9999999999999,4,2,2,60,0,0
109986,-90.9090909090909,4,2,2,80,0,0
129882,-100,4,2,2,70,0,0
148535,-100,4,2,2,80,0,0
149778,-100,4,2,2,50,0,0
152265,-111.111111111111,4,2,2,85,0,0
152421,-111.111111111111,4,2,2,70,0,0
152732,-111.111111111111,4,2,2,75,0,0
153043,-111.111111111111,4,2,2,80,0,0
153353,-111.111111111111,4,2,2,85,0,0
153509,-111.111111111111,4,2,2,70,0,0
154752,-90.9090909090908,4,2,2,80,0,0
174649,-111.111111111111,4,2,2,60,0,0
178379,-111.111111111111,4,2,2,85,0,0
179001,-111.111111111111,4,2,2,60,0,0
179623,-90.9090909090909,4,2,2,80,0,0
190037,-90.9090909090909,4,2,2,60,0,0
191436,-90.9090909090909,4,2,2,75,0,0
192058,-90.9090909090909,4,2,2,70,0,0
197343,-90.9090909090909,4,2,2,5,0,0

[Colours]
Combo1 : 255,32,143
Combo2 : 255,193,193
Combo3 : 174,180,238
Combo4 : 255,255,159

[HitObjects]
48,316,556,6,0,L|42:368,2,48.9999985046387,2|0|2,0:0|0:0|0:0,0:0:0:0:
107,258,1022,2,0,P|157:263|186:312,1,97.9999970092774,2|2,0:0|0:0,0:0:0:0:
331,366,1644,6,0,P|321:325|309:249,1,97.9999970092774,2|0,0:0|0:0,0:0:0:0:
376,207,2110,2,0,P|408:213|433:223,1,48.9999985046387,2|0,0:0|0:0,0:0:0:0:
493,146,2421,2,0,P|422:130|379:115,1,97.9999970092774,2|0,0:0|0:0,0:0:0:0:
205,46,3043,6,0,P|177:37|151:32,2,48.9999985046387,2|0|2,0:0|0:0|0:0,0:0:0:0:
266,105,3509,2,0,P|265:145|236:203,1,97.9999970092774,2|2,0:0|0:0,0:0:0:0:
159,255,3975,1,0,0:0:0:0:
159,255,4131,2,0,P|171:290|175:322,1,48.9999985046387,2|0,0:0|0:0,0:0:0:0:
251,353,4442,1,0,0:0:0:0:
251,353,4597,2,0,P|286:341|318:337,1,48.9999985046387,2|0,0:0|0:0,0:0:0:0:
359,277,4908,5,10,0:0:0:0:
446,308,5063,2,0,L|440:343,5,24.4999992523193,8|8|8|8|8|8,0:0|0:0|0:0|0:0|0:0|0:0,0:0:0:0:
465,286,5530,6,0,P|455:222|448:110,1,154.000004699707,6|10,1:2|0:0,0:0:0:0:
488,57,5996,1,0,0:0:0:0:
488,57,6151,2,0,P|434:47|402:62,1,77.0000023498536,2|0,1:2|0:0,0:0:0:0:
347,118,6462,2,0,P|308:114|264:112,1,77.0000023498536,10|0,0:0|0:0,0:0:0:0:
187,49,6773,6,0,P|142:82|164:179,1,154.000004699707,2|10,1:2|0:0,0:0:0:0:
236,225,7239,1,10,0:0:0:0:
236,225,7317,1,8,0:0:0:0:
236,225,7395,2,0,P|277:221|321:221,1,77.0000023498536,0|0,1:2|0:0,0:0:0:0:
355,325,7706,2,0,P|314:321|270:321,1,77.0000023498536,8|0,0:0|0:0,0:0:0:0:
171,342,8017,6,0,P|120:331|90:235,1,154.000004699707,2|10,1:2|0:0,0:0:0:0:
153,163,8483,1,0,0:0:0:0:
153,163,8638,2,0,P|113:160|73:150,1,77.0000023498536,2|0,1:2|0:0,0:0:0:0:
46,55,8949,2,0,P|86:58|126:68,1,77.0000023498536,10|0,0:0|0:0,0:0:0:0:
222,101,9260,6,0,P|283:86|384:72,1,154.000004699707,2|10,1:2|0:0,0:0:0:0:
433,145,9726,1,10,0:0:0:0:
433,145,9804,1,8,0:0:0:0:
433,145,9882,2,0,P|421:189|421:235,1,77.0000023498536,0|2,1:2|1:2,0:0:0:0:
378,319,10193,2,0,L|362:278,3,38.5000011749268,10|8|8|8,0:0|0:0|0:0|0:0,0:0:0:0:
393,341,10504,6,0,P|452:338|502:256,1,154.000004699707,6|10,1:2|0:0,0:0:0:0:
427,216,10970,1,0,0:0:0:0:
427,216,11125,2,0,P|381:205|332:200,1,77.0000023498536,2|0,1:2|0:0,0:0:0:0:
257,217,11436,2,0,P|262:178|271:141,1,77.0000023498536,10|0,0:0|0:0,0:0:0:0:
189,69,11747,6,0,P|177:152|160:226,1,154.000004699707,2|10,1:2|0:0,0:0:0:0:
88,298,12214,1,10,0:0:0:0:
88,298,12291,1,8,0:0:0:0:
88,298,12369,2,0,P|136:304|171:318,1,77.0000023498536,0|0,1:2|0:0,0:0:0:0:
252,367,12680,2,0,P|258:319|272:284,1,77.0000023498536,8|0,0:0|0:0,0:0:0:0:
336,192,12991,6,0,P|280:205|214:139,1,154.000004699707,2|10,1:2|0:0,0:0:0:0:
229,55,13457,1,0,0:0:0:0:
229,55,13612,2,0,P|275:70|299:115,1,77.0000023498536,2|0,1:2|0:0,0:0:0:0:
389,114,13923,2,0,P|438:96|479:92,1,77.0000023498536,10|0,0:0|0:0,0:0:0:0:
498,190,14234,6,0,P|443:187|398:281,1,154.000004699707,2|10,1:2|0:0,0:0:0:0:
318,331,14701,1,10,0:0:0:0:
318,331,14778,1,8,0:0:0:0:
318,331,14856,2,0,P|272:319|222:312,1,77.0000023498536,0|2,1:2|1:2,0:0:0:0:
142,279,15167,6,0,P|119:292|89:303,4,38.5000011749268,8|8|8|8|14,0:0|0:0|0:0|0:0|0:0,0:0:0:0:
256,192,15633,12,0,17032,0:0:0:0:
54,52,17343,5,8,0:0:0:0:
149,138,17654,1,8,0:0:0:0:
35,214,17965,6,0,P|42:264|49:363,1,125.999996154785,6|2,1:2|1:2,0:0:0:0:
229,374,18587,2,0,P|220:326|207:235,1,125.999996154785,2|2,1:2|1:2,0:0:0:0:
275,174,19053,2,0,P|326:192|333:274,1,125.999996154785,2|2,0:0|0:0,0:0:0:0:
310,337,19519,2,0,P|352:344|390:356,1,62.9999980773926,2|0,1:2|0:0,0:0:0:0:
457,300,19830,2,0,P|483:339|494:374,2,62.9999980773926,2|0|0,1:2|0:0|1:0,0:0:0:0:
289,62,20452,6,0,P|307:105|400:113,1,125.999996154785,2|2,1:2|1:2,0:0:0:0:
512,64,21074,2,0,P|503:168|500:209,1,125.999996154785,2|2,1:2|1:2,0:0:0:0:
457,274,21540,2,0,P|418:259|328:248,1,125.999996154785,2|2,0:0|0:0,0:0:0:0:
273,316,22006,2,0,P|238:301|223:272,1,62.9999980773926,2|0,1:2|0:0,0:0:0:0:
170,211,22317,2,0,P|139:214|115:234,2,62.9999980773926,2|8|0,1:2|0:0|1:0,0:0:0:0:
262,196,22783,1,8,0:0:0:0:
262,196,22939,6,0,P|284:157|271:68,1,125.999996154785,2|2,1:2|1:2,0:0:0:0:
187,24,23405,1,2,0:0:0:0:
187,24,23561,2,0,P|165:81|201:140,1,125.999996154785,2|2,1:2|1:2,0:0:0:0:
291,193,24027,6,0,P|276:272|276:347,1,125.999996154785,2|2,0:0|0:0,0:0:0:0:
197,380,24493,2,0,P|191:340|183:306,1,62.9999980773926,2|2,1:2|0:0,0:0:0:0:
99,273,24804,2,0,P|122:230|218:222,1,125.999996154785,2|10,1:2|0:0,0:0:0:0:
369,83,25426,6,0,P|334:76|296:61,1,62.9999980773926,2|2,1:2|0:0,0:0:0:0:
267,142,25737,2,0,P|302:149|340:164,1,62.9999980773926,2|2,1:2|0:0,0:0:0:0:
399,214,26048,2,0,P|428:203|459:197,2,62.9999980773926,2|2|10,1:2|0:0|0:0,0:0:0:0:
342,288,26514,1,14,0:0:0:0:
53,334,27291,6,0,P|62:294|67:271,1,62.9999980773926,2|0,1:2|0:0,0:0:0:0:
129,208,27602,2,0,P|144:210|154:214,4,15.7499995193482,0|0|0|0|0,3:0|3:0|3:0|3:0|3:0,0:0:0:0:
64,149,27913,6,0,P|79:107|189:101,1,140,6|10,1:2|0:0,0:0:0:0:
269,186,28535,2,0,P|258:249|249:345,1,140,2|10,1:2|0:0,0:0:0:0:
329,377,29001,2,0,P|381:361|396:276,1,140,2|2,1:2|0:0,0:0:0:0:
352,216,29467,2,0,P|359:172|362:144,1,70,10|0,0:0|0:0,0:0:0:0:
418,70,29778,2,0,P|383:65|348:60,1,70,2|0,1:2|0:0,0:0:0:0:
269,107,30089,1,8,0:0:0:0:
269,107,30245,1,2,0:0:0:0:
187,61,30400,6,0,P|153:98|174:192,1,140,2|10,1:2|0:0,0:0:0:0:
273,303,31022,2,0,P|222:291|109:272,1,140,2|10,1:2|0:0,0:0:0:0:
49,336,31488,2,0,P|13:305|38:214,1,140,2|2,0:0|0:0,0:0:0:0:
113,187,31954,2,0,P|122:150|111:112,1,70,10|0,0:0|0:0,0:0:0:0:
67,44,32265,2,0,P|30:56|-8:61,2,70,2|0|10,1:2|0:0|0:0,0:0:0:0:
149,44,32732,5,0,0:0:0:0:
149,44,32887,2,0,P|203:57|212:145,1,140,2|8,1:2|0:0,0:0:0:0:
131,211,33353,1,2,0:0:0:0:
131,211,33509,2,0,P|181:223|269:253,1,140,2|8,1:2|0:0,0:0:0:0:
339,318,33975,1,2,0:0:0:0:
339,318,34131,2,0,P|384:305|420:297,1,70,2|0,1:2|0:0,0:0:0:0:
486,222,34442,2,0,P|451:213|418:203,1,70,10|0,0:0|0:0,0:0:0:0:
344,132,34752,2,0,P|299:145|263:153,2,70,2|2|10,1:2|0:0|0:0,0:0:0:0:
416,64,35219,1,2,0:0:0:0:
416,64,35374,5,6,1:3:0:0:
332,220,35996,1,6,1:3:0:0:
480,345,36618,6,0,P|486:298|487:267,2,70,10|10|10,0:0|0:0|0:0,0:0:0:0:
399,371,37084,1,10,0:0:0:0:
399,371,37239,2,0,P|344:354|231:339,1,140,10|2,0:0|1:2,0:0:0:0:
73,209,37861,6,0,P|63:176|55:134,2,62.9999980773926,14|8|2,0:2|0:0|1:2,0:0:0:0:
33,288,38328,1,0,0:0:0:0:
33,288,38483,2,0,P|94:257|172:242,1,125.999996154785,2|2,1:2|1:2,0:0:0:0:
216,168,38949,1,2,0:0:0:0:
156,100,39105,6,0,P|121:84|88:76,2,62.9999980773926,14|8|2,0:2|0:0|1:2,0:0:0:0:
240,59,39571,1,0,0:0:0:0:
240,59,39726,2,0,P|298:72|324:83,1,62.9999980773926,2|2,1:2|0:0,0:0:0:0:
376,133,40037,2,0,P|366:163|361:194,1,62.9999980773926,2|2,1:2|0:0,0:0:0:0:
294,261,40348,6,0,P|262:251|225:244,2,62.9999980773926,14|8|2,0:2|0:0|1:2,0:0:0:0:
363,325,40815,1,0,0:0:0:0:
363,325,40970,2,0,P|411:315|438:243,1,125.999996154785,2|2,1:2|1:2,0:0:0:0:
391,179,41436,1,2,0:0:0:0:
453,108,41592,6,0,P|490:119|512:137,2,62.9999980773926,10|8|2,0:2|0:0|1:2,0:0:0:0:
370,57,42058,2,0,P|315:86|235:107,1,125.999996154785,2|2,0:2|1:2,0:0:0:0:
164,82,42524,1,10,0:0:0:0:
97,149,42680,5,8,0:0:0:0:
97,149,42758,1,8,0:0:0:0:
97,149,42835,2,0,P|39:150|11:72,2,140,6|10|2,1:2|0:0|1:2,0:0:0:0:
171,216,43612,1,0,0:0:0:0:
171,216,43768,2,0,P|169:261|163:297,1,70,10|0,0:0|0:0,0:0:0:0:
222,363,44079,6,0,P|274:357|300:262,1,140,2|10,1:2|0:0,0:0:0:0:
253,220,44545,1,0,0:0:0:0:
253,220,44701,2,0,P|257:185|258:150,1,70,2|0,1:2|0:0,0:0:0:0:
349,123,45011,2,0,P|344:88|343:53,1,70,10|0,0:0|0:0,0:0:0:0:
265,8,45322,6,0,P|210:3|161:69,1,140,2|10,1:2|0:0,0:0:0:0:
106,136,45789,1,0,0:0:0:0:
106,136,45944,2,0,P|65:122|30:116,2,70,2|0|10,1:2|0:0|0:0,0:0:0:0:
170,207,46410,1,0,0:0:0:0:
170,207,46566,2,0,B|253:201|197:168|312:153,1,140,2|10,1:2|0:0,0:0:0:0:
372,105,47032,5,2,0:0:0:0:
372,105,47188,2,0,P|380:147|380:198,1,70,2|0,1:2|0:0,0:0:0:0:
466,211,47499,2,0,P|458:253|458:304,1,70,10|0,0:0|0:0,0:0:0:0:
403,354,47809,6,0,P|348:359|290:283,1,140,2|10,1:2|0:0,0:0:0:0:
205,263,48276,1,2,0:0:0:0:
205,263,48431,2,0,P|212:223|215:192,1,70,2|0,1:2|0:0,0:0:0:0:
296,155,48742,2,0,P|289:115|286:84,1,70,10|0,0:0|0:0,0:0:0:0:
195,35,49053,6,0,P|155:42|124:45,1,70,10|2,0:0|0:0,0:0:0:0:
87,118,49364,2,0,P|47:125|16:128,1,70,10|2,0:0|0:0,0:0:0:0:
5,220,49675,1,10,0:0:0:0:
5,220,49830,1,10,0:0:0:0:
90,277,49986,1,10,0:0:0:0:
90,277,50141,1,10,0:0:0:0:
256,192,50296,12,0,51229,0:0:0:0:
126,279,51540,6,0,P|113:205|97:175,1,77.0000023498536,6|0,1:2|0:0,0:0:0:0:
151,124,51851,2,0,P|204:118|243:98,1,77.0000023498536,10|0,0:0|0:0,0:0:0:0:
293,51,52162,2,0,P|342:101|310:181,1,154.000004699707,2|10,1:2|0:0,0:0:0:0:
339,283,52628,1,0,0:0:0:0:
339,283,52783,2,0,P|303:271|265:267,2,77.0000023498536,2|2|8,1:2|0:0|0:0,0:0:0:0:
476,237,53250,1,2,1:2:0:0:
476,237,53328,1,8,0:0:0:0:
476,237,53405,2,0,P|430:214|418:113,1,154.000004699707,0|10,1:0|0:0,0:0:0:0:
473,46,53872,1,2,0:0:0:0:
380,23,54027,6,0,P|324:74|278:63,1,115.50000352478,2|0,1:2|0:0,0:0:0:0:
272,59,54338,2,0,P|217:67|190:64,1,77.0000023498536,10|0,0:0|0:0,0:0:0:0:
114,144,54649,2,0,B|170:132|194:156|181:164|214:196|265:180,1,154.000004699707,2|10,1:2|0:0,0:0:0:0:
324,248,55115,1,0,0:0:0:0:
324,248,55271,2,0,P|311:293|305:337,1,77.0000023498536,2|10,1:2|0:0,0:0:0:0:
310,342,55504,1,8,0:0:0:0:
310,342,55581,1,0,1:0:0:0:
392,376,55737,6,0,P|461:339|456:248,1,154.000004699707,2|10,0:0|0:0,0:0:0:0:
402,199,56203,1,2,1:2:0:0:
459,124,56359,2,0,P|490:131|513:144,2,38.5000011749268,10|8|4,0:0|0:0|1:2,0:0:0:0:
389,65,56669,6,0,P|418:30|460:27,2,77.0000023498536,2|10|8,0:0|0:0|0:0,0:0:0:0:
306,118,57136,2,0,P|320:162|324:198,1,77.0000023498536,2|0,1:2|0:0,0:0:0:0:
433,263,57447,2,0,P|386:261|320:343,1,154.000004699707,10|4,0:0|1:2,0:0:0:0:
236,308,57913,5,2,0:0:0:0:
172,359,58068,2,0,P|128:353|106:316,1,77.0000023498536,8|10,0:0|0:0,0:0:0:0:
108,309,58302,1,8,0:0:0:0:
108,309,58379,2,0,P|118:258|120:225,1,77.0000023498536,2|0,1:2|0:0,0:0:0:0:
41,166,58690,2,0,B|147:146|71:108|201:93,1,154.000004699707,10|4,0:0|1:2,0:0:0:0:
296,47,59157,6,0,P|334:56|374:70,2,77.0000023498536,2|10|10,0:0|0:0|0:0,0:0:0:0:
254,135,59623,2,0,P|274:189|278:221,1,77.0000023498536,2|2,1:2|0:0,0:0:0:0:
344,273,59934,1,10,0:0:0:0:
344,273,60089,1,2,0:0:0:0:
285,342,60245,2,0,P|241:330|176:326,1,77.0000023498536,2|8,1:2|0:0,0:0:0:0:
192,331,60478,1,8,0:0:0:0:
192,331,60555,1,0,1:0:0:0:
118,247,60711,6,0,P|194:239|282:206,1,154.000004699707,10|10,0:0|0:0,0:0:0:0:
282,201,61100,1,8,0:0:0:0:
282,201,61177,1,10,0:0:0:0:
388,228,61333,5,10,0:0:0:0:
388,228,61410,1,8,0:0:0:0:
388,228,61488,2,0,P|373:174|369:130,1,77.0000023498536,6|0,1:2|0:0,0:0:0:0:
380,54,61799,2,0,P|326:69|282:73,1,77.0000023498536,10|0,0:0|0:0,0:0:0:0:
219,28,62110,2,0,P|178:74|191:136,1,115.50000352478,2|0,1:2|0:0,0:0:0:0:
194,136,62421,2,0,P|176:193|171:239,1,77.0000023498536,10|0,0:0|0:0,0:0:0:0:
101,279,62732,6,0,P|58:259|17:250,2,77.0000023498536,2|2|8,1:2|0:0|0:0,0:0:0:0:
181,354,63198,1,2,1:2:0:0:
181,354,63276,1,8,0:0:0:0:
181,354,63353,2,0,P|232:340|273:333,1,77.0000023498536,0|2,1:0|0:0,0:0:0:0:
340,285,63664,1,10,0:0:0:0:
340,285,63820,1,2,0:0:0:0:
434,309,63975,6,0,P|436:262|402:231,1,77.0000023498536,2|0,1:2|0:0,0:0:0:0:
332,187,64286,2,0,P|273:198|244:211,1,77.0000023498536,10|0,0:0|0:0,0:0:0:0:
180,144,64597,2,0,P|209:80|313:89,1,154.000004699707,2|10,1:2|0:0,0:0:0:0:
393,97,65063,5,0,0:0:0:0:
393,97,65219,2,0,P|398:55|394:17,2,77.0000023498536,2|10|8,1:2|0:0|0:0,0:0:0:0:
470,185,65685,2,0,P|417:194|313:235,1,154.000004699707,2|10,1:2|0:0,0:0:0:0:
312,237,66074,1,8,0:0:0:0:
312,237,66151,1,2,1:2:0:0:
262,321,66307,1,10,0:0:0:0:
262,321,66385,1,8,0:0:0:0:
262,321,66462,2,0,P|209:330|161:336,1,77.0000023498536,4|2,1:2|0:0,0:0:0:0:
129,262,66773,5,10,0:0:0:0:
129,262,66929,1,8,0:0:0:0:
203,191,67084,2,0,P|156:177|117:162,1,77.0000023498536,2|0,1:2|0:0,0:0:0:0:
51,79,67395,2,0,P|111:73|226:39,1,154.000004699707,10|4,0:0|1:2,0:0:0:0:
305,90,67861,6,0,P|355:102|394:118,2,77.0000023498536,2|10|10,0:0|0:0|0:0,0:0:0:0:
251,163,68328,2,0,P|270:205|279:247,1,77.0000023498536,2|0,1:2|0:0,0:0:0:0:
224,310,68638,2,0,P|282:284|372:316,1,154.000004699707,10|4,0:0|1:2,0:0:0:0:
457,352,69105,5,2,0:0:0:0:
457,352,69260,2,0,P|446:301|449:262,1,77.0000023498536,10|10,0:0|0:0,0:0:0:0:
509,200,69571,2,0,P|469:188|432:173,1,77.0000023498536,2|2,1:2|0:0,0:0:0:0:
342,204,69882,2,0,P|302:192|265:177,1,77.0000023498536,10|2,0:0|0:0,0:0:0:0:
189,222,70193,6,0,P|195:242|206:282,4,38.5000011749268,10|8|8|8|8,1:2|0:0|0:0|0:0|0:0,0:0:0:0:
123,159,70659,2,0,P|139:110|142:77,1,77.0000023498536,10|0,0:0|1:0,0:0:0:0:
248,44,70970,1,10,0:0:0:0:
248,44,71048,1,8,0:0:0:0:
248,44,71125,2,0,P|277:35|304:35,3,38.5000011749268,10|8|10|8,0:0|0:0|0:0|0:0,0:0:0:0:
234,59,71436,6,0,P|249:97|271:189,1,125.999996154785,6|2,1:2|0:0,0:0:0:0:
343,247,71903,1,0,1:2:0:0:
343,247,72058,2,0,P|384:230|483:219,2,125.999996154785,2|10|2,1:2|0:0|1:2,0:0:0:0:
162,337,73146,5,0,1:0:0:0:
162,337,73302,2,0,P|122:321|92:320,2,62.9999980773926,2|8|10,1:2|0:0|0:0,0:0:0:0:
240,279,73768,1,2,0:0:0:0:
240,279,73923,2,0,P|228:223|194:131,1,125.999996154785,2|2,1:2|0:0,0:0:0:0:
276,83,74390,1,0,1:0:0:0:
276,83,74545,2,0,P|288:139|322:231,1,125.999996154785,2|10,1:2|0:0,0:0:0:0:
436,332,75167,5,8,1:2:0:0:
436,332,75322,1,8,1:2:0:0:
436,332,75478,1,8,1:2:0:0:
67,189,76410,6,0,P|137:197|179:280,1,154.000004699707,6|10,1:2|0:0,0:0:0:0:
115,339,76877,1,0,0:0:0:0:
115,339,77032,2,0,P|164:345|202:358,1,77.0000023498536,2|0,1:2|0:0,0:0:0:0:
276,297,77343,2,0,P|282:248|295:210,1,77.0000023498536,10|0,0:0|0:0,0:0:0:0:
327,129,77654,6,0,P|280:167|191:158,1,154.000004699707,2|10,1:2|0:0,0:0:0:0:
104,106,78120,1,10,0:0:0:0:
104,106,78198,1,8,0:0:0:0:
104,106,78276,2,0,P|84:151|92:190,1,77.0000023498536,0|0,1:2|0:0,0:0:0:0:
156,243,78587,2,0,P|147:289|135:339,1,77.0000023498536,8|0,0:0|0:0,0:0:0:0:
76,373,78897,6,0,P|119:349|225:346,1,154.000004699707,2|10,1:2|0:0,0:0:0:0:
309,279,79364,1,0,0:0:0:0:
309,279,79519,2,0,P|309:240|302:192,1,77.0000023498536,2|0,1:2|0:0,0:0:0:0:
389,133,79830,2,0,P|389:172|396:220,1,77.0000023498536,10|0,0:0|0:0,0:0:0:0:
470,266,80141,6,0,P|502:238|479:107,1,154.000004699707,2|10,1:2|0:0,0:0:0:0:
453,56,80607,1,10,0:0:0:0:
453,56,80685,1,8,0:0:0:0:
453,56,80763,2,0,P|393:52|367:45,1,77.0000023498536,0|2,1:2|1:2,0:0:0:0:
304,108,81074,1,10,0:0:0:0:
207,60,81229,5,8,0:0:0:0:
207,60,81307,1,8,0:0:0:0:
207,60,81385,2,0,P|216:134|239:221,1,154.000004699707,6|10,1:2|0:0,0:0:0:0:
325,247,81851,1,0,0:0:0:0:
325,247,82006,2,0,P|367:229|408:216,1,77.0000023498536,2|0,1:2|0:0,0:0:0:0:
472,276,82317,2,0,P|464:316|451:354,1,77.0000023498536,10|0,0:0|0:0,0:0:0:0:
358,369,82628,6,0,P|293:354|200:334,1,154.000004699707,2|10,1:2|0:0,0:0:0:0:
130,268,83094,1,10,0:0:0:0:
130,268,83172,1,8,0:0:0:0:
130,268,83250,2,0,P|138:225|142:182,1,77.0000023498536,0|0,1:2|0:0,0:0:0:0:
227,144,83561,2,0,P|219:101|215:58,1,77.0000023498536,8|0,0:0|0:0,0:0:0:0:
116,20,83872,6,0,P|48:31|13:120,1,154.000004699707,2|10,1:2|0:0,0:0:0:0:
54,191,84338,1,0,0:0:0:0:
54,191,84493,2,0,P|92:178|136:172,1,77.0000023498536,2|0,1:2|0:0,0:0:0:0:
206,231,84804,2,0,P|243:237|280:249,1,77.0000023498536,10|0,0:0|0:0,0:0:0:0:
362,210,85115,1,6,1:2:0:0:
256,192,85271,12,0,86048,0:0:0:0:
467,159,86359,6,0,P|455:106|437:23,1,125.999996154785,6|2,1:2|1:2,0:0:0:0:
336,143,86980,2,0,P|323:180|384:259,1,125.999996154785,10|2,0:0|1:2,0:0:0:0:
411,341,87447,2,0,P|372:335|268:322,1,125.999996154785,2|2,0:0|0:0,0:0:0:0:
213,268,87913,2,0,P|155:262|100:321,2,125.999996154785,2|10|0,1:2|0:0|1:0,0:0:0:0:
111,77,88846,6,0,P|156:117|218:112,1,125.999996154785,2|2,1:2|1:2,0:0:0:0:
364,43,89467,2,0,P|349:121|338:197,1,125.999996154785,10|2,0:0|1:2,0:0:0:0:
266,229,89934,2,0,P|232:227|156:295,1,125.999996154785,2|2,1:2|0:0,0:0:0:0:
87,341,90400,2,0,P|64:272|40:201,2,125.999996154785,2|10|0,1:2|0:0|1:0,0:0:0:0:
298,376,91333,6,0,P|342:350|334:261,1,125.999996154785,2|2,1:2|1:2,0:0:0:0:
278,209,91799,1,2,0:0:0:0:
278,209,91954,2,0,P|289:156|301:74,1,125.999996154785,10|2,0:0|1:2,0:0:0:0:
382,27,92421,2,0,P|427:39|442:123,1,125.999996154785,2|2,0:0|0:0,0:0:0:0:
397,181,92887,2,0,P|358:172|322:170,2,62.9999980773926,2|2|10,1:2|0:0|0:0,0:0:0:0:
479,274,93509,1,2,1:2:0:0:
383,360,93820,5,2,1:2:0:0:
273,285,94442,1,2,1:2:0:0:
386,189,95063,6,0,P|393:152|393:124,2,62.9999980773926,10|10|10,0:2|0:0|0:0,0:0:0:0:
310,254,95530,1,10,0:0:0:0:
310,254,95685,2,0,P|268:214|265:125,1,125.999996154785,10|0,0:2|1:0,0:0:0:0:
29,41,96307,6,0,P|60:47|88:62,1,62.9999980773926,14|8,0:2|0:0,0:0:0:0:
136,142,96618,2,0,P|126:201|113:272,1,125.999996154785,2|2,1:2|1:2,0:0:0:0:
173,343,97084,2,0,P|127:353|102:357,2,62.9999980773926,2|2|2,0:0|1:2|0:0,0:0:0:0:
253,294,97550,5,14,0:0:0:0:
253,294,97706,1,8,0:0:0:0:
342,353,97861,2,0,P|350:317|353:281,1,62.9999980773926,2|2,1:2|0:0,0:0:0:0:
422,225,98172,2,0,P|414:189|411:153,1,62.9999980773926,2|2,1:2|0:0,0:0:0:0:
312,94,98483,2,0,P|320:130|323:166,1,62.9999980773926,2|2,1:2|0:0,0:0:0:0:
248,207,98794,1,14,0:2:0:0:
248,207,98949,1,8,0:0:0:0:
151,171,99105,6,0,P|137:127|175:47,1,125.999996154785,2|2,1:2|1:2,0:0:0:0:
249,101,99571,1,0,0:0:0:0:
249,101,99726,2,0,P|291:90|326:83,1,62.9999980773926,2|2,1:2|0:0,0:0:0:0:
409,39,100037,2,0,P|450:52|478:55,2,62.9999980773926,10|8|2,0:0|0:0|1:2,0:0:0:0:
390,138,100504,2,0,P|404:183|421:281,1,125.999996154785,2|2,0:2|1:2,0:0:0:0:
333,268,100970,1,10,0:0:0:0:
276,339,101125,5,8,0:0:0:0:
276,339,101203,1,8,0:0:0:0:
276,339,101281,2,0,P|211:344|155:275,2,140,6|10|2,1:2|0:0|1:2,0:0:0:0:
340,273,102058,1,0,0:0:0:0:
340,273,102214,2,0,P|389:267|413:277,1,70,10|0,0:0|0:0,0:0:0:0:
483,193,102524,6,0,P|436:183|393:95,1,140,2|10,1:2|0:0,0:0:0:0:
314,61,102991,1,0,0:0:0:0:
314,61,103146,2,0,P|311:104|305:144,1,70,2|0,1:2|0:0,0:0:0:0:
217,181,103457,2,0,P|221:146|223:111,1,70,10|0,0:0|0:0,0:0:0:0:
143,56,103768,6,0,P|101:65|82:167,1,140,2|10,1:2|0:0,0:0:0:0:
107,238,104234,1,0,0:0:0:0:
107,238,104390,2,0,P|72:272|47:279,2,70,2|0|10,1:2|0:0|0:0,0:0:0:0:
177,177,104856,1,0,0:0:0:0:
177,177,105011,2,0,P|222:185|262:204,1,70,2|0,1:2|0:0,0:0:0:0:
329,264,105322,6,0,P|373:254|476:245,2,140,10|2|10,0:0|1:2|0:0,0:0:0:0:
246,332,106100,1,0,0:0:0:0:
246,332,106255,2,0,P|200:307|200:213,1,140,2|10,1:2|0:0,0:0:0:0:
261,157,106721,1,0,0:0:0:0:
261,157,106877,2,0,P|252:114|241:79,1,70,2|0,1:2|0:0,0:0:0:0:
331,48,107188,2,0,P|340:91|351:126,1,70,10|0,0:0|0:0,0:0:0:0:
408,190,107499,6,0,P|445:183|485:177,1,70,10|2,0:0|0:0,0:0:0:0:
508,263,107809,2,0,P|473:268|439:274,1,70,10|2,0:0|0:0,0:0:0:0:
367,341,108120,1,10,0:0:0:0:
294,281,108276,2,0,L|285:241,2,35,10|8|10,0:0|0:0|0:0,0:0:0:0:
225,344,108587,5,10,0:0:0:0:
225,344,108664,1,8,0:0:0:0:
225,344,108742,2,0,P|166:323|133:323,1,70,8|8,0:0|0:0,0:0:0:0:
82,248,109053,2,0,P|116:241|147:226,1,70,8|8,0:0|0:0,0:0:0:0:
225,165,109364,5,8,0:0:0:0:
176,89,109519,2,0,P|142:87|127:81,2,35,8|8|4,1:3|1:3|1:3,0:0:0:0:
242,23,109830,1,8,0:0:0:0:
326,66,109986,6,0,P|342:135|349:174,1,77.0000023498536,6|0,1:2|0:0,0:0:0:0:
444,160,110296,2,0,P|428:229|421:268,1,77.0000023498536,10|0,0:0|0:0,0:0:0:0:
412,330,110607,2,0,P|358:304|270:360,1,154.000004699707,2|10,1:2|0:0,0:0:0:0:
175,361,111074,5,0,0:0:0:0:
175,361,111229,2,0,P|133:366|96:349,2,77.0000023498536,2|2|8,1:2|0:0|0:0,0:0:0:0:
217,281,111695,1,2,1:2:0:0:
217,281,111773,1,8,0:0:0:0:
217,281,111851,2,0,B|224:229|203:200|184:219|168:174|179:132,1,154.000004699707,0|10,1:0|0:0,0:0:0:0:
129,63,112317,1,2,0:0:0:0:
224,21,112473,6,0,P|260:43|272:130,1,115.50000352478,2|0,1:2|0:0,0:0:0:0:
264,125,112783,2,0,P|205:143|173:155,1,77.0000023498536,10|0,0:0|0:0,0:0:0:0:
154,263,113094,2,0,P|216:241|314:223,1,154.000004699707,2|10,1:2|0:0,0:0:0:0:
384,271,113561,1,0,0:0:0:0:
384,271,113716,2,0,P|392:224|401:188,1,77.0000023498536,2|10,1:2|0:0,0:0:0:0:
409,187,113949,1,8,0:0:0:0:
409,187,114027,1,0,1:0:0:0:
476,114,114182,6,0,P|417:62|338:70,1,154.000004699707,2|10,0:0|0:0,0:0:0:0:
339,84,114571,1,8,0:0:0:0:
339,84,114649,1,2,1:2:0:0:
268,153,114804,2,0,P|278:188|286:208,2,38.5000011749268,10|8|4,0:0|0:0|1:2,0:0:0:0:
201,78,115115,6,0,P|190:34|174:0,2,77.0000023498536,2|10|8,0:0|0:0|0:0,0:0:0:0:
151,153,115581,2,0,P|139:194|133:236,1,77.0000023498536,2|0,1:2|0:0,0:0:0:0:
78,334,115892,2,0,P|152:309|230:292,1,154.000004699707,10|4,0:0|1:2,0:0:0:0:
319,327,116359,5,2,0:0:0:0:
319,327,116514,2,0,P|323:270|296:241,1,77.0000023498536,8|10,0:0|0:0,0:0:0:0:
320,241,116747,1,8,0:0:0:0:
320,241,116825,2,0,P|378:223|407:215,1,77.0000023498536,2|0,1:2|0:0,0:0:0:0:
413,104,117136,2,0,P|353:128|263:154,1,154.000004699707,10|4,0:0|1:2,0:0:0:0:
159,124,117602,6,0,P|121:128|98:157,2,77.0000023498536,2|10|10,0:0|0:0|0:0,0:0:0:0:
199,206,118068,2,0,P|183:248|171:299,1,77.0000023498536,2|2,1:2|0:0,0:0:0:0:
235,358,118379,1,10,0:0:0:0:
235,358,118535,1,2,0:0:0:0:
307,299,118690,6,0,P|368:307|410:317,1,77.0000023498536,2|8,1:2|0:0,0:0:0:0:
398,314,118923,1,8,0:0:0:0:
398,314,119001,1,0,1:0:0:0:
459,377,119157,2,0,P|447:317|423:226,1,154.000004699707,10|10,0:0|0:0,0:0:0:0:
416,216,119545,1,8,0:0:0:0:
416,216,119623,1,10,0:0:0:0:
293,224,119778,5,10,0:0:0:0:
293,224,119856,1,8,0:0:0:0:
293,224,119934,2,0,P|277:173|273:138,1,77.0000023498536,6|0,1:2|0:0,0:0:0:0:
346,89,120245,2,0,P|339:51|326:14,1,77.0000023498536,10|0,0:0|0:0,0:0:0:0:
234,46,120555,2,0,P|192:94|130:88,1,115.50000352478,2|0,1:2|0:0,0:0:0:0:
124,91,120866,2,0,P|107:156|107:190,1,77.0000023498536,10|0,0:0|0:0,0:0:0:0:
188,231,121177,5,2,1:2:0:0:
188,231,121333,2,0,P|239:240|272:253,1,77.0000023498536,2|8,0:0|0:0,0:0:0:0:
357,290,121644,1,2,1:2:0:0:
357,290,121721,1,8,0:0:0:0:
357,290,121799,2,0,P|296:304|198:343,1,154.000004699707,0|10,1:0|0:0,0:0:0:0:
131,305,122265,1,2,0:0:0:0:
49,368,122421,6,0,P|13:330|22:272,1,115.50000352478,2|0,1:2|0:0,0:0:0:0:
42,253,122732,2,0,P|32:195|20:160,1,77.0000023498536,10|0,0:0|0:0,0:0:0:0:
125,103,123043,2,0,P|121:164|111:212,1,77.0000023498536,2|0,1:2|0:0,0:0:0:0:
192,226,123353,2,0,P|196:287|206:335,1,77.0000023498536,10|0,0:0|0:0,0:0:0:0:
281,379,123664,1,2,1:2:0:0:
281,379,123820,2,0,P|286:333|288:299,1,77.0000023498536,10|8,0:0|0:0,0:0:0:0:
322,212,124131,6,0,P|369:235|449:179,1,154.000004699707,2|10,1:2|0:0,0:0:0:0:
492,101,124597,1,2,1:2:0:0:
423,36,124752,2,0,P|438:19|470:15,2,38.5000011749268,10|8|4,0:0|0:0|1:2,0:0:0:0:
343,83,125063,5,2,0:0:0:0:
343,83,125219,2,0,P|302:71|265:63,1,77.0000023498536,10|8,0:0|0:0,0:0:0:0:
212,170,125530,2,0,P|253:158|290:150,1,77.0000023498536,2|0,1:2|0:0,0:0:0:0:
368,206,125840,2,0,P|363:263|356:361,1,154.000004699707,10|4,0:0|1:2,0:0:0:0:
263,379,126307,5,2,0:0:0:0:
263,379,126462,2,0,P|264:319|262:290,1,77.0000023498536,10|10,0:0|0:0,0:0:0:0:
178,235,126773,2,0,P|176:273|178:311,1,77.0000023498536,2|0,1:2|0:0,0:0:0:0:
88,330,127084,2,0,P|61:264|99:182,1,154.000004699707,10|4,0:0|1:2,0:0:0:0:
130,106,127550,6,0,P|118:66|94:40,2,77.0000023498536,2|10|10,0:0|0:0|0:0,0:0:0:0:
214,139,128017,2,0,P|261:128|298:122,1,77.0000023498536,2|2,1:2|0:0,0:0:0:0:
329,209,128328,2,0,P|376:198|413:192,1,77.0000023498536,10|2,0:0|0:0,0:0:0:0:
457,97,128638,6,0,L|513:90,4,38.5000011749268,10|8|8|8|8,1:2|0:0|0:0|0:0|0:0,0:0:0:0:
382,46,129105,2,0,P|350:79|389:183,1,154.000004699707,10|10,0:0|0:0,0:0:0:0:
455,211,129571,2,0,L|471:167,3,38.5000011749268,10|8|10|8,0:0|0:0|0:0|0:0,0:0:0:0:
442,236,129882,6,0,P|456:288|475:385,2,140,6|10|0,1:2|0:0|1:2,0:0:0:0:
299,175,130815,2,0,P|311:222|318:252,1,70,8|0,0:0|0:0,0:0:0:0:
254,316,131125,6,0,P|213:303|129:296,1,105,2|0,1:2|0:0,0:0:0:0:
126,301,131436,2,0,P|102:258|114:223,1,70,8|2,0:0|1:2,0:0:0:0:
128,227,131669,1,8,0:0:0:0:
128,227,131747,2,0,P|136:186|136:153,1,70,2|0,1:2|0:0,0:0:0:0:
47,59,132058,2,0,P|39:100|39:133,1,70,10|0,0:0|0:0,0:0:0:0:
1,220,132369,6,0,P|14:271|31:364,2,140,2|8|2,1:2|0:0|1:2,0:0:0:0:
127,154,133302,2,0,P|120:203|116:238,1,70,10|0,0:0|0:0,0:0:0:0:
181,294,133612,2,0,P|256:284|331:278,1,140,2|10,1:2|0:0,0:0:0:0:
402,225,134079,1,0,1:0:0:0:
402,225,134157,1,8,0:0:0:0:
402,225,134234,2,0,P|411:183|398:145,1,70,2|0,1:2|0:0,0:0:0:0:
303,99,134545,2,0,P|312:144|316:173,1,70,10|8,0:0|0:0,0:0:0:0:
306,185,134778,5,8,0:0:0:0:
306,185,134856,2,0,B|224:205|281:250|177:270,2,140,6|10|2,1:2|0:0|1:2,0:0:0:0:
452,82,135789,2,0,P|405:72|381:61,1,70,10|0,0:0|0:0,0:0:0:0:
270,28,136100,6,0,P|227:30|185:119,1,140,2|10,1:2|0:0,0:0:0:0:
127,179,136566,1,0,1:0:0:0:
127,179,136644,1,8,0:0:0:0:
127,179,136721,2,0,P|60:163|27:154,1,70,2|0,1:2|0:0,0:0:0:0:
0,243,137032,2,0,P|67:259|100:268,1,70,10|0,0:0|0:0,0:0:0:0:
171,327,137343,6,0,P|101:334|33:352,2,140,2|10|2,1:2|0:0|1:2,0:0:0:0:
329,371,138276,2,0,P|338:322|338:292,1,70,10|0,0:0|0:0,0:0:0:0:
262,231,138587,6,0,P|301:188|396:178,1,140,2|10,1:2|0:0,0:0:0:0:
485,209,139053,1,8,0:0:0:0:
485,209,139131,1,8,0:0:0:0:
485,209,139208,2,0,P|463:153|458:124,1,70,10|8,0:0|0:0,0:0:0:0:
458,122,139442,1,8,0:0:0:0:
458,122,139519,1,10,0:0:0:0:
386,54,139675,1,8,0:0:0:0:
310,120,139830,6,0,P|336:216|350:282,1,140,6|8,1:2|0:0,0:0:0:0:
182,380,140452,2,0,P|156:284|142:218,1,140,2|8,1:2|0:0,0:0:0:0:
203,57,141074,2,0,P|167:100|84:92,1,140,2|8,1:2|0:0,0:0:0:0:
12,165,141540,1,0,1:0:0:0:
12,165,141618,1,8,0:0:0:0:
12,165,141695,2,0,P|58:176|92:194,1,70,2|0,1:2|0:0,0:0:0:0:
157,241,142006,2,0,P|189:227|223:220,1,70,10|0,0:0|0:0,0:0:0:0:
333,280,142317,6,0,P|392:272|425:197,2,140,2|10|2,1:2|0:0|1:2,0:0:0:0:
142,321,143250,2,0,P|180:330|210:351,1,70,10|0,0:0|0:0,0:0:0:0:
295,358,143561,2,0,P|281:298|264:187,1,140,2|8,1:2|0:0,0:0:0:0:
334,144,144027,2,0,P|349:149|385:164,2,35,0|8|2,1:0|0:0|1:2,0:0:0:0:
257,79,144338,1,0,0:0:0:0:
332,27,144493,2,0,P|373:41|421:48,1,70,10|8,0:0|0:0,0:0:0:0:
418,39,144726,5,8,0:0:0:0:
418,39,144804,2,0,P|476:78|480:161,1,140,6|8,1:2|0:0,0:0:0:0:
438,222,145271,1,0,0:0:0:0:
438,222,145426,2,0,P|399:208|364:202,1,70,2|0,1:2|0:0,0:0:0:0:
304,271,145737,2,0,P|271:283|237:290,1,70,8|0,0:0|0:0,0:0:0:0:
146,267,146048,2,0,P|190:285|182:390,1,140,2|8,1:2|0:0,0:0:0:0:
13,230,146669,6,0,P|53:221|85:209,1,70,2|0,1:2|0:0,0:0:0:0:
180,190,146980,2,0,P|171:150|159:118,1,70,10|0,0:0|0:0,0:0:0:0:
115,38,147291,2,0,P|56:42|28:124,2,140,6|10|2,1:2|0:0|1:2,0:0:0:0:
215,50,148068,1,0,0:0:0:0:
215,50,148224,2,0,P|268:42|311:38,1,70,10|0,0:0|0:0,0:0:0:0:
358,107,148535,6,0,P|353:148|343:178,1,70,2|2,1:2|0:0,0:0:0:0:
279,243,148846,2,0,P|284:284|294:314,1,70,2|2,1:2|0:0,0:0:0:0:
367,360,149157,1,10,0:0:0:0:
425,294,149312,2,0,P|419:265|415:247,2,35,10|8|10,0:0|0:0|0:0,0:0:0:0:
499,357,149623,1,10,0:0:0:0:
499,357,149701,1,8,0:0:0:0:
499,357,149778,1,6,1:2:0:0:
256,192,149934,12,2,151954,1:2:0:0:
87,324,152265,5,10,0:0:0:0:
147,256,152421,2,0,P|166:259|189:268,2,31.4999990386963,8|8|10,0:0|0:0|0:0,0:0:0:0:
78,193,152732,2,0,P|59:196|36:205,2,31.4999990386963,8|8|10,0:0|0:0|0:0,0:0:0:0:
154,158,153043,2,0,P|173:161|196:170,2,31.4999990386963,8|8|10,0:0|0:0|0:0,0:0:0:0:
114,73,153353,5,8,0:0:0:0:
114,73,153431,1,8,0:0:0:0:
114,73,153509,2,0,L|147:61,3,31.4999990386963,10|8|8|8,0:0|0:0|0:0|0:0,0:0:0:0:
162,77,153820,2,0,L|195:65,3,31.4999990386963,10|8|8|8,0:0|0:0|0:0|0:0,0:0:0:0:
210,81,154131,2,0,L|243:69,3,31.4999990386963,10|8|8|8,0:0|0:0|0:0|0:0,0:0:0:0:
258,85,154442,2,0,L|291:73,3,31.4999990386963,10|8|8|8,0:0|0:0|0:0|0:0,0:0:0:0:
307,61,154752,6,0,P|348:101|353:143,1,77.0000023498536,6|0,1:2|0:0,0:0:0:0:
386,204,155063,2,0,P|370:259|367:295,1,77.0000023498536,10|0,0:0|0:0,0:0:0:0:
287,357,155374,2,0,P|237:293|265:213,1,154.000004699707,2|10,1:2|0:0,0:0:0:0:
217,141,155840,5,0,0:0:0:0:
217,141,155996,2,0,P|207:103|202:60,2,77.0000023498536,2|2|8,1:2|0:0|0:0,0:0:0:0:
149,191,156462,1,2,1:2:0:0:
149,191,156540,1,8,0:0:0:0:
149,191,156618,2,0,P|82:167|44:162,1,77.0000023498536,0|2,1:0|0:0,0:0:0:0:
27,242,156929,1,10,0:0:0:0:
27,242,157084,1,2,0:0:0:0:
90,312,157239,6,0,P|139:294|192:283,1,77.0000023498536,2|0,1:2|0:0,0:0:0:0:
276,300,157550,2,0,P|258:251|247:198,1,77.0000023498536,10|0,0:0|0:0,0:0:0:0:
185,153,157861,2,0,P|236:106|292:121,1,115.50000352478,2|0,1:2|0:0,0:0:0:0:
292,125,158172,2,0,P|346:117|389:110,1,77.0000023498536,10|0,0:0|0:0,0:0:0:0:
421,202,158483,2,0,P|412:244|403:280,1,77.0000023498536,2|10,1:2|0:0,0:0:0:0:
404,293,158716,1,8,0:0:0:0:
404,293,158794,1,0,1:0:0:0:
300,347,158949,6,0,P|284:302|279:264,1,77.0000023498536,2|8,0:0|0:0,0:0:0:0:
205,205,159260,2,0,P|180:210|150:217,2,38.5000011749268,10|8|2,0:0|0:0|1:2,0:0:0:0:
285,153,159571,1,10,0:0:0:0:
285,153,159649,1,8,0:0:0:0:
285,153,159726,1,4,1:2:0:0:
204,96,159882,6,0,P|205:41|208:9,2,77.0000023498536,2|10|8,0:0|0:0|0:0,0:0:0:0:
115,137,160348,2,0,P|121:174|127:213,1,77.0000023498536,2|0,1:2|0:0,0:0:0:0:
62,278,160659,2,0,P|86:346|164:358,1,154.000004699707,10|4,0:0|1:2,0:0:0:0:
229,286,161125,5,2,0:0:0:0:
229,286,161281,2,0,P|281:283|315:286,1,77.0000023498536,8|10,0:0|0:0,0:0:0:0:
331,294,161514,1,8,0:0:0:0:
330,294,161592,2,0,P|350:345|358:389,1,77.0000023498536,2|0,1:2|0:0,0:0:0:0:
450,383,161903,2,0,P|485:299|448:241,1,154.000004699707,10|4,0:0|1:2,0:0:0:0:
398,179,162369,6,0,P|433:144|471:140,2,77.0000023498536,2|10|10,0:0|0:0|0:0,0:0:0:0:
339,248,162835,2,0,P|283:254|241:265,1,77.0000023498536,2|2,1:2|0:0,0:0:0:0:
173,212,163146,1,10,0:0:0:0:
173,212,163302,1,2,0:0:0:0:
238,131,163457,2,0,P|196:117|163:110,1,77.0000023498536,2|8,1:2|0:0,0:0:0:0:
151,109,163690,1,8,0:0:0:0:
151,109,163768,1,0,1:0:0:0:
48,141,163923,6,0,P|34:210|32:303,1,154.000004699707,10|10,0:0|0:0,0:0:0:0:
36,311,164312,1,8,0:0:0:0:
36,311,164390,1,10,0:0:0:0:
138,356,164545,5,10,0:0:0:0:
138,356,164623,1,8,0:0:0:0:
138,356,164701,2,0,P|190:363|238:383,1,77.0000023498536,6|0,1:2|0:0,0:0:0:0:
272,296,165011,2,0,P|308:307|347:310,1,77.0000023498536,10|0,0:0|0:0,0:0:0:0:
422,376,165322,2,0,P|478:359|490:299,1,115.50000352478,2|0,1:2|0:0,0:0:0:0:
477,294,165633,2,0,P|469:256|464:218,1,77.0000023498536,10|0,0:0|0:0,0:0:0:0:
422,132,165944,6,0,P|431:87|435:51,2,77.0000023498536,2|2|8,1:2|0:0|0:0,0:0:0:0:
363,204,166410,1,2,1:2:0:0:
363,204,166488,1,8,0:0:0:0:
363,204,166566,2,0,P|310:191|271:188,1,77.0000023498536,0|2,1:0|0:0,0:0:0:0:
186,216,166877,1,10,0:0:0:0:
186,216,167032,1,2,0:0:0:0:
103,168,167188,6,0,P|94:130|83:93,1,77.0000023498536,2|0,1:2|0:0,0:0:0:0:
0,127,167499,2,0,P|8:164|19:201,1,77.0000023498536,10|0,0:0|0:0,0:0:0:0:
92,280,167809,2,0,P|80:316|70:375,1,77.0000023498536,2|0,1:2|0:0,0:0:0:0:
162,384,168120,2,0,P|169:346|181:309,1,77.0000023498536,10|0,0:0|0:0,0:0:0:0:
256,246,168431,6,0,P|247:195|238:168,2,77.0000023498536,2|10|8,1:2|0:0|0:0,0:0:0:0:
253,353,168897,2,0,P|328:330|409:315,1,154.000004699707,2|10,1:2|0:0,0:0:0:0:
480,360,169364,1,2,1:2:0:0:
512,278,169519,2,0,L|494:241,2,38.5000011749268,10|8|4,0:0|0:0|1:2,0:0:0:0:
409,221,169830,5,2,0:0:0:0:
409,221,169986,2,0,P|394:167|383:134,1,77.0000023498536,10|8,0:0|0:0,0:0:0:0:
286,50,170296,2,0,P|297:86|307:123,1,77.0000023498536,2|0,1:2|0:0,0:0:0:0:
254,216,170607,2,0,P|204:201|96:189,1,154.000004699707,10|4,0:0|1:2,0:0:0:0:
20,156,171074,5,2,0:0:0:0:
20,156,171229,2,0,P|11:203|27:250,1,77.0000023498536,10|10,0:0|0:0,0:0:0:0:
29,256,171462,1,8,0:0:0:0:
29,256,171540,2,0,P|75:274|109:292,1,77.0000023498536,2|0,1:2|0:0,0:0:0:0:
197,284,171851,2,0,P|221:228|199:138,1,154.000004699707,10|4,0:0|1:2,0:0:0:0:
132,68,172317,6,0,P|96:63|49:41,2,77.0000023498536,2|10|10,0:0|0:0|0:0,0:0:0:0:
227,48,172783,2,0,P|268:32|314:36,1,77.0000023498536,2|2,1:2|0:0,0:0:0:0:
375,93,173094,1,10,0:0:0:0:
375,93,173250,1,2,0:0:0:0:
327,170,173405,2,0,L|285:155,4,38.5000011749268,10|8|8|8|8,1:2|0:0|0:0|0:0|0:0,0:0:0:0:
411,222,173872,2,0,P|403:273|391:313,1,77.0000023498536,10|0,0:0|1:0,0:0:0:0:
302,356,174182,5,10,0:0:0:0:
302,356,174260,1,8,0:0:0:0:
302,356,174338,2,0,L|251:368,3,38.5000011749268,10|8|10|8,0:0|0:0|0:0|0:0,0:0:0:0:
243,345,174649,6,0,P|223:301|224:210,1,125.999996154785,6|2,1:2|0:0,0:0:0:0:
261,134,175115,1,0,1:2:0:0:
261,134,175271,2,0,P|209:101|122:116,2,125.999996154785,2|10|2,1:2|0:0|1:2,0:0:0:0:
406,227,176359,1,0,1:0:0:0:
406,227,176514,2,0,P|450:213|478:208,2,62.9999980773926,2|8|10,1:2|0:0|0:0,0:0:0:0:
255,283,177136,6,0,P|212:265|106:246,1,125.999996154785,2|2,1:2|0:0,0:0:0:0:
42,186,177602,1,0,1:0:0:0:
42,186,177758,2,0,P|53:145|61:41,1,125.999996154785,2|10,1:2|0:0,0:0:0:0:
209,33,178379,5,0,1:0:0:0:
209,33,178535,1,0,1:0:0:0:
209,33,178690,1,0,1:0:0:0:
498,108,179623,6,0,P|438:111|390:201,1,154.000004699707,6|10,1:2|0:0,0:0:0:0:
314,254,180089,1,0,0:0:0:0:
314,254,180245,2,0,P|345:276|359:319,1,77.0000023498536,2|0,1:2|0:0,0:0:0:0:
449,365,180555,2,0,P|447:310|457:267,1,77.0000023498536,10|0,0:0|0:0,0:0:0:0:
469,189,180866,6,0,P|367:169|292:147,1,154.000004699707,2|10,1:2|0:0,0:0:0:0:
231,95,181333,1,10,0:0:0:0:
231,95,181410,1,8,0:0:0:0:
231,95,181488,2,0,P|213:135|223:178,1,77.0000023498536,0|0,1:2|0:0,0:0:0:0:
276,246,181799,2,0,P|228:263|200:283,1,77.0000023498536,8|0,0:0|0:0,0:0:0:0:
140,354,182110,6,0,P|86:334|76:238,1,154.000004699707,2|10,1:2|0:0,0:0:0:0:
122,167,182576,1,0,0:0:0:0:
122,167,182732,2,0,P|78:155|44:154,1,77.0000023498536,2|0,1:2|0:0,0:0:0:0:
16,54,183043,2,0,P|60:66|94:67,1,77.0000023498536,10|0,0:0|0:0,0:0:0:0:
190,23,183353,6,0,P|244:19|293:103,1,154.000004699707,2|10,1:2|0:0,0:0:0:0:
231,171,183820,1,10,0:0:0:0:
231,171,183897,1,8,0:0:0:0:
231,171,183975,2,0,P|239:222|244:262,1,77.0000023498536,0|2,1:2|1:2,0:0:0:0:
302,328,184286,2,0,P|300:371|294:389,3,38.5000011749268,10|8|8|8,0:0|0:0|0:0|0:0,0:0:0:0:
313,311,184597,6,0,P|354:292|449:351,1,154.000004699707,6|10,1:2|0:0,0:0:0:0:
491,253,185063,1,0,0:0:0:0:
491,253,185219,2,0,P|453:220|454:179,1,77.0000023498536,2|0,1:2|0:0,0:0:0:0:
498,121,185530,2,0,P|441:112|417:103,1,77.0000023498536,10|0,0:0|0:0,0:0:0:0:
331,52,185840,6,0,B|240:76|302:112|195:140,1,154.000004699707,2|10,1:2|0:0,0:0:0:0:
121,129,186307,1,10,0:0:0:0:
121,129,186385,1,8,0:0:0:0:
121,129,186462,2,0,P|135:190|143:224,1,77.0000023498536,0|0,1:2|0:0,0:0:0:0:
221,262,186773,2,0,P|207:323|199:357,1,77.0000023498536,8|0,0:0|0:0,0:0:0:0:
98,378,187084,6,0,P|50:346|63:235,1,154.000004699707,2|10,1:2|0:0,0:0:0:0:
129,199,187550,1,0,0:0:0:0:
129,199,187706,2,0,P|174:212|208:241,1,77.0000023498536,2|0,1:2|0:0,0:0:0:0:
279,176,188017,2,0,P|267:130|275:86,1,77.0000023498536,10|0,0:0|0:0,0:0:0:0:
354,39,188328,6,0,P|420:54|438:154,1,154.000004699707,6|10,1:2|0:0,0:0:0:0:
395,210,188794,1,10,0:0:0:0:
395,210,188872,1,8,0:0:0:0:
395,210,188949,2,0,P|406:266|407:291,1,77.0000023498536,0|2,1:0|1:2,0:0:0:0:
322,342,189260,6,0,P|282:335|259:337,4,38.5000011749268,10|8|8|8|14,0:0|0:0|0:0|0:0|0:0,0:0:0:0:
256,192,189726,12,0,191125,0:0:0:0:
105,73,191436,5,8,0:0:0:0:
197,181,191747,1,8,0:0:0:0:
94,272,192058,1,6,1:2:0:0:
256,192,192214,12,0,197343,0:0:0:0:
