osu file format v14

[General]
AudioFilename: audio.mp3
AudioLeadIn: 0
PreviewTime: 63111
Countdown: 1
SampleSet: Soft
StackLeniency: 0.7
Mode: 0
LetterboxInBreaks: 0
WidescreenStoryboard: 0

[Editor]
DistanceSpacing: 0.7
BeatDivisor: 4
GridSize: 8
TimelineZoom: 2.3

[Metadata]
Title:Cosmos
TitleUnicode:Cosmos
Artist:Megpoid GUMI
ArtistUnicode:Megpoid GUMI
Creator:Swerro
Version:Star System
Source:
Tags:
BeatmapID:1712354
BeatmapSetID:816532

[Difficulty]
HPDrainRate:6
CircleSize:4.1
OverallDifficulty:8.6
ApproachRate:9.4
SliderMultiplier:2
SliderTickRate:2

[Events]
//Background and Video events
0,0,"vokaloid-art-meola-vocaloid.jpg",0,0
//Break Periods
2,38645,44512
2,59756,62511
2,95311,104955
2,113088,115399
//Storyboard Layer 0 (Background)
//Storyboard Layer 1 (Fail)
//Storyboard Layer 2 (Pass)
//Storyboard Layer 3 (Foreground)
//Storyboard Layer 4 (Overlay)
//Storyboard Sound Samples

[TimingPoints]
2890,222.222222222222,4,2,2,40,1,0
2890,-200,4,2,2,40,0,0
10001,-100,4,2,0,80,0,0
31334,-100,4,2,3,70,0,0
38445,-100,4,2,3,70,0,0
45334,222.222222222222,4,2,3,70,1,0
45334,-133.333333333333,4,2,3,70,0,0
59556,-100,4,2,3,80,0,0
63111,-100,4,2,3,80,0,1
78667,222.222222222222,4,2,3,80,1,1
78667,-100,4,2,3,80,0,1
95111,222.222222222222,4,2,0,60,1,0
95112,-100,4,2,0,60,0,0
105778,-133.333333333333,4,2,3,60,0,0
112889,-100,4,2,0,60,0,0
119110,-100,4,2,0,60,0,0
130667,222.222222222222,3,2,0,50,1,0
130667,-133.333333333333,3,2,0,50,0,0
152444,222.222222222222,4,2,3,80,1,1
152444,-100,4,2,3,80,0,1
167999,-133.333333333333,4,2,3,30,0,0
182222,-100,4,2,0,80,0,1
198666,222.222222222222,3,2,0,50,1,0
198667,-200,3,2,0,50,0,0
209333,-133.333333333333,3,2,3,80,0,1
230665,-200,3,2,0,60,0,0
251556,-200,3,2,0,60,0,0
276445,-100,3,2,0,60,0,0

[HitObjects]
240,384,2890,5,2,3:2:0:0:
176,304,3112,2,0,L|120:304,1,50,0|0,2:2|3:2,0:0:0:0:
24,304,3445,2,0,L|24:360,2,50,0|0|0,2:2|3:2|2:2,0:0:0:0:
112,356,3889,5,0,2:2:0:0:
112,256,4112,2,0,L|112:192,1,50,0|0,2:2|2:2,0:0:0:0:
40,204,4334,2,0,B|16:204|16:204|0:236,2,50,0|0|0,2:2|2:2|2:2,0:0:0:0:
40,132,4667,5,2,3:2:0:0:
144,132,4889,1,0,2:2:0:0:
144,132,5001,1,0,3:2:0:0:
144,32,5223,2,0,L|80:32,2,50,0|0|0,2:2|3:2|2:2,0:0:0:0:
216,32,5556,5,2,2:2:0:0:
296,128,5778,1,6,2:2:0:0:
216,224,6001,1,4,2:2:0:0:
296,320,6223,1,4,2:2:0:0:
364,320,6445,5,2,3:2:0:0:
364,224,6667,1,0,2:2:0:0:
364,224,6778,1,0,3:2:0:0:
464,224,7001,2,0,L|464:280,2,50,0|0|0,2:2|3:2|2:2,0:0:0:0:
364,224,7445,5,0,2:2:0:0:
364,124,7667,2,0,B|388:140|388:140|420:140,1,50,0|0,2:2|2:2,0:0:0:0:
480,140,7889,2,0,L|480:84,1,50,0|0,2:2|2:2,0:0:0:0:
480,20,8112,1,0,2:2:0:0:
480,20,8223,5,2,3:2:0:0:
384,20,8445,1,0,2:2:0:0:
384,20,8556,1,0,3:2:0:0:
288,20,8778,1,0,2:2:0:0:
288,20,8889,2,0,L|288:76,1,50,0|0,3:2|2:2,0:0:0:0:
288,144,9112,5,2,2:2:0:0:
256,240,9334,1,2,2:2:0:0:
224,144,9556,1,0,2:2:0:0:
140,144,10001,5,0,1:2:0:0:
68,144,10112,1,0,3:2:0:0:
16,192,10223,1,2,3:2:0:0:
0,124,10334,2,0,B|0:80|0:80|24:24,1,100,0|0,1:2|2:2,0:0:0:0:
96,28,10556,5,0,3:2:0:0:
164,28,10667,1,0,3:2:0:0:
228,56,10778,1,2,3:2:0:0:
296,56,10889,2,0,B|328:56|328:56|388:8,2,100,0|0|0,1:2|3:2|2:2,0:0:0:0:
196,132,11223,6,0,L|296:132,1,100,0|0,3:2|1:2,0:0:0:0:
372,232,11445,2,0,L|372:132,1,100,0|0,3:2|1:2,0:0:0:0:
412,64,11667,1,0,3:2:0:0:
412,64,11778,5,0,1:2:0:0:
472,100,11889,1,0,3:2:0:0:
444,164,12000,1,2,3:2:0:0:
512,184,12112,2,0,B|496:240|496:240|472:276,1,100,0|0,1:2|3:2,0:0:0:0:
400,276,12334,5,0,3:2:0:0:
428,340,12445,1,0,3:2:0:0:
500,340,12556,1,2,3:2:0:0:
428,340,12667,6,0,L|328:340,1,100,4|0,1:2|2:2,0:0:0:0:
228,340,12889,2,0,L|332:340,1,100,4|0,1:2|2:2,0:0:0:0:
328,240,13112,2,0,L|328:344,1,100,4|0,1:2|2:2,0:0:0:0:
272,384,13334,5,0,1:2:0:0:
200,384,13445,1,0,3:2:0:0:
156,328,13556,1,2,3:2:0:0:
156,256,13667,2,0,B|156:188|156:188|132:168,1,100,0|0,1:2|2:2,0:0:0:0:
84,220,13889,5,0,3:2:0:0:
84,292,14001,1,0,3:2:0:0:
28,336,14112,1,2,3:2:0:0:
84,380,14223,2,0,B|136:372|136:372|156:328,2,100,0|0|0,1:2|3:2|2:2,0:0:0:0:
208,384,14556,6,0,B|208:280,1,100,0|0,3:2|1:2,0:0:0:0:
284,384,14778,2,0,L|284:284,2,100,0|0|0,3:2|1:2|3:2,0:0:0:0:
356,384,15112,5,0,1:2:0:0:
428,384,15223,1,0,3:2:0:0:
428,312,15334,1,2,3:2:0:0:
356,308,15445,2,0,B|356:268|356:268|400:224,1,100,0|0,1:2|2:2,0:0:0:0:
344,180,15667,5,0,3:2:0:0:
272,180,15778,1,0,3:2:0:0:
220,228,15889,1,2,3:2:0:0:
168,180,16001,6,0,B|132:140|132:140|132:88,1,100,4|0,1:2|2:2,0:0:0:0:
8,88,16223,2,0,L|112:88,1,100,4|0,1:2|2:2,0:0:0:0:
84,212,16445,2,0,L|84:108,1,100,4|0,1:2|2:2,0:0:0:0:
0,168,16667,5,0,1:2:0:0:
0,240,16778,1,0,3:2:0:0:
0,312,16889,1,2,3:2:0:0:
44,368,17001,2,0,B|96:368|96:368|128:328,1,100,0|0,1:2|2:2,0:0:0:0:
128,264,17223,1,0,3:2:0:0:
128,264,17334,5,0,3:2:0:0:
128,192,17445,1,2,3:2:0:0:
124,116,17556,6,0,L|224:116,1,100,0|0,1:2|3:2,0:0:0:0:
324,192,17778,2,0,B|268:192|268:192|236:144,2,100,4|0|0,1:2|3:2|3:2,0:0:0:0:
348,316,18112,2,0,L|348:212,2,100,4|0|0,1:2|3:2|3:2,0:0:0:0:
228,280,18445,2,0,B|288:280|288:280|328:252,1,100,4|0,1:2|3:2,0:0:0:0:
424,256,18667,1,0,1:2:0:0:
424,256,18778,1,0,3:2:0:0:
476,304,18889,5,2,1:2:0:0:
424,352,19001,2,0,B|376:324|376:324|336:348,1,100,0|2,3:2|3:2,0:0:0:0:
288,296,19223,1,0,3:2:0:0:
332,240,19334,5,0,1:2:0:0:
288,184,19445,1,0,3:2:0:0:
244,240,19556,1,0,3:2:0:0:
288,184,19667,1,2,3:2:0:0:
244,128,19778,6,0,B|200:112|200:112|148:128,1,100,4|0,1:2|2:2,0:0:0:0:
80,232,20001,2,0,B|96:188|96:188|80:136,1,100,4|0,1:2|2:2,0:0:0:0:
104,64,20223,5,4,1:2:0:0:
68,0,20334,1,0,3:2:0:0:
140,0,20445,1,2,3:2:0:0:
180,60,20556,1,0,3:2:0:0:
252,60,20667,2,0,B|300:76|300:76|252:100,3,100,0|0|0|0,1:2|3:2|3:2|1:2,0:0:0:0:
184,208,21223,5,0,1:2:0:0:
256,208,21334,1,0,3:2:0:0:
328,208,21445,1,2,3:2:0:0:
388,168,21556,1,0,1:2:0:0:
392,240,21667,2,0,B|424:276|424:276|424:332,1,100,0|0,3:2|2:2,0:0:0:0:
308,328,21889,5,0,3:2:0:0:
308,328,22001,1,0,1:2:0:0:
228,328,22112,1,0,3:2:0:0:
228,328,22223,2,0,B|184:300|184:300|144:328,1,100,0|0,1:2|3:2,0:0:0:0:
80,280,22445,6,0,L|164:220,1,100,0|0,1:2|3:2,0:0:0:0:
232,168,22667,1,2,3:2:0:0:
184,116,22778,1,0,1:2:0:0:
336,168,23001,1,0,3:2:0:0:
288,116,23112,1,0,3:2:0:0:
240,64,23223,1,2,3:2:0:0:
296,12,23334,2,0,B|332:48|332:48|364:12,1,100,4|0,1:2|2:2,0:0:0:0:
480,52,23556,2,0,L|380:52,1,100,4|0,1:2|2:2,0:0:0:0:
412,136,23778,2,0,B|396:100|396:100|332:100,1,100,4|0,1:2|2:2,0:0:0:0:
280,152,24001,5,0,1:2:0:0:
280,224,24112,1,0,3:2:0:0:
220,264,24223,1,2,3:2:0:0:
220,332,24334,2,0,L|320:332,1,100,0|0,1:2|2:2,0:0:0:0:
368,276,24556,5,0,3:2:0:0:
432,252,24667,1,0,3:2:0:0:
496,280,24778,1,2,3:2:0:0:
432,320,24889,1,0,1:2:0:0:
432,320,25001,2,0,B|432:372|432:372|384:372,1,100,0|0,3:2|2:2,0:0:0:0:
280,372,25223,5,0,3:2:0:0:
208,360,25334,1,0,1:2:0:0:
140,376,25445,1,0,3:2:0:0:
72,356,25556,2,0,B|36:320|36:320|36:260,1,100,0|0,1:2|3:2,0:0:0:0:
112,276,25778,2,0,L|212:276,2,100,0|0|2,1:2|3:2|3:2,0:0:0:0:
76,208,26112,5,0,1:2:0:0:
112,28,26334,1,0,3:2:0:0:
48,68,26445,1,0,3:2:0:0:
112,108,26556,1,2,3:2:0:0:
184,108,26667,2,0,B|168:160|168:160|184:208,1,100,4|0,1:2|2:2,0:0:0:0:
256,108,26889,2,0,B|240:160|240:160|256:208,1,100,4|0,1:2|2:2,0:0:0:0:
292,272,27112,2,0,L|192:272,1,100,4|0,1:2|2:2,0:0:0:0:
132,316,27334,5,0,1:2:0:0:
192,360,27445,1,0,3:2:0:0:
268,360,27556,1,2,3:2:0:0:
332,324,27667,2,0,B|356:360|356:360|412:360,1,100,0|0,1:2|2:2,0:0:0:0:
396,284,27889,1,0,3:2:0:0:
396,284,28001,1,0,3:2:0:0:
396,284,28112,1,2,3:2:0:0:
332,228,28223,6,0,B|332:176|332:176|380:176,1,100,0|0,1:2|3:2,0:0:0:0:
448,148,28445,1,4,1:2:0:0:
448,72,28556,1,0,3:2:0:0:
380,108,28667,1,0,3:2:0:0:
380,108,28778,2,0,B|380:152|380:152|324:176,1,100,4|0,1:2|3:2,0:0:0:0:
276,120,29001,1,0,3:2:0:0:
232,180,29112,2,0,L|128:180,1,100,4|0,1:2|3:2,0:0:0:0:
60,156,29334,2,0,B|4:156|4:156|4:212,1,100,0|0,1:2|3:2,0:0:0:0:
68,224,29556,5,0,1:2:0:0:
104,284,29667,2,0,B|104:340|104:340|140:364,1,100,0|2,3:2|3:2,0:0:0:0:
220,368,29889,1,0,3:2:0:0:
220,292,30001,2,0,B|184:268|184:268|184:212,1,100,0|0,1:2|3:2,0:0:0:0:
184,136,30223,2,0,B|236:136|236:136|272:168,1,100,0|0,3:2|3:2,0:0:0:0:
256,228,30445,6,0,B|280:192|280:192|336:192,1,100,4|0,1:2|2:2,0:0:0:0:
384,136,30667,2,0,L|384:240,1,100,4|0,1:2|2:2,0:0:0:0:
328,328,30889,2,0,L|432:328,1,100,4|0,1:2|3:2,0:0:0:0:
512,264,31112,5,2,3:2:0:0:
512,120,31334,1,0,3:2:0:0:
440,104,31445,1,0,2:2:0:0:
368,120,31556,1,0,2:2:0:0:
368,192,31667,1,0,3:2:0:0:
296,208,31778,1,2,2:2:0:0:
224,192,31889,2,0,L|116:192,1,100,0|0,2:2|3:2,0:0:0:0:
164,288,32112,6,0,L|164:188,1,100,0|0,2:2|2:2,0:0:0:0:
124,128,32334,1,0,2:2:0:0:
144,64,32445,1,0,3:2:0:0:
216,56,32556,1,0,2:2:0:0:
216,56,32667,1,2,3:2:0:0:
196,288,32889,5,0,3:2:0:0:
264,272,33001,1,0,2:2:0:0:
264,200,33112,1,0,3:2:0:0:
304,144,33223,1,0,2:2:0:0:
368,112,33334,1,0,2:2:0:0:
336,48,33445,1,0,3:2:0:0:
268,80,33556,2,0,B|268:180,1,100,2|0,2:2|2:2,0:0:0:0:
196,180,33778,5,0,3:2:0:0:
196,108,33889,2,0,L|96:108,1,100,0|0,2:2|2:2,0:0:0:0:
96,176,34112,5,0,2:2:0:0:
25,143,34223,2,0,L|25:243,1,100,4|0,3:2|2:2,0:0:0:0:
72,312,34445,6,0,B|36:312|36:312|36:348|36:348|8:348,3,100,6|0|4|0,3:2|2:2|3:2|2:2,0:0:0:0:
100,384,34889,5,4,3:2:0:0:
172,384,35001,1,0,2:2:0:0:
144,320,35112,1,0,2:2:0:0:
176,256,35223,1,0,3:2:0:0:
244,240,35334,2,0,L|348:240,1,100,2|0,2:2|2:2,0:0:0:0:
344,312,35556,5,0,3:2:0:0:
344,312,35667,1,0,2:2:0:0:
416,328,35778,1,0,2:2:0:0:
480,304,35889,1,0,2:2:0:0:
472,232,36001,1,0,3:2:0:0:
504,168,36112,1,0,2:2:0:0:
488,96,36223,2,0,L|388:96,1,100,2|0,3:2|2:2,0:0:0:0:
388,168,36445,5,0,3:2:0:0:
320,184,36556,1,0,2:2:0:0:
288,120,36667,1,0,3:2:0:0:
288,120,36778,1,0,2:2:0:0:
216,104,36889,1,0,2:2:0:0:
240,40,37001,1,0,3:2:0:0:
172,20,37112,2,0,B|136:20|136:20|136:48|136:48|96:48,3,100,2|0|0|0,2:2|2:2|3:2|2:2,0:0:0:0:
136,120,37556,5,0,3:2:0:0:
256,120,37778,1,0,3:2:0:0:
416,0,38001,1,6,3:2:0:0:
512,264,38223,1,4,3:2:0:0:
512,192,38334,1,0,2:2:0:0:
512,120,38445,1,4,3:2:0:0:
0,192,45112,5,2,3:2:0:0:
0,4,45334,1,0,3:2:0:0:
24,76,45445,1,0,2:2:0:0:
100,80,45556,1,0,2:2:0:0:
124,152,45667,1,0,3:2:0:0:
200,152,45778,5,2,2:2:0:0:
200,152,45889,1,0,2:2:0:0:
200,152,46000,1,0,3:2:0:0:
276,152,46111,2,0,B|276:116|276:116|300:80,1,75.0000028610231,0|0,2:2|2:2,0:0:0:0:
364,48,46334,5,0,2:2:0:0:
364,124,46445,1,0,3:2:0:0:
364,200,46556,1,0,2:2:0:0:
440,200,46667,2,0,B|448:240|448:240|440:280,1,75.0000028610231,2|0,3:2|2:2,0:0:0:0:
364,280,46889,5,0,3:2:0:0:
364,280,47000,1,0,2:2:0:0:
308,332,47111,2,0,L|228:332,2,75.0000028610231,0|0|0,3:2|2:2|2:2,0:0:0:0:
364,384,47445,1,0,3:2:0:0:
420,332,47556,2,0,L|500:332,1,75.0000028610231,2|0,2:2|2:2,0:0:0:0:
495,332,47778,5,0,3:2:0:0:
496,260,47889,2,0,B|480:224|480:224|432:208,1,75.0000028610231,0|0,2:2|2:2,0:0:0:0:
372,212,48111,1,0,2:2:0:0:
408,144,48222,2,0,B|388:112|388:112|348:96,1,75.0000028610231,4|0,3:2|2:2,0:0:0:0:
276,100,48445,2,0,B|288:56|288:56|336:24|336:24|388:28,1,150.000005722046,6|4,3:2|3:2,0:0:0:0:
256,172,48889,5,4,3:2:0:0:
256,248,49000,1,0,2:2:0:0:
188,280,49111,1,0,2:2:0:0:
112,280,49222,1,0,3:2:0:0:
152,216,49333,2,0,L|152:140,1,75.0000028610231,2|0,2:2|2:2,0:0:0:0:
88,100,49556,1,0,3:2:0:0:
152,60,49667,2,0,B|188:36|188:36|220:36,1,75.0000028610231,0|0,2:2|2:2,0:0:0:0:
256,104,49889,5,0,2:2:0:0:
320,144,50000,1,0,3:2:0:0:
320,72,50111,1,0,2:2:0:0:
364,12,50222,2,0,B|400:0|400:0|436:12,1,75.0000028610231,2|0,3:2|2:2,0:0:0:0:
512,36,50445,5,0,3:2:0:0:
512,36,50556,1,0,2:2:0:0:
456,88,50667,2,0,B|484:116|484:116|456:140,1,75.0000028610231,0|0,3:2|2:2,0:0:0:0:
512,196,50889,1,0,2:2:0:0:
512,196,51000,1,0,3:2:0:0:
456,248,51111,2,0,B|484:276|484:276|456:300,1,75.0000028610231,2|0,2:2|2:2,0:0:0:0:
380,300,51333,6,0,B|408:300|408:300|452:324,1,75.0000028610231,0|0,3:2|2:2,0:0:0:0:
404,384,51556,2,0,B|368:384|368:384|368:308|368:308|328:308,2,150.000005722046,0|4|6,2:2|3:2|3:2,0:0:0:0:
256,88,52222,5,4,3:2:0:0:
182,308,52445,1,4,3:2:0:0:
108,308,52556,1,0,2:2:0:0:
48,264,52667,1,0,2:2:0:0:
88,200,52778,1,0,3:2:0:0:
48,136,52889,2,0,B|40:100|40:100|64:64,1,75.0000028610231,2|0,2:2|2:2,0:0:0:0:
136,88,53111,5,0,3:2:0:0:
164,20,53222,1,0,2:2:0:0:
240,20,53333,1,0,2:2:0:0:
240,96,53445,1,0,2:2:0:0:
240,172,53556,1,0,3:2:0:0:
240,172,53667,1,0,2:2:0:0:
308,136,53778,2,0,B|336:112|336:112|336:68,1,75.0000028610231,2|0,3:2|2:2,0:0:0:0:
336,0,54000,5,0,3:2:0:0:
512,192,54222,2,0,B|480:168|480:168|480:120,2,75.0000028610231,0|0|0,3:2|2:2|2:2,0:0:0:0:
432,192,54556,2,0,B|464:168|464:168|464:120,1,75.0000028610231,0|2,3:2|2:2,0:0:0:0:
472,56,54778,6,0,L|472:132,2,75.0000028610231,0|0|0,2:2|3:2|2:2,0:0:0:0:
404,88,55111,2,0,L|324:88,1,75.0000028610231,0|0,2:2|2:2,0:0:0:0:
284,192,55333,2,0,L|376:192,1,75.0000028610231,4|0,3:2|2:2,0:0:0:0:
404,296,55556,2,0,L|324:296,3,75.0000028610231,6|0|4|0,3:2|2:2|3:2|2:2,0:0:0:0:
360,384,56000,6,0,B|320:384|320:384|292:364,1,75.0000028610231,4|0,3:2|2:2,0:0:0:0:
216,364,56222,1,0,2:2:0:0:
216,288,56333,1,0,3:2:0:0:
140,288,56445,2,0,B|176:268|176:268|176:232,1,75.0000028610231,2|0,2:2|2:2,0:0:0:0:
120,184,56667,5,0,3:2:0:0:
176,132,56778,2,0,B|176:96|176:96|144:64,2,75.0000028610231,0|0|0,2:2|2:2|2:2,0:0:0:0:
244,100,57111,1,0,3:2:0:0:
312,132,57222,1,0,2:2:0:0:
312,56,57333,2,0,B|348:44|348:44|384:56,1,75.0000028610231,2|0,3:2|2:2,0:0:0:0:
384,132,57556,2,0,B|384:92|384:92|408:64,1,75.0000028610231,0|0,3:2|2:2,0:0:0:0:
484,64,57778,5,0,3:2:0:0:
484,140,57889,1,0,2:2:0:0:
428,192,58000,1,0,2:2:0:0:
428,268,58111,1,0,3:2:0:0:
504,268,58222,2,0,B|492:312|492:312|464:336,2,75.0000028610231,2|0|0,2:2|2:2|3:2,0:0:0:0:
188,124,58667,6,0,B|168:160|168:160|132:160,1,75.0000028610231,0|0,3:2|2:2,0:0:0:0:
188,260,58889,2,0,B|224:280|224:280|224:316,1,75.0000028610231,0|0,3:2|2:2,0:0:0:0:
324,260,59111,2,0,B|344:224|344:224|380:224,1,75.0000028610231,6|0,3:2|2:2,0:0:0:0:
324,124,59333,5,4,3:2:0:0:
372,64,59445,1,0,2:2:0:0:
420,124,59556,1,4,3:2:0:0:
160,104,63111,6,0,B|56:104|56:104|0:176|0:176|112:176,1,300,6|0,1:2|2:2,0:0:0:0:
180,176,63556,1,2,3:2:0:0:
212,244,63667,2,0,L|100:244,1,100,2|0,3:2|2:2,0:0:0:0:
112,320,63889,2,0,B|160:344|160:344|200:320,2,100,2|0|0,3:2|1:2|2:2,0:0:0:0:
16,248,64223,5,2,3:2:0:0:
256,192,64445,1,2,3:2:0:0:
496,248,64667,2,0,B|456:280|456:280|496:308,1,100,2|0,3:2|2:2,0:0:0:0:
388,284,64889,6,0,B|360:284|360:284|316:264|316:264|284:264,1,100,2|0,1:2|2:2,0:0:0:0:
216,264,65112,1,2,3:2:0:0:
164,320,65223,1,0,3:2:0:0:
88,320,65334,2,0,B|100:268|100:268|88:220,1,100,2|0,3:2|2:2,0:0:0:0:
164,64,65556,2,0,B|212:84|212:84|256:64,1,100,2|0,3:2|2:2,0:0:0:0:
100,200,65778,6,0,B|67:208|67:208|35:208|35:208|2:200,2,100,2|0|0,1:2|2:2|2:2,0:0:0:0:
188,148,66112,1,0,3:2:0:0:
100,100,66223,2,0,B|108:67|108:67|108:35|108:35|100:2,2,100,2|0|0,1:2|1:2|2:2,0:0:0:0:
100,100,66556,1,0,3:2:0:0:
28,104,66667,6,0,B|28:64|28:64|104:28|104:28|176:60|176:60|176:100|176:100|208:124|208:124|240:124,1,300,6|0,1:2|2:2,0:0:0:0:
300,124,67112,1,2,3:2:0:0:
356,72,67223,1,2,3:2:0:0:
412,124,67334,1,0,3:2:0:0:
468,176,67445,1,2,3:2:0:0:
412,228,67556,6,0,B|308:228,2,100,2|2|0,1:2|3:2|3:2,0:0:0:0:
468,280,67889,1,0,3:2:0:0:
412,332,68000,1,2,3:2:0:0:
348,372,68112,1,2,3:2:0:0:
348,372,68223,2,0,B|348:328|348:328|308:288,1,100,0|0,3:2|3:2,0:0:0:0:
308,212,68445,5,2,1:2:0:0:
236,188,68556,1,2,3:2:0:0:
160,188,68667,1,0,3:2:0:0:
88,212,68778,1,0,3:2:0:0:
160,232,68889,1,2,3:2:0:0:
160,308,69000,1,2,3:2:0:0:
228,344,69112,1,0,3:2:0:0:
160,352,69223,1,0,3:2:0:0:
92,384,69334,5,4,1:2:0:0:
256,192,69556,5,4,1:2:0:0:
420,0,69778,5,4,1:2:0:0:
424,376,70223,2,0,B|424:328|424:328|500:136|500:136|500:88,1,300,4|0,1:2|2:2,0:0:0:0:
424,96,70667,5,2,3:2:0:0:
384,160,70778,1,2,3:2:0:0:
384,236,70889,1,0,3:2:0:0:
344,300,71000,1,0,3:2:0:0:
304,236,71112,6,0,B|296:212|296:212|276:192|276:192|228:192,1,100,0|0,1:2|2:2,0:0:0:0:
228,312,71334,1,2,3:2:0:0:
128,88,71556,2,0,B|176:108|176:108|220:88,1,100,0|0,3:2|2:2,0:0:0:0:
332,36,71778,2,0,B|380:16|380:16|424:36,1,100,2|0,3:2|2:2,0:0:0:0:
424,188,72000,6,0,B|404:208|404:208|404:252|404:252|384:272,1,100,2|0,1:2|2:2,0:0:0:0:
296,320,72223,1,2,3:2:0:0:
216,320,72334,1,0,2:2:0:0:
128,272,72445,2,0,B|108:252|108:252|108:208|108:208|88:188,1,100,2|0,3:2|2:2,0:0:0:0:
88,40,72667,2,0,B|56:80|56:80|88:116,1,100,2|0,3:2|2:2,0:0:0:0:
240,120,72889,6,0,B|310:49,2,100,2|0|0,1:2|2:2|2:2,0:0:0:0:
310,190,73223,1,0,3:2:0:0:
381,261,73334,2,0,B|310:331,2,100,2|0|0,1:2|2:2|2:2,0:0:0:0:
381,261,73667,1,0,2:2:0:0:
384,188,73778,6,0,B|404:152|404:152|404:96|404:96|456:96|456:96|484:72|484:72|484:40|484:40|456:12|456:12|412:12,1,300,6|0,1:2|2:2,0:0:0:0:
340,16,74223,1,2,3:2:0:0:
340,16,74334,1,0,3:2:0:0:
268,16,74445,1,2,3:2:0:0:
268,16,74556,1,0,3:2:0:0:
300,84,74667,6,0,L|300:184,1,100,2|0,1:2|2:2,0:0:0:0:
256,288,74889,1,2,3:2:0:0:
28,192,75111,1,2,3:2:0:0:
256,96,75333,1,2,3:2:0:0:
484,192,75556,5,2,1:2:0:0:
452,192,75667,1,0,2:2:0:0:
420,192,75778,1,0,3:2:0:0:
388,192,75889,1,0,2:2:0:0:
356,192,76000,2,0,B|316:224|316:224|356:256,1,100,0|0,3:2|2:2,0:0:0:0:
468,336,76222,1,2,1:2:0:0:
484,88,76445,5,2,1:2:0:0:
452,88,76556,1,0,2:2:0:0:
420,88,76667,1,0,3:2:0:0:
388,88,76778,1,0,2:2:0:0:
356,88,76889,2,0,B|316:120|316:120|356:152,1,100,0|0,3:2|2:2,0:0:0:0:
468,232,77111,1,2,1:2:0:0:
440,0,77333,6,0,B|320:0|320:0|304:32|256:44|256:44|208:32|184:0|184:0|68:0,2,400,6|0|0,1:2|3:2|3:2,0:0:0:0:
468,0,78333,1,2,2:2:0:0:
468,0,78444,1,0,2:2:0:0:
484,120,78667,6,0,P|500:168|480:212,1,100,4|2,1:2|3:2,0:0:0:0:
420,256,78889,1,0,3:2:0:0:
352,216,79000,2,0,P|372:172|348:124,2,100,0|2|0,1:2|3:2|3:2,0:0:0:0:
264,256,79333,2,0,P|316:272|340:308,1,100,0|2,1:2|3:2,0:0:0:0:
204,368,79555,6,0,P|156:384|112:364,1,100,4|2,1:2|3:2,0:0:0:0:
68,304,79777,1,0,3:2:0:0:
112,240,79888,2,0,P|160:256|203:236,2,100,0|2|0,1:2|3:2|3:2,0:0:0:0:
80,176,80221,2,0,P|60:228|16:220,1,100,0|2,1:2|3:2,0:0:0:0:
0,88,80444,6,0,P|48:40|80:40,1,100,4|2,1:2|3:2,0:0:0:0:
176,40,80667,1,0,3:2:0:0:
176,136,80778,2,0,P|224:148|276:140,2,100,0|2|0,1:2|3:2|3:2,0:0:0:0:
176,212,81111,2,0,L|284:212,1,100,0|2,1:2|3:2,0:0:0:0:
368,252,81333,6,0,L|384:140,1,100,4|2,1:2|3:2,0:0:0:0:
352,76,81555,1,0,3:2:0:0:
268,68,81667,2,0,P|224:56|196:8,2,100,0|2|0,1:2|3:2|3:2,0:0:0:0:
268,0,82000,1,0,3:2:0:0:
472,0,82222,6,0,P|484:48|472:96,1,100,4|2,1:2|3:2,0:0:0:0:
428,156,82444,1,0,3:2:0:0:
472,228,82555,2,0,P|480:280|472:336,2,100,0|2|0,1:2|3:2|3:2,0:0:0:0:
368,248,82889,2,0,P|316:240|260:248,1,100,0|2,1:2|3:2,0:0:0:0:
180,280,83111,5,4,1:2:0:0:
216,192,83222,2,0,P|216:148|152:136,1,100,2|0,1:2|3:2,0:0:0:0:
44,128,83444,2,0,P|32:80|44:32,2,100,0|2|0,1:2|3:2|3:2,0:0:0:0:
76,224,83778,2,0,P|92:272|76:320,1,100,0|2,1:2|3:2,0:0:0:0:
40,384,84000,5,4,1:2:0:0:
140,384,84111,2,0,L|240:384,1,100,2|0,1:2|3:2,0:0:0:0:
292,300,84333,2,0,L|292:200,2,100,0|2|0,1:2|3:2|3:2,0:0:0:0:
348,384,84667,2,0,L|448:384,1,100,0|2,1:2|3:2,0:0:0:0:
496,324,84889,5,4,1:2:0:0:
480,260,85000,1,2,3:2:0:0:
492,196,85111,1,0,3:2:0:0:
480,132,85222,1,2,3:2:0:0:
496,92,85333,1,0,3:2:0:0:
472,56,85444,1,2,3:2:0:0:
496,28,85555,1,0,3:2:0:0:
476,12,85667,1,2,3:2:0:0:
396,0,85778,6,0,P|352:56|352:88,1,100,4|2,1:2|3:2,0:0:0:0:
351,82,86000,1,0,3:2:0:0:
280,88,86111,2,0,P|236:60|188:60,2,100,0|2|0,1:2|3:2|3:2,0:0:0:0:
280,164,86444,1,0,1:2:0:0:
232,220,86555,1,2,3:2:0:0:
180,168,86666,6,0,P|124:212|92:212,1,100,4|2,1:2|3:2,0:0:0:0:
97,212,86888,1,0,3:2:0:0:
100,288,86999,2,0,P|128:332|128:380,2,100,0|2|0,1:2|3:2|3:2,0:0:0:0:
36,252,87332,1,0,1:2:0:0:
0,188,87443,1,2,3:2:0:0:
88,140,87555,6,0,P|128:72|128:48,1,100,4|2,1:2|3:2,0:0:0:0:
216,0,87778,1,0,3:2:0:0:
332,52,87889,2,0,P|341:100|372:138,2,100,0|2|0,1:2|1:2|3:2,0:0:0:0:
444,0,88222,2,0,P|500:20|500:56,1,100,0|2,1:2|3:2,0:0:0:0:
460,144,88444,5,4,1:2:0:0:
512,256,88555,2,0,P|468:284|416:284,1,100,2|0,1:2|3:2,0:0:0:0:
300,252,88778,2,0,P|320:192|300:148,2,100,0|2|0,1:2|3:2|3:2,0:0:0:0:
240,328,89111,2,0,L|136:328,1,100,0|2,1:2|3:2,0:0:0:0:
60,268,89333,5,4,1:2:0:0:
92,200,89444,2,0,L|92:96,1,100,2|0,1:2|3:2,0:0:0:0:
52,8,89666,2,0,B|100:32|128:16|128:16|156:0|188:16|188:16|220:32|244:16|244:16|268:0|292:16|292:16|312:28|340:16,1,300,2|0,1:2|3:2,0:0:0:0:
364,328,90222,5,4,1:2:0:0:
364,328,90333,1,2,3:2:0:0:
288,328,90444,1,0,1:2:0:0:
324,264,90555,2,0,P|376:228|416:228,2,100,0|2|0,1:2|3:2|3:2,0:0:0:0:
248,264,90889,2,0,P|188:228|184:200,1,100,0|2,1:2|3:2,0:0:0:0:
256,188,91111,6,0,L|256:84,1,100,4|2,1:2|3:2,0:0:0:0:
256,12,91333,1,0,1:2:0:0:
176,12,91444,2,0,L|76:12,2,100,0|2|0,1:2|3:2|3:2,0:0:0:0:
180,88,91778,1,2,1:2:0:0:
0,92,92000,5,4,1:2:0:0:
0,180,92111,1,2,3:2:0:0:
0,260,92222,1,0,3:2:0:0:
0,332,92333,1,2,3:2:0:0:
48,296,92444,1,0,3:2:0:0:
88,268,92555,1,2,3:2:0:0:
120,244,92666,1,0,3:2:0:0:
144,228,92778,1,2,3:2:0:0:
144,152,92889,6,0,P|144:96|128:52,2,100,4|2|0,1:2|3:2|3:2,0:0:0:0:
244,152,93222,2,0,P|272:112|272:60,2,100,0|2|0,1:2|3:2|3:2,0:0:0:0:
244,228,93555,1,0,1:2:0:0:
408,224,93778,5,4,1:2:0:0:
408,148,93889,1,2,3:2:0:0:
448,84,94000,1,0,3:2:0:0:
448,8,94111,1,2,3:2:0:0:
512,48,94222,5,0,1:2:0:0:
512,244,94444,1,2,3:2:0:0:
512,108,94666,1,0,3:2:0:0:
512,188,94889,1,2,3:2:0:0:
512,148,95111,1,4,1:2:0:0:
0,196,105555,5,0,2:2:0:0:
96,124,105777,5,0,3:2:0:0:
120,52,105888,1,0,2:2:0:0:
192,76,105999,1,0,2:2:0:0:
264,100,106110,1,0,3:2:0:0:
264,172,106222,1,2,2:2:0:0:
264,100,106333,2,0,B|264:52|264:52|288:24,1,75.0000028610231,0|0,2:2|3:2,0:0:0:0:
376,32,106555,6,0,B|352:64|352:64|352:104,1,75.0000028610231,0|0,2:2|2:2,0:0:0:0:
352,176,106777,1,0,2:2:0:0:
424,200,106888,1,0,3:2:0:0:
464,264,106999,1,0,2:2:0:0:
464,340,107110,1,2,3:2:0:0:
300,252,107333,5,0,3:2:0:0:
228,276,107444,1,0,2:2:0:0:
156,252,107555,1,0,3:2:0:0:
84,276,107666,1,0,2:2:0:0:
84,352,107777,2,0,B|112:384|112:384|156:384,1,75.0000028610231,0|0,2:2|3:2,0:0:0:0:
256,384,107999,1,2,2:2:0:0:
432,188,108222,5,0,3:2:0:0:
432,264,108333,2,0,B|432:288|432:288|416:304|416:304|388:304,1,75.0000028610231,0|0,2:2|2:2,0:0:0:0:
256,304,108555,1,0,2:2:0:0:
256,228,108666,2,0,B|256:148,1,75.0000028610231,4|0,3:2|2:2,0:0:0:0:
256,60,108888,2,0,B|220:52|220:52|180:60,3,75.0000028610231,6|0|4|0,3:2|0:0|3:2|0:0,0:0:0:0:
104,84,109333,5,4,3:2:0:0:
64,148,109444,1,0,2:2:0:0:
104,212,109555,1,0,2:2:0:0:
180,212,109666,1,0,3:2:0:0:
180,136,109777,2,0,B|200:116|200:116|256:116,1,75.0000028610231,2|0,2:2|2:2,0:0:0:0:
328,116,109999,1,0,3:2:0:0:
328,116,110110,1,0,2:2:0:0:
380,172,110222,6,0,L|380:248,1,75.0000028610231,0|0,2:2|2:2,0:0:0:0:
488,216,110444,2,0,B|488:176|488:176|520:144,1,75.0000028610231,0|0,3:2|2:2,0:0:0:0:
436,44,110666,2,0,L|360:44,1,75.0000028610231,2|0,3:2|2:2,0:0:0:0:
256,0,110888,5,0,3:2:0:0:
180,0,110999,1,0,2:2:0:0:
180,76,111110,2,0,B|216:108|216:108|260:108,1,75.0000028610231,0|0,3:2|2:2,0:0:0:0:
304,152,111333,1,0,2:2:0:0:
304,228,111444,1,0,3:2:0:0:
228,228,111555,2,0,B|192:228|192:228|160:260,1,75.0000028610231,2|0,2:2|2:2,0:0:0:0:
156,264,111777,1,0,3:2:0:0:
280,76,111999,5,0,2:2:0:0:
472,192,112222,1,4,3:2:0:0:
280,308,112444,1,6,3:2:0:0:
280,232,112555,1,0,0:0:0:0:
280,156,112666,1,4,3:2:0:0:
280,76,112777,1,0,0:0:0:0:
208,100,112888,5,0,1:2:0:0:
504,316,115999,6,0,B|456:296|456:296|504:276,3,100,4|0|0|0,1:2|2:2|1:2|3:2,0:0:0:0:
500,208,116444,6,0,L|500:108,1,100,2|0,3:2|1:2,0:0:0:0:
500,108,116666,1,0,2:2:0:0:
504,112,116777,2,0,B|504:56|504:56|472:16,1,100,0|0,3:2|3:2,0:0:0:0:
428,72,116999,1,2,3:2:0:0:
428,144,117110,1,0,1:2:0:0:
360,168,117222,2,0,L|360:68,1,100,0|0,3:2|2:2,0:0:0:0:
288,68,117444,6,0,L|288:176,2,100,0|0|0,3:2|1:2|3:2,0:0:0:0:
216,68,117777,1,0,1:2:0:0:
144,68,117888,1,0,3:2:0:0:
72,68,117999,1,0,1:2:0:0:
0,64,118110,1,0,3:2:0:0:
0,68,118222,2,0,B|0:132|0:132|28:156,1,100,2|0,3:2|1:2,0:0:0:0:
96,156,118444,5,0,2:2:0:0:
96,228,118555,2,0,B|48:220|48:220|0:240,1,100,0|0,3:2|3:2,0:0:0:0:
0,308,118777,5,2,3:2:0:0:
60,348,118888,1,4,1:2:0:0:
132,348,118999,1,0,2:2:0:0:
204,348,119110,6,0,P|228:280|204:208,2,150,8|0|4,1:2|3:2|3:2,0:0:0:0:
308,348,119555,2,0,P|284:280|308:208,2,150,8|0|4,1:2|3:2|3:2,0:0:0:0:
256,208,119999,6,0,B|212:108|300:108|256:16,1,200,8|0,1:2|1:2,0:0:0:0:
256,16,120333,1,4,3:2:0:0:
144,356,120555,5,0,2:2:0:0:
92,356,120666,1,0,1:2:0:0:
44,356,120777,1,0,2:2:0:0:
68,312,120888,5,4,1:2:0:0:
92,268,120999,1,0,2:2:0:0:
116,224,121110,1,8,2:2:0:0:
140,180,121222,1,0,3:2:0:0:
164,224,121333,1,8,2:2:0:0:
188,268,121444,1,0,2:2:0:0:
212,312,121555,1,0,1:2:0:0:
236,356,121666,1,0,2:2:0:0:
260,312,121777,6,0,B|256:260|256:260|216:232,1,100,4|0,1:2|2:2,0:0:0:0:
260,172,121999,2,0,B|264:120|264:120|304:92,1,100,8|0,2:2|3:2,0:0:0:0:
404,92,122222,2,0,B|420:140|420:140|432:92,1,100,8|0,2:2|2:2,0:0:0:0:
352,92,122444,2,0,B|336:140|336:140|324:92,1,100,0|0,1:2|2:2,0:0:0:0:
380,140,122666,5,4,1:2:0:0:
380,384,122888,5,4,3:2:0:0:
132,384,123222,5,4,3:2:0:0:
0,220,123444,5,0,2:2:0:0:
0,220,123555,5,4,1:2:0:0:
0,168,123666,1,0,2:2:0:0:
24,124,123777,1,8,2:2:0:0:
24,76,123888,1,0,3:2:0:0:
48,32,123999,1,8,2:2:0:0:
96,32,124110,1,0,2:2:0:0:
120,76,124222,1,0,1:2:0:0:
120,124,124333,1,0,2:2:0:0:
168,124,124444,5,4,1:2:0:0:
168,76,124555,1,0,2:2:0:0:
192,32,124667,1,8,2:2:0:0:
240,32,124778,1,0,3:2:0:0:
264,76,124889,1,8,2:2:0:0:
264,124,125000,1,0,2:2:0:0:
288,168,125111,1,0,1:2:0:0:
288,220,125222,1,0,2:2:0:0:
332,192,125333,5,4,1:2:0:0:
256,0,125555,1,2,2:2:0:0:
256,0,125666,1,2,3:2:0:0:
64,192,125888,1,2,2:2:0:0:
64,192,125999,1,2,1:2:0:0:
256,80,126222,6,0,B|280:124|280:124|228:124,2,100,4|0|2,1:2|2:2|2:2,0:0:0:0:
64,192,126666,5,2,2:2:0:0:
64,192,126777,1,2,2:2:0:0:
256,0,126999,1,2,2:2:0:0:
256,0,127110,1,4,1:2:0:0:
448,192,127332,1,0,3:2:0:0:
256,384,127555,5,0,3:2:0:0:
256,192,127777,1,0,3:2:0:0:
256,384,127999,5,4,1:2:0:0:
64,192,128222,1,2,2:2:0:0:
64,192,128333,1,2,2:2:0:0:
448,192,128555,1,2,2:2:0:0:
448,192,128666,1,2,2:2:0:0:
256,320,128888,6,0,B|232:276|232:276|284:276,2,100,4|0|2,1:2|2:2|2:2,0:0:0:0:
264,64,129333,5,0,3:2:0:0:
0,240,129555,1,0,3:2:0:0:
136,384,129777,1,4,1:2:0:0:
256,208,129999,1,4,1:2:0:0:
432,192,130667,5,0,1:2:0:0:
328,232,130889,1,2,2:2:0:0:
224,192,131112,1,0,2:2:0:0:
352,112,131333,6,0,P|288:64|288:0,1,150.000005722046,0|2,3:2|2:2,0:0:0:0:
368,0,131778,1,0,2:2:0:0:
200,0,132000,6,0,P|144:16|152:96,1,150.000005722046,0|2,3:2|2:2,0:0:0:0:
168,112,132333,1,0,2:2:0:0:
168,112,132444,1,0,2:2:0:0:
168,264,132667,5,0,3:2:0:0:
112,360,132889,1,2,3:2:0:0:
256,312,133111,1,0,3:2:0:0:
56,200,133333,6,0,P|72:160|160:104,2,150.000005722046,0|2|0,1:2|2:2|2:2,0:0:0:0:
56,352,134000,6,0,L|208:352,1,150.000005722046,0|2,3:2|2:2,0:0:0:0:
232,352,134333,1,0,2:2:0:0:
232,352,134444,1,0,2:2:0:0:
392,192,134667,6,0,P|320:208|240:192,2,150.000005722046,8|10|0,3:2|2:2|2:2,0:0:0:0:
120,192,135333,6,0,P|192:176|272:192,2,150.000005722046,8|10|0,3:2|3:2|3:2,0:0:0:0:
256,80,136000,5,0,1:2:0:0:
368,120,136222,1,2,2:2:0:0:
368,120,136333,1,0,2:2:0:0:
368,120,136444,1,0,2:2:0:0:
368,272,136667,6,0,P|424:256|480:320,1,150.000005722046,0|2,3:2|2:2,0:0:0:0:
368,360,137111,1,0,2:2:0:0:
472,200,137333,5,0,3:2:0:0:
360,200,137555,1,2,2:2:0:0:
360,200,137667,1,0,2:2:0:0:
360,200,137778,1,0,2:2:0:0:
256,88,138000,6,0,P|296:56|392:64,2,150.000005722046,0|2|0,3:2|3:2|3:2,0:0:0:0:
144,192,138667,6,0,P|192:192|224:288,1,150.000005722046,0|2,1:2|2:2,0:0:0:0:
224,312,139000,1,0,2:2:0:0:
224,312,139111,1,0,2:2:0:0:
88,384,139333,6,0,P|88:312|144:256,1,150.000005722046,0|2,3:2|2:2,0:0:0:0:
224,384,139778,1,0,2:2:0:0:
304,256,140000,6,0,L|304:104,1,150.000005722046,8|10,3:2|2:2,0:0:0:0:
304,72,140333,1,0,2:2:0:0:
304,72,140444,1,0,2:2:0:0:
376,208,140667,6,0,P|296:224|224:208,1,150.000005722046,8|10,3:2|3:2,0:0:0:0:
224,208,141111,1,0,3:2:0:0:
80,192,141333,5,0,1:2:0:0:
184,232,141555,1,2,2:2:0:0:
288,192,141778,1,0,2:2:0:0:
160,112,141999,6,0,P|224:64|224:0,1,150.000005722046,0|2,3:2|2:2,0:0:0:0:
144,0,142444,1,0,2:2:0:0:
312,0,142666,6,0,P|368:16|360:96,1,150.000005722046,0|2,3:2|2:2,0:0:0:0:
344,112,142999,1,0,2:2:0:0:
344,112,143110,1,0,2:2:0:0:
344,264,143333,5,0,3:2:0:0:
232,348,143555,1,2,3:2:0:0:
308,332,143777,1,0,3:2:0:0:
456,200,143999,6,0,P|440:160|352:104,2,150.000005722046,0|2|0,1:2|2:2|2:2,0:0:0:0:
400,328,144667,1,0,3:2:0:0:
400,328,144778,1,0,2:2:0:0:
400,328,144889,1,2,2:2:0:0:
280,328,145110,1,0,2:2:0:0:
120,192,145333,6,0,P|192:208|272:192,2,150.000005722046,8|10|0,3:2|2:2|2:2,0:0:0:0:
392,192,145999,6,0,P|320:176|240:192,2,150.000005722046,8|10|0,3:2|3:2|3:2,0:0:0:0:
256,48,146666,6,0,P|188:48|120:100,1,150.000005722046,0|2,1:2|2:2,0:0:0:0:
112,128,146999,1,0,2:2:0:0:
112,128,147110,1,0,2:2:0:0:
144,272,147333,6,0,P|88:256|32:320,1,150.000005722046,0|2,3:2|2:2,0:0:0:0:
144,360,147777,1,0,2:2:0:0:
40,192,147999,5,0,3:2:0:0:
40,192,148111,1,0,2:2:0:0:
40,192,148222,1,2,2:2:0:0:
40,112,148444,1,0,2:2:0:0:
220,112,148666,6,0,P|172:64|80:64,1,150.000005722046,0|2,3:2|3:2,0:0:0:0:
156,216,149111,1,0,3:2:0:0:
368,192,149333,6,0,P|320:192|288:288,1,150.000005722046,0|2,1:2|2:2,0:0:0:0:
288,312,149666,1,0,2:2:0:0:
288,312,149777,1,0,2:2:0:0:
424,384,149999,6,0,P|424:312|368:256,1,150.000005722046,0|2,3:2|2:2,0:0:0:0:
288,384,150444,1,0,2:2:0:0:
208,256,150666,6,0,L|208:104,1,150.000005722046,8|10,3:2|2:2,0:0:0:0:
208,72,150999,1,0,2:2:0:0:
208,72,151110,1,0,2:2:0:0:
208,72,151222,1,0,2:2:0:0:
208,72,151333,1,8,3:2:0:0:
144,260,151555,5,10,3:2:0:0:
184,284,151667,1,0,2:2:0:0:
224,308,151778,1,0,3:2:0:0:
264,332,151889,1,0,2:2:0:0:
284,284,152000,1,0,1:2:0:0:
324,308,152112,1,0,2:2:0:0:
364,332,152223,1,2,2:2:0:0:
404,356,152334,1,0,2:2:0:0:
444,332,152444,6,0,B|496:304|496:304|496:248|496:248|444:272|444:272|444:136,1,300,6|0,1:2|2:2,0:0:0:0:
392,88,152889,1,2,3:2:0:0:
316,88,153000,2,0,L|204:88,1,100,2|0,3:2|2:2,0:0:0:0:
212,164,153222,2,0,B|164:188|164:188|124:164,2,100,2|0|0,3:2|1:2|2:2,0:0:0:0:
256,20,153556,5,2,3:2:0:0:
344,192,153778,1,2,3:2:0:0:
256,364,154000,2,0,B|296:332|296:332|256:304,1,100,2|0,3:2|2:2,0:0:0:0:
180,300,154222,6,0,B|152:300|152:300|108:280|108:280|76:280,1,100,2|0,1:2|2:2,0:0:0:0:
32,224,154445,1,2,3:2:0:0:
96,188,154556,1,0,3:2:0:0:
172,188,154667,2,0,B|160:136|160:136|172:88,1,100,2|0,3:2|2:2,0:0:0:0:
232,48,154889,2,0,B|184:68|184:68|140:48,1,100,2|0,3:2|2:2,0:0:0:0:
40,52,155111,6,0,B|32:85|32:85|32:117|32:117|40:150,2,100,2|0|0,1:2|2:2|2:2,0:0:0:0:
128,0,155445,1,0,3:2:0:0:
156,96,155556,2,0,B|123:104|123:104|91:104|91:104|58:96,2,100,2|0|0,1:2|1:2|2:2,0:0:0:0:
256,96,155889,1,0,3:2:0:0:
256,96,156000,6,0,B|344:96|344:96|368:128|368:128|344:156|344:156|256:156|256:156|256:208,1,300,6|0,1:2|2:2,0:0:0:0:
200,256,156445,1,2,3:2:0:0:
144,308,156556,1,2,3:2:0:0:
88,256,156667,1,0,3:2:0:0:
32,204,156778,1,2,3:2:0:0:
88,152,156889,6,0,B|140:144|140:144|188:152,1,100,2|2,1:2|3:2,0:0:0:0:
256,176,157110,1,0,3:2:0:0:
256,176,157222,1,0,3:2:0:0:
320,136,157333,1,2,3:2:0:0:
396,136,157445,1,2,3:2:0:0:
396,212,157556,2,0,B|376:252|376:252|320:272,1,100,0|0,3:2|3:2,0:0:0:0:
252,296,157778,5,2,1:2:0:0:
180,320,157889,1,2,3:2:0:0:
104,320,158000,1,0,3:2:0:0:
32,296,158111,1,0,3:2:0:0:
104,276,158222,1,2,3:2:0:0:
104,200,158333,1,2,3:2:0:0:
172,164,158445,1,0,3:2:0:0:
104,156,158556,1,0,3:2:0:0:
36,124,158667,5,4,1:2:0:0:
256,0,158889,5,4,1:2:0:0:
476,124,159110,5,4,1:2:0:0:
88,364,159556,2,0,B|88:256|88:256|12:208|12:208|12:104,1,300,4|0,1:2|2:2,0:0:0:0:
88,96,160000,5,2,3:2:0:0:
128,160,160111,1,2,3:2:0:0:
204,160,160222,1,0,3:2:0:0:
244,224,160333,1,0,3:2:0:0:
292,284,160445,6,0,B|300:308|300:308|320:328|320:328|368:328,1,100,0|0,1:2|2:2,0:0:0:0:
468,328,160667,1,2,3:2:0:0:
384,88,160889,2,0,B|336:108|336:108|292:88,1,100,0|0,3:2|2:2,0:0:0:0:
180,36,161111,2,0,B|132:16|132:16|88:36,1,100,2|0,3:2|2:2,0:0:0:0:
88,188,161333,6,0,B|108:208|108:208|108:252|108:252|128:272,1,100,2|0,1:2|2:2,0:0:0:0:
216,320,161556,1,2,3:2:0:0:
296,320,161667,1,0,2:2:0:0:
384,272,161778,2,0,B|404:252|404:252|404:208|404:208|424:188,1,100,2|0,3:2|2:2,0:0:0:0:
424,40,162000,2,0,B|456:80|456:80|424:116,1,100,2|0,3:2|2:2,0:0:0:0:
272,120,162222,6,0,B|202:49,2,100,2|0|0,1:2|2:2|2:2,0:0:0:0:
202,190,162556,1,0,3:2:0:0:
131,261,162667,2,0,B|202:331,2,100,2|0|0,1:2|2:2|2:2,0:0:0:0:
131,261,163000,1,0,2:2:0:0:
128,188,163111,6,0,B|128:148|128:148|96:120|96:120|96:48|96:48|136:24|136:24|208:24|208:24|232:40,1,300,6|0,1:2|2:2,0:0:0:0:
296,88,163556,1,2,3:2:0:0:
296,88,163667,1,0,3:2:0:0:
296,164,163778,1,2,3:2:0:0:
296,164,163889,1,0,3:2:0:0:
232,204,164000,6,0,L|232:304,1,100,2|0,1:2|2:2,0:0:0:0:
256,376,164222,1,2,3:2:0:0:
484,192,164444,1,2,3:2:0:0:
256,96,164666,1,2,3:2:0:0:
28,192,164889,5,2,1:2:0:0:
60,192,165000,1,0,2:2:0:0:
92,192,165111,1,0,3:2:0:0:
124,192,165222,1,0,2:2:0:0:
156,192,165333,2,0,B|196:224|196:224|156:256,1,100,0|0,3:2|2:2,0:0:0:0:
44,336,165555,1,2,1:2:0:0:
28,88,165778,5,2,1:2:0:0:
60,88,165889,1,0,2:2:0:0:
92,88,166000,1,0,3:2:0:0:
124,88,166111,1,0,2:2:0:0:
156,88,166222,2,0,B|196:120|196:120|156:152,1,100,0|0,3:2|2:2,0:0:0:0:
44,232,166444,1,2,1:2:0:0:
72,0,166666,6,0,B|104:0|104:0|208:0|240:44|240:44|256:56|256:56|272:44|272:44|304:0|404:0|404:0|444:0,2,400,6|0|0,1:2|3:2|3:2,0:0:0:0:
48,32,167666,1,0,0:0:0:0:
48,32,167777,1,0,0:0:0:0:
124,196,167999,5,4,1:2:0:0:
124,252,168110,1,2,3:2:0:0:
124,308,168221,1,0,3:2:0:0:
164,344,168332,2,0,B|188:272|188:272|212:344,1,150.000005722046,0|0,1:2|3:2,0:0:0:0:
256,340,168666,1,0,1:2:0:0:
256,340,168777,1,2,3:2:0:0:
284,292,168888,2,0,B|308:364|308:364|332:292,1,150.000005722046,4|0,1:2|3:2,0:0:0:0:
364,340,169221,2,0,B|388:268|388:268|412:340,1,150.000005722046,0|0,1:2|3:2,0:0:0:0:
444,292,169555,1,0,1:2:0:0:
420,120,169777,6,0,B|468:168|468:168|380:216|380:216|416:264,2,225.000008583069,4|0|0,1:2|1:2|1:2,0:0:0:0:
308,144,170555,1,2,3:2:0:0:
308,144,170666,2,0,B|352:124|352:124|352:76|352:76|404:56,1,150.000005722046,4|0,1:2|3:2,0:0:0:0:
444,48,170999,1,0,1:2:0:0:
444,96,171110,1,2,3:2:0:0:
256,96,171332,1,0,3:2:0:0:
152,192,171555,6,0,B|152:136|152:136|64:96,1,150.000005722046,4|0,1:2|3:2,0:0:0:0:
24,76,171888,1,0,1:2:0:0:
208,0,172110,2,0,L|112:0,2,75.0000028610231,0|0|2,3:2|1:2|3:2,0:0:0:0:
252,28,172443,1,4,1:2:0:0:
252,28,172555,1,2,1:2:0:0:
184,192,172777,2,0,B|200:144|200:144|316:144,1,150.000005722046,0|0,1:2|3:2,0:0:0:0:
388,192,173110,2,0,L|388:272,1,75.0000028610231,0|2,1:2|3:2,0:0:0:0:
336,280,173332,5,4,1:2:0:0:
316,332,173443,2,0,L|232:332,1,75.0000028610231,2|0,1:2|3:2,0:0:0:0:
208,376,173666,2,0,B|208:304|208:304|148:248,1,150.000005722046,0|0,1:2|3:2,0:0:0:0:
136,240,173999,1,0,1:2:0:0:
256,96,174221,5,4,1:2:0:0:
228,96,174332,1,2,3:2:0:0:
228,124,174443,1,0,3:2:0:0:
256,124,174555,1,2,3:2:0:0:
288,124,174666,1,0,3:2:0:0:
288,156,174777,1,2,3:2:0:0:
256,160,174888,1,0,3:2:0:0:
256,160,174999,1,2,3:2:0:0:
256,228,175110,6,0,L|360:228,2,75.0000028610231,4|2|0,1:2|3:2|3:2,0:0:0:0:
200,292,175443,2,0,L|152:352,2,75.0000028610231,0|2|0,1:2|3:2|3:2,0:0:0:0:
280,292,175777,2,0,L|372:292,1,75.0000028610231,0|2,1:2|3:2,0:0:0:0:
468,300,175999,6,0,B|436:328|436:328|436:372,2,75.0000028610231,4|2|0,1:2|3:2|3:2,0:0:0:0:
416,248,176332,2,0,B|436:216|436:216|480:216,2,75.0000028610231,0|2|0,1:2|3:2|3:2,0:0:0:0:
360,204,176666,2,0,B|332:180|332:180|332:128,1,75.0000028610231,0|2,1:2|3:2,0:0:0:0:
332,116,176888,1,4,1:2:0:0:
332,316,177110,5,0,3:2:0:0:
332,240,177221,2,0,B|304:208|304:208|192:208,1,150.000005722046,0|0,1:2|3:2,0:0:0:0:
156,248,177555,2,0,L|156:148,1,75.0000028610231,0|2,1:2|3:2,0:0:0:0:
104,112,177777,1,4,1:2:0:0:
104,112,177888,2,0,B|140:68|140:68|188:68,2,75.0000028610231,2|0|0,1:2|3:2|1:2,0:0:0:0:
40,76,178221,2,0,L|40:232,1,150.000005722046,2|0,3:2|1:2,0:0:0:0:
124,344,178666,6,0,B|108:380|108:380|92:344,2,75.0000028610231,4|2|0,1:2|1:2|3:2,0:0:0:0:
108,300,178999,1,2,1:2:0:0:
256,92,179332,1,0,3:2:0:0:
480,56,179555,1,4,1:2:0:0:
480,4,179666,1,2,3:2:0:0:
256,40,179888,1,0,1:2:0:0:
256,144,180221,5,0,1:2:0:0:
256,212,180443,1,4,1:2:0:0:
256,280,180666,1,0,1:2:0:0:
220,344,180888,2,0,B|200:312|200:312|180:344,2,75.0000028610231,2|0|2,3:2|3:2|1:2,0:0:0:0:
292,344,181221,1,0,0:0:0:0:
256,192,181332,12,2,182110,3:2:0:0:
256,328,182221,6,0,B|256:256|256:256|184:204,1,150.000005722046,4|0,1:2|3:2,0:0:0:0:
132,244,182555,2,0,B|216:176|216:176|216:84,1,200,0|0,1:2|3:2,0:0:0:0:
160,40,182888,2,0,B|184:76|184:76|244:76,1,100,0|2,1:2|3:2,0:0:0:0:
300,40,183110,6,0,B|260:72|260:72|260:124,1,100,4|2,1:2|3:2,0:0:0:0:
348,168,183332,1,0,3:2:0:0:
440,128,183443,2,0,B|492:168|492:168|492:208,1,100,0|2,1:2|3:2,0:0:0:0:
500,308,183666,1,0,3:2:0:0:
500,308,183777,1,0,1:2:0:0:
500,308,183888,1,2,3:2:0:0:
400,308,183999,6,0,B|400:256|400:256|344:224,1,100,4|2,1:2|3:2,0:0:0:0:
264,204,184221,1,0,3:2:0:0:
188,268,184332,2,0,B|144:304|144:304|96:304,1,100,0|2,1:2|3:2,0:0:0:0:
24,240,184555,1,0,3:2:0:0:
24,240,184666,1,0,1:2:0:0:
104,184,184777,1,2,3:2:0:0:
104,84,184888,6,0,B|104:52|104:52|168:28,1,100,4|2,1:2|3:2,0:0:0:0:
268,28,185110,1,0,3:2:0:0:
352,84,185221,1,0,1:2:0:0:
268,140,185332,2,0,B|268:192|268:192|304:228,2,100,2|0|0,3:2|3:2|3:2,0:0:0:0:
168,140,185666,2,0,B|168:196|168:196|132:232,1,100,0|4,0:0|1:2,0:0:0:0:
52,272,185888,5,2,3:2:0:0:
52,272,185999,1,0,3:2:0:0:
152,272,186110,2,0,B|204:260|204:260|252:272,1,100,0|2,1:2|3:2,0:0:0:0:
344,304,186332,1,0,3:2:0:0:
344,204,186443,2,0,B|380:176|380:176|436:176,1,100,0|2,1:2|3:2,0:0:0:0:
504,104,186666,5,4,1:2:0:0:
436,32,186777,2,0,B|404:72|404:72|336:72,1,100,2|0,1:2|3:2,0:0:0:0:
288,0,186999,2,0,B|288:68|288:68|264:92,2,100,0|2|0,1:2|3:2|3:2,0:0:0:0:
192,28,187332,2,0,L|76:28,1,100,0|2,1:2|3:2,0:0:0:0:
20,100,187555,5,4,1:2:0:0:
120,100,187666,2,0,B|164:120|164:120|164:180,1,100,2|0,1:2|3:2,0:0:0:0:
96,244,187888,2,0,L|200:244,2,100,0|2|0,1:2|3:2|3:2,0:0:0:0:
28,316,188221,2,0,L|132:316,1,100,0|2,1:2|3:2,0:0:0:0:
220,316,188443,5,4,1:2:0:0:
280,328,188555,1,2,3:2:0:0:
332,368,188666,1,0,3:2:0:0:
392,380,188778,1,2,3:2:0:0:
388,328,188888,1,0,3:2:0:0:
420,300,188999,1,2,3:2:0:0:
452,300,189110,1,0,3:2:0:0:
452,320,189221,1,2,3:2:0:0:
512,300,189332,6,0,B|512:240|512:240|468:208,1,100,4|2,1:2|3:2,0:0:0:0:
392,164,189555,1,0,3:2:0:0:
292,164,189666,2,0,B|312:116|312:116|292:68,2,100,0|2|0,1:2|3:2|3:2,0:0:0:0:
192,164,189999,2,0,B|168:212|168:212|116:232,1,100,0|2,1:2|3:2,0:0:0:0:
116,328,190221,6,0,B|172:308|172:308|228:308,1,100,4|2,1:2|3:2,0:0:0:0:
312,308,190443,1,0,3:2:0:0:
256,224,190555,2,0,B|232:176|232:176|256:136,1,100,0|2,1:2|3:2,0:0:0:0:
304,48,190777,1,0,3:2:0:0:
392,96,190888,2,0,B|432:128|432:128|472:96,1,100,0|2,1:2|3:2,0:0:0:0:
472,0,191110,6,0,L|368:0,1,100,4|2,1:2|3:2,0:0:0:0:
328,92,191332,1,0,3:2:0:0:
328,192,191443,2,0,L|220:192,2,100,0|2|0,1:2|1:2|3:2,0:0:0:0:
328,292,191777,2,0,L|428:292,1,100,0|2,1:2|3:2,0:0:0:0:
476,204,191999,5,4,1:2:0:0:
396,144,192110,2,0,B|396:88|396:88|352:60,1,100,2|0,1:2|3:2,0:0:0:0:
264,96,192332,2,0,B|264:60|264:60|224:40|224:40|184:60|184:60|184:136,1,200,0|0,1:2|3:2,0:0:0:0:
184,236,192666,2,0,B|232:212|232:212|272:236,1,100,0|2,1:2|3:2,0:0:0:0:
348,300,192888,1,4,1:2:0:0:
248,304,192999,2,0,L|144:304,1,100,2|0,1:2|3:2,0:0:0:0:
48,304,193221,2,0,B|4:264|4:264|4:168|4:168|44:128|44:128|132:128,1,300,2|0,1:2|3:2,0:0:0:0:
208,196,193666,5,0,0:0:0:0:
208,196,193777,2,0,B|260:196|260:196|296:148,1,100,4|2,1:2|3:2,0:0:0:0:
344,76,193999,1,0,1:2:0:0:
244,76,194110,2,0,B|208:104|208:104|208:160,2,100,0|2|0,1:2|3:2|3:2,0:0:0:0:
184,4,194443,2,0,B|184:40|184:40|128:84,1,100,0|2,1:2|3:2,0:0:0:0:
112,12,194666,6,0,B|120:64|120:64|112:112,1,100,4|2,1:2|3:2,0:0:0:0:
32,172,194888,1,0,1:2:0:0:
112,232,194999,2,0,B|120:284|120:284|112:332,1,100,0|2,1:2|3:2,0:0:0:0:
184,352,195221,1,0,3:2:0:0:
256,368,195332,6,0,B|296:336|296:336|360:336,1,100,2|0,1:2|0:0,0:0:0:0:
396,248,195555,5,4,1:2:0:0:
348,216,195666,1,2,3:2:0:0:
288,216,195777,1,0,3:2:0:0:
228,216,195888,1,2,3:2:0:0:
212,256,195999,1,0,3:2:0:0:
172,256,196110,1,2,3:2:0:0:
152,256,196221,1,0,3:2:0:0:
140,256,196332,1,2,3:2:0:0:
140,188,196443,5,4,1:2:0:0:
180,124,196555,1,2,3:2:0:0:
256,124,196666,1,0,3:2:0:0:
332,124,196777,1,0,1:2:0:0:
364,192,196888,2,0,B|332:240|332:240|284:240,1,100,2|0,3:2|3:2,0:0:0:0:
232,192,197110,2,0,L|232:92,1,100,0|0,1:2|0:0,0:0:0:0:
176,40,197332,5,0,0:0:0:0:
108,64,197443,1,0,0:0:0:0:
76,128,197555,1,0,0:0:0:0:
8,152,197666,1,0,0:0:0:0:
40,216,197777,5,0,0:0:0:0:
248,216,197999,1,0,0:0:0:0:
100,216,198221,1,0,0:0:0:0:
188,216,198443,1,0,0:0:0:0:
144,216,198666,5,0,1:2:0:0:
256,0,199332,5,0,3:2:0:0:
368,216,199999,5,0,3:2:0:0:
432,248,200221,2,0,L|488:248,2,50,2|0|0,2:2|2:2|2:2,0:0:0:0:
348,304,200666,5,0,3:2:0:0:
68,192,201332,5,0,1:2:0:0:
0,236,201554,2,0,L|0:288,2,50,2|0|0,2:2|0:0|2:2,0:0:0:0:
0,136,201999,5,0,3:2:0:0:
80,36,202221,2,0,P|128:20|176:36,1,100,2|0,2:2|2:2,0:0:0:0:
172,220,202666,5,8,3:2:0:0:
220,280,202888,1,10,2:2:0:0:
244,312,202999,1,0,0:0:0:0:
268,340,203110,1,0,2:2:0:0:
328,300,203332,5,8,3:2:0:0:
384,260,203554,1,10,3:2:0:0:
384,296,203777,1,0,3:2:0:0:
256,232,203999,6,0,P|304:192|352:192,1,100,0|2,1:2|2:2,0:0:0:0:
376,192,204332,1,0,2:2:0:0:
376,192,204443,1,0,2:2:0:0:
372,100,204666,5,0,3:2:0:0:
320,60,204888,1,2,2:2:0:0:
268,100,205110,1,0,2:2:0:0:
184,192,205332,6,0,P|200:148|184:100,1,100,0|2,3:2|2:2,0:0:0:0:
164,76,205666,1,0,2:2:0:0:
164,76,205777,1,0,2:2:0:0:
44,144,205999,5,0,3:2:0:0:
52,212,206221,1,2,3:2:0:0:
108,172,206443,1,0,3:2:0:0:
104,296,206666,6,0,L|208:296,2,100,0|2|0,1:2|2:2|2:2,0:0:0:0:
296,328,207332,2,0,L|192:328,2,100,0|2|0,3:2|2:2|2:2,0:0:0:0:
104,360,207999,5,8,3:2:0:0:
176,360,208221,1,10,2:2:0:0:
248,360,208443,1,0,2:2:0:0:
348,276,208666,1,8,3:2:0:0:
324,344,208888,2,0,P|348:308|372:344,1,100,10|0,3:2|3:2,0:0:0:0:
472,244,209332,5,0,1:2:0:0:
512,108,209554,1,2,2:2:0:0:
408,12,209777,1,0,2:2:0:0:
104,12,209999,5,0,3:2:0:0:
0,108,210222,1,2,2:2:0:0:
40,244,210444,1,0,2:2:0:0:
256,328,210666,5,0,3:2:0:0:
256,56,210888,1,2,2:2:0:0:
256,328,211110,1,0,2:2:0:0:
148,124,211332,6,0,P|84:164|4:136,1,150.000005722046,0|2,3:2|3:2,0:0:0:0:
64,4,211777,1,0,3:2:0:0:
280,68,211999,5,0,1:2:0:0:
220,284,212221,1,2,2:2:0:0:
332,384,212443,1,0,2:2:0:0:
416,260,212666,5,0,3:2:0:0:
492,260,212888,1,2,2:2:0:0:
492,336,213110,1,0,2:2:0:0:
368,152,213332,6,0,P|344:216|264:216,2,150.000005722046,8|10|0,3:2|2:2|2:2,0:0:0:0:
144,232,213999,6,0,P|168:168|248:168,2,150.000005722046,8|10|0,3:2|3:2|3:2,0:0:0:0:
256,36,214665,5,0,1:2:0:0:
396,96,214888,1,2,2:2:0:0:
428,164,215110,1,0,2:2:0:0:
220,80,215332,5,0,3:2:0:0:
80,140,215555,1,2,2:2:0:0:
256,280,215777,1,0,2:2:0:0:
432,140,215999,6,0,P|420:212|480:244,2,150.000005722046,0|2|0,3:2|2:2|2:2,0:0:0:0:
256,0,216665,5,0,3:2:0:0:
392,64,216888,1,2,3:2:0:0:
320,84,217110,1,0,3:2:0:0:
320,232,217332,6,0,P|304:180|216:136,1,150.000005722046,0|2,1:2|2:2,0:0:0:0:
192,136,217777,1,0,2:2:0:0:
140,276,217999,6,0,P|174:233|161:136,1,150.000005722046,0|2,3:2|2:2,0:0:0:0:
256,24,218443,1,0,2:2:0:0:
368,124,218665,5,8,3:2:0:0:
292,112,218888,1,10,2:2:0:0:
356,152,219110,1,0,2:2:0:0:
496,152,219332,5,8,3:2:0:0:
256,300,219999,5,0,1:2:0:0:
112,340,220221,1,2,2:2:0:0:
132,336,220332,1,0,0:0:0:0:
152,332,220443,1,0,2:2:0:0:
256,84,220665,5,0,3:2:0:0:
256,8,220888,1,2,2:2:0:0:
408,8,221110,1,0,2:2:0:0:
512,120,221332,6,0,P|448:80|392:120,2,150.000005722046,0|2|0,3:2|2:2|2:2,0:0:0:0:
448,160,221999,5,0,3:2:0:0:
376,292,222221,1,2,3:2:0:0:
436,248,222443,1,0,3:2:0:0:
256,116,222665,5,0,1:2:0:0:
184,84,222888,1,2,2:2:0:0:
40,44,223110,1,0,2:2:0:0:
148,148,223332,5,0,3:2:0:0:
104,208,223554,1,2,2:2:0:0:
44,164,223777,1,0,2:2:0:0:
152,296,223999,6,0,P|96:240|28:252,2,150.000005722046,8|10|0,3:2|2:2|2:2,0:0:0:0:
256,84,224665,6,0,P|312:140|380:128,2,150.000005722046,8|10|0,3:2|3:2|3:2,0:0:0:0:
380,4,225332,5,0,1:2:0:0:
504,88,225554,1,2,2:2:0:0:
476,236,225777,1,0,2:2:0:0:
252,232,225999,5,0,3:2:0:0:
176,148,226221,1,2,2:2:0:0:
184,36,226443,1,0,2:2:0:0:
324,84,226665,5,0,3:2:0:0:
288,152,226888,1,2,2:2:0:0:
248,88,227110,1,0,2:2:0:0:
136,192,227332,5,0,3:2:0:0:
156,340,227554,1,2,3:2:0:0:
112,220,227777,1,0,3:2:0:0:
296,192,227999,6,0,P|256:248|252:332,2,150.000005722046,0|2|0,1:2|2:2|2:2,0:0:0:0:
336,336,228665,6,0,P|279:287|316:228,2,150.000005722046,0|2|0,3:2|2:2|2:2,0:0:0:0:
376,248,229332,6,0,P|342:311|389:302,2,150.000005722046,8|10|0,3:2|2:2|2:2,0:0:0:0:
372,280,229999,5,8,3:2:0:0:
400,300,230221,1,10,3:2:0:0:
404,268,230443,1,0,3:2:0:0:
512,256,230665,6,0,P|256:120|0:256,2,600,4|0|0,1:2|0:0|0:0,0:0:0:0:
