osu file format v14

[General]
AudioFilename: audio.mp3
AudioLeadIn: 0
PreviewTime: 104672
Countdown: 0
SampleSet: Soft
StackLeniency: 0.4
Mode: 0
LetterboxInBreaks: 0
WidescreenStoryboard: 1

[Editor]
DistanceSpacing: 2
BeatDivisor: 4
GridSize: 32
TimelineZoom: 5.599997

[Metadata]
Title:Shining Sprinter
TitleUnicode:Shining Sprinter
Artist:Megawolf77
ArtistUnicode:Megawolf77
Creator:cYsmix1
Version:Running~~!
Source:
Tags:megawolf77 dubstep Shiny day shinyday 밝은날 경쾌하고 좋은 노래 Shine Sprinter eurobeat geometrydash doubledash demon 光速
BeatmapID:3743209
BeatmapSetID:1774059

[Difficulty]
HPDrainRate:6
CircleSize:3.8
OverallDifficulty:7
ApproachRate:9.6
SliderMultiplier:2.5
SliderTickRate:4

[Events]
//Background and Video events
0,0,"speed of light.jpg",0,0
//Break Periods
//Storyboard Layer 0 (Background)
//Storyboard Layer 1 (Fail)
//Storyboard Layer 2 (Pass)
//Storyboard Layer 3 (Foreground)
//Storyboard Layer 4 (Overlay)
//Storyboard Sound Samples

[TimingPoints]
126.865874830622,363.636363636364,4,2,1,50,1,0
672,-151.515151515152,4,2,1,50,0,0
1581,-200,4,2,1,50,0,0
3035,-131.578947368421,4,2,1,50,0,0
3581,-200,4,2,1,50,0,0
8854,-133.333333333333,4,2,1,50,0,0
10308,-200,4,2,1,50,0,0
11399,-100,4,2,2,100,0,0
23035,-33.3333333333333,4,2,1,100,0,0
23399,-50,4,2,10,60,0,1
23581,-50,4,2,2,100,0,1
24490,-66.6666666666667,4,2,2,100,0,1
24854,-50,4,2,2,100,0,1
26854,-66.6666666666667,4,2,2,100,0,1
28490,-50,4,2,1,100,0,1
28763,-66.6666666666667,4,2,2,100,0,1
29217,-50,4,2,2,100,0,1
29945,-66.6666666666667,4,2,2,100,0,1
34308,-40,4,2,2,100,0,1
34763,-100,4,2,2,100,0,1
35035,-100,4,2,1,100,0,0
35581,-66.6666666666667,4,2,1,100,0,0
36490,-100,4,2,1,100,0,0
37035,-66.6666666666667,4,2,1,100,0,0
40854,-100,4,2,1,100,0,0
41399,-66.6666666666667,4,2,1,100,0,0
42308,-100,4,2,1,100,0,0
42854,-66.6666666666667,4,2,1,100,0,0
44490,-50,4,2,2,100,0,0
46672,-100,4,2,1,100,0,0
55763,-100,4,2,2,100,0,0
56126,-100,4,2,2,100,0,0
59035,-66.6666666666667,4,2,2,100,0,0
64126,-66.6666666666667,4,2,2,100,0,0
68490,-100,4,2,2,100,0,0
69217,-66.6666666666667,4,2,2,100,0,0
70945,-50,4,2,2,100,0,0
73035,-66.6666666666667,4,2,2,100,0,0
77945,-66.6666666666667,4,2,2,100,0,0
79581,-66.6666666666667,4,2,2,100,0,0
82308,-66.6666666666667,4,2,2,100,0,0
84126,-66.6666666666667,4,2,2,100,0,0
85217,-66.6666666666667,4,2,2,100,0,0
93217,-66.6666666666667,4,2,10,45,0,1
93399,-66.6666666666667,4,2,2,100,0,1
93945,-50,4,2,2,100,0,1
95399,-50,4,2,2,100,0,1
99035,-50,4,2,2,100,0,1
102854,-50,4,2,2,100,0,1
104490,-50,4,2,2,100,0,0
104854,-40,4,2,10,45,0,1
105217,-40,4,2,2,100,0,1
105945,-50,4,2,2,100,0,1
107035,-40,4,2,2,100,0,1
109217,-40,4,2,2,100,0,1
116490,-166.666666666667,4,2,1,100,0,0

[Colours]
Combo1 : 128,0,128
Combo2 : 128,128,255
Combo3 : 0,0,160

[HitObjects]
45,66,126,22,0,P|116:160|156:78,1,250
156,246,672,2,0,P|233:317|137:358,1,247.49999924469
227,74,1581,6,0,B|342:-27|358:140|474:62,1,250
257,167,2672,1,0,0:0:0:0:
82,146,3035,54,0,P|120:77|116:153,1,189.999997680664
251,172,3581,2,0,P|294:233|284:158,1,187.5
227,74,4490,6,0,B|314:133|310:7|421:84,1,187.5
73,272,5217,1,0,0:0:0:0:
243,149,5581,1,0,0:0:0:0:
70,99,5945,54,0,P|128:174|205:121,2,187.5
162,90,7399,5,0,0:0:0:0:
369,163,7763,1,0,0:0:0:0:
105,238,8126,2,0,B|176:205|232:260,1,125
94,74,8854,54,0,P|241:46|290:72,1,187.500007152558
106,149,9399,2,0,P|164:200|303:194,1,187.500007152558
313,131,9945,1,0,0:0:0:0:
89,143,10308,6,0,B|140:184|140:184|189:150,2,125
152,75,11399,5,8,0:0:0:0:
166,99,11490,1,8,0:0:0:0:
179,127,11581,1,8,0:0:0:0:
61,167,11763,5,2,0:0:0:0:
141,271,11945,2,0,L|188:201,2,62.5
253,285,12308,1,0,0:0:0:0:
299,279,12398,1,0,0:0:0:0:
343,263,12489,1,0,0:0:0:0:
382,238,12580,1,0,0:0:0:0:
415,205,12671,1,0,0:0:0:0:
265,90,12854,2,0,L|391:35,1,125
243,324,13217,5,0,0:0:0:0:
183,212,13399,1,0,0:0:0:0:
295,152,13581,1,0,0:0:0:0:
355,264,13763,1,0,0:0:0:0:
81,242,13945,5,2,0:0:0:0:
206,241,14126,2,0,L|266:188,2,62.5,2|0|0,0:0|0:0|0:0,0:0:0:0:
350,272,14490,1,0,0:0:0:0:
451,217,14672,5,2,0:0:0:0:
371,113,14854,2,0,L|324:183,2,62.5
259,99,15217,1,0,0:0:0:0:
213,105,15307,1,0,0:0:0:0:
169,121,15398,1,0,0:0:0:0:
130,146,15489,1,0,0:0:0:0:
97,179,15580,1,0,0:0:0:0:
247,294,15763,2,0,L|121:349,1,125
268,59,16126,5,0,0:0:0:0:
328,171,16308,1,0,0:0:0:0:
216,231,16490,1,0,0:0:0:0:
156,119,16672,1,0,0:0:0:0:
431,142,16854,5,2,0:0:0:0:
306,143,17035,2,0,L|246:196,2,62.5,2|0|0,0:0|0:0|0:0,0:0:0:0:
179,70,17399,1,0,0:0:0:0:
129,309,17581,6,0,P|135:240|186:186,1,125
383,75,17945,2,0,P|377:144|326:198,1,125
373,318,18308,2,0,P|311:315|261:279,1,125
138,65,18672,2,0,P|200:68|250:104,1,125
26,205,19035,54,0,P|93:225|160:166,1,125
158,125,19308,1,0,0:0:0:0:
215,190,19399,2,0,P|282:210|349:151,1,125
286,124,19672,1,0,0:0:0:0:
370,127,19763,6,0,P|394:182|373:240,1,125
322,309,20126,2,0,B|276:384|276:384|187:315,1,187.5
289,114,20490,6,0,P|360:86|445:110,1,125
408,190,20854,1,0,0:0:0:0:
405,331,21035,1,0,0:0:0:0:
274,194,21217,1,0,0:0:0:0:
271,326,21399,1,0,0:0:0:0:
171,300,21581,6,0,L|108:267,1,62.5
230,105,21763,5,0,0:0:0:0:
198,134,21853,1,0,0:0:0:0:
166,164,21944,1,0,0:0:0:0:
134,194,22035,1,0,0:0:0:0:
102,224,22126,1,0,0:0:0:0:
194,290,22308,5,0,0:0:0:0:
226,260,22399,1,0,0:0:0:0:
258,230,22490,1,0,0:0:0:0:
290,200,22581,1,0,0:0:0:0:
322,171,22671,1,0,0:0:0:0:
369,95,23035,37,0,0:0:0:0:
369,95,23126,1,0,0:0:0:0:
369,95,23217,1,0,0:0:0:0:
65,174,23399,38,0,P|185:113|321:71,1,250,4|0,0:0|0:0,0:0:0:0:
294,77,23672,1,0,0:0:0:0:
294,77,23763,2,0,P|355:197|397:333,1,250
270,297,24126,5,0,0:0:0:0:
234,280,24216,1,0,0:0:0:0:
199,264,24307,1,0,0:0:0:0:
164,248,24398,1,0,0:0:0:0:
135,222,24490,2,0,P|106:179|206:167,1,187.500007152558
306,206,24854,53,8,0:0:0:0:
411,80,25035,1,4,0:0:0:0:
148,156,25217,1,0,0:0:0:0:
251,20,25399,1,12,0:0:0:0:
53,267,25581,6,0,P|113:185|247:78,1,250
226,90,25945,2,0,P|308:150|415:284,1,250
87,154,26308,53,4,0:0:0:0:
87,154,26399,1,0,0:0:0:0:
87,154,26490,2,0,P|148:151|340:58,1,250
342,129,26854,2,0,L|323:220,1,93.7500035762788
187,193,27035,5,0,0:0:0:0:
204,157,27125,1,0,0:0:0:0:
220,122,27216,1,0,0:0:0:0:
236,87,27307,1,0,0:0:0:0:
262,58,27399,2,0,P|305:29|317:129,1,187.500007152558
372,248,27763,53,8,0:0:0:0:
421,73,27945,1,4,0:0:0:0:
174,219,28126,1,0,0:0:0:0:
248,60,28308,1,0,0:0:0:0:
431,145,28490,6,0,P|322:213|256:317,1,250,2|0,0:0|0:0,0:0:0:0:
177,307,28763,1,0,0:0:0:0:
177,307,28854,1,0,0:0:0:0:
177,307,28945,1,0,0:0:0:0:
177,307,29035,1,0,0:0:0:0:
133,92,29217,54,0,P|245:65|417:68,1,250,4|0,0:0|0:0,0:0:0:0:
379,62,29490,1,0,0:0:0:0:
379,62,29581,2,0,P|406:174|403:346,1,250
358,325,29945,5,0,0:0:0:0:
322,308,30035,1,0,0:0:0:0:
287,292,30126,1,0,0:0:0:0:
252,276,30217,1,0,0:0:0:0:
223,250,30309,2,0,P|194:207|294:195,1,187.500007152558
439,136,30672,53,0,0:0:0:0:
271,268,30854,1,4,0:0:0:0:
135,147,31035,1,0,0:0:0:0:
312,24,31217,1,4,0:0:0:0:
29,276,31399,6,0,P|82:204|187:146,1,187.500007152558
249,159,31763,2,0,P|329:207|385:282,1,187.500007152558
372,304,32126,5,4,0:0:0:0:
315,294,32216,1,0,0:0:0:0:
268,260,32307,1,0,0:0:0:0:
243,208,32398,1,0,0:0:0:0:
243,151,32489,1,0,0:0:0:0:
270,100,32580,1,0,0:0:0:0:
317,67,32671,1,0,0:0:0:0:
228,121,32854,37,0,0:0:0:0:
84,203,33035,6,0,L|80:326,1,93.7500035762788
220,220,33217,2,0,L|224:97,1,93.7500035762788
354,217,33399,2,0,L|350:340,1,93.7500035762788
372,304,33581,5,4,0:0:0:0:
315,294,33671,1,0,0:0:0:0:
268,260,33762,1,0,0:0:0:0:
243,208,33853,1,0,0:0:0:0:
243,151,33944,1,0,0:0:0:0:
270,100,34035,1,0,0:0:0:0:
317,67,34126,1,0,0:0:0:0:
136,157,34308,38,2,B|279:-36|301:181|301:181|477:361|450:38,1,625
389,48,34763,2,0,L|326:84,2,62.5
106,83,35035,38,0,P|49:258|114:289,1,250
186,162,35581,2,0,P|223:135|270:132,1,93.7500035762788
314,252,35763,2,0,P|276:279|230:282,1,93.7500035762788
299,168,36035,1,0,0:0:0:0:
299,168,36126,1,0,0:0:0:0:
187,70,36308,1,0,0:0:0:0:
374,69,36490,6,0,P|431:244|366:275,1,250
424,310,37035,2,0,P|387:337|340:340,1,93.7500035762788
306,192,37217,2,0,P|343:165|390:162,1,93.7500035762788
209,160,37490,1,0,0:0:0:0:
209,160,37581,1,0,0:0:0:0:
344,113,37763,1,0,0:0:0:0:
90,88,37945,37,2,0:0:0:0:
230,69,38126,1,2,0:0:0:0:
358,81,38308,1,2,0:0:0:0:
437,165,38490,6,0,L|304:240,1,93.7500035762788
249,220,38672,1,0,0:0:0:0:
249,220,38763,1,0,0:0:0:0:
249,220,38854,1,0,0:0:0:0:
249,220,38945,1,0,0:0:0:0:
249,220,39035,2,0,P|333:168|447:144,1,187.500007152558
206,41,39399,6,0,P|330:42|397:114,1,187.500007152558
412,166,39763,2,0,P|411:290|339:357,1,187.500007152558
367,276,40126,37,2,0:0:0:0:
367,276,40217,1,2,0:0:0:0:
367,276,40308,1,2,0:0:0:0:
367,276,40399,1,2,0:0:0:0:
367,276,40490,1,2,0:0:0:0:
215,301,40672,1,0,0:0:0:0:
210,119,40854,6,0,P|319:73|401:158,1,250
272,202,41399,2,0,L|182:265,1,93.7500035762788
160,189,41581,5,2,0:0:0:0:
160,189,41672,1,2,0:0:0:0:
349,176,41854,1,2,0:0:0:0:
349,176,41945,1,2,0:0:0:0:
245,292,42126,1,0,0:0:0:0:
216,81,42308,54,0,P|329:165|427:132,1,250
272,202,42854,2,0,L|182:265,1,93.7500035762788
147,150,43035,1,2,0:0:0:0:
147,150,43126,1,2,0:0:0:0:
342,155,43308,1,2,0:0:0:0:
342,155,43399,1,2,0:0:0:0:
237,56,43581,1,0,0:0:0:0:
431,63,43763,6,0,P|338:117|346:206,2,187.500007152558
305,234,44308,2,0,L|401:270,1,93.7500035762788
444,135,44490,53,0,0:0:0:0:
455,174,44581,1,0,0:0:0:0:
463,212,44672,1,0,0:0:0:0:
463,252,44763,1,0,0:0:0:0:
442,288,44854,5,0,0:0:0:0:
412,318,44944,1,0,0:0:0:0:
372,329,45035,1,0,0:0:0:0:
329,334,45126,1,0,0:0:0:0:
351,201,45217,37,0,0:0:0:0:
351,201,45399,1,0,0:0:0:0:
351,201,45581,1,0,0:0:0:0:
65,65,45945,5,0,0:0:0:0:
65,65,46126,1,0,0:0:0:0:
229,327,46490,5,0,0:0:0:0:
91,190,46672,5,0,0:0:0:0:
277,77,47035,1,0,0:0:0:0:
262,168,47217,5,2,0:0:0:0:
262,168,47308,1,2,0:0:0:0:
157,298,47490,1,2,0:0:0:0:
157,298,47581,1,2,0:0:0:0:
371,296,47763,1,0,0:0:0:0:
399,120,47945,1,0,0:0:0:0:
97,184,48126,53,0,0:0:0:0:
282,64,48490,1,0,0:0:0:0:
295,233,48672,5,2,0:0:0:0:
295,233,48763,1,2,0:0:0:0:
91,280,48945,1,2,0:0:0:0:
91,280,49035,1,2,0:0:0:0:
252,327,49217,1,0,0:0:0:0:
358,178,49399,1,0,0:0:0:0:
347,48,49581,54,0,L|457:143,2,125
219,124,50126,1,0,0:0:0:0:
219,124,50217,1,0,0:0:0:0:
186,240,50308,6,0,L|322:183,1,125
301,191,50581,1,0,0:0:0:0:
305,195,50672,2,0,L|425:308,1,125
151,315,51035,5,0,0:0:0:0:
62,226,51217,1,0,0:0:0:0:
174,152,51399,1,0,0:0:0:0:
204,173,51489,1,0,0:0:0:0:
234,195,51580,1,0,0:0:0:0:
350,209,51763,6,0,L|268:324,3,125
406,54,52490,22,0,L|265:135,2,125
113,186,53035,1,2,0:0:0:0:
113,186,53126,1,2,0:0:0:0:
361,185,53308,1,2,0:0:0:0:
361,185,53399,1,2,0:0:0:0:
220,287,53581,1,0,0:0:0:0:
225,175,53763,1,0,0:0:0:0:
406,54,53945,6,0,L|265:135,2,125
93,228,54490,1,2,0:0:0:0:
93,228,54581,1,2,0:0:0:0:
308,242,54763,1,2,0:0:0:0:
308,242,54854,1,2,0:0:0:0:
206,147,55035,1,0,0:0:0:0:
203,250,55217,1,0,0:0:0:0:
348,131,55399,37,0,0:0:0:0:
392,266,55763,5,0,0:0:0:0:
353,244,55854,1,0,0:0:0:0:
347,199,55945,1,0,0:0:0:0:
375,166,56035,1,0,0:0:0:0:
343,135,56126,5,0,0:0:0:0:
313,164,56217,1,0,0:0:0:0:
293,203,56308,1,0,0:0:0:0:
295,250,56399,1,0,0:0:0:0:
308,290,56490,5,0,0:0:0:0:
338,322,56581,1,0,0:0:0:0:
381,311,56672,1,0,0:0:0:0:
420,292,56763,1,0,0:0:0:0:
458,269,56854,1,0,0:0:0:0:
87,219,57035,5,0,0:0:0:0:
87,219,57217,1,0,0:0:0:0:
380,59,57581,5,0,0:0:0:0:
380,59,57763,1,0,0:0:0:0:
325,118,57945,2,0,L|317:216,3,62.5
102,285,58308,6,0,P|90:218|134:169,1,125
259,198,58672,2,0,P|271:265|227:314,1,125
341,98,58945,1,0,0:0:0:0:
341,98,59035,6,0,P|337:149|362:206,1,93.7500035762788,8|0,0:0|0:0,0:0:0:0:
173,288,59217,2,0,P|177:237|152:180,1,93.7500035762788,8|0,0:0|0:0,0:0:0:0:
169,107,59399,2,0,P|213:93|259:98,1,93.7500035762788,8|0,0:0|0:0,0:0:0:0:
328,241,59581,2,0,P|284:255|238:251,1,93.7500035762788,8|0,0:0|0:0,0:0:0:0:
402,160,59763,6,0,L|276:315,1,187.500007152558
217,306,60126,2,0,L|60:182,1,187.500007152558
362,42,60399,1,0,0:0:0:0:
322,23,60490,5,0,0:0:0:0:
311,65,60580,1,0,0:0:0:0:
316,108,60671,1,0,0:0:0:0:
339,146,60762,1,0,0:0:0:0:
364,182,60853,1,0,0:0:0:0:
374,224,60944,1,0,0:0:0:0:
361,266,61035,1,0,0:0:0:0:
77,77,61217,6,0,P|164:109|265:97,1,187.500007152558
269,207,61581,2,0,P|194:194|73:213,1,187.500007152558
181,296,61854,1,0,0:0:0:0:
181,296,61945,1,0,0:0:0:0:
181,296,62035,6,0,L|283:261,3,93.7500035762788
180,131,62490,1,0,0:0:0:0:
431,77,62672,6,0,L|339:293,1,187.500007152558
357,249,63035,2,0,L|168:160,1,187.500007152558
325,333,63399,5,0,0:0:0:0:
353,300,63489,1,0,0:0:0:0:
381,268,63580,1,0,0:0:0:0:
410,235,63671,1,0,0:0:0:0:
430,270,63762,1,0,0:0:0:0:
449,309,63853,1,0,0:0:0:0:
468,347,63944,1,0,0:0:0:0:
230,305,64126,6,0,L|120:132,1,187.500007152558
282,79,64490,2,0,L|392:252,1,187.500007152558
185,174,64763,1,0,0:0:0:0:
185,174,64854,6,0,P|237:155|303:171,1,93.7500035762788
400,133,65035,2,0,P|419:185|403:251,1,93.7500035762788
344,307,65217,2,0,P|292:326|226:310,1,93.7500035762788
129,348,65398,2,0,P|110:296|126:230,1,93.7500035762788
352,50,65581,6,0,L|173:122,1,187.500007152558
178,119,65945,2,0,L|343:291,1,187.500007152558
89,301,66217,1,0,0:0:0:0:
89,301,66308,6,0,L|112:195,1,93.7500035762788
208,207,66490,2,0,L|228:326,1,93.7500035762788
315,306,66672,2,0,L|343:207,1,93.7500035762788
428,217,66854,2,0,L|453:320,1,93.7500035762788
209,94,67035,6,0,L|408:141,1,187.500007152558
391,137,67399,2,0,L|300:326,1,187.500007152558
88,206,67672,1,0,0:0:0:0:
88,206,67763,6,0,L|203:168,1,93.7500035762788
333,197,67945,2,0,L|427:269,1,93.7500035762788
107,308,68126,2,0,L|221:261,1,93.7500035762788
304,276,68308,2,0,L|393:350,1,93.7500035762788
60,121,68490,6,0,P|134:210|95:77,1,375
202,349,69217,5,0,0:0:0:0:
185,299,69307,1,0,0:0:0:0:
171,248,69398,1,0,0:0:0:0:
164,196,69489,1,0,0:0:0:0:
178,147,69580,1,0,0:0:0:0:
219,114,69671,1,0,0:0:0:0:
267,94,69762,1,0,0:0:0:0:
315,73,69853,1,0,0:0:0:0:
353,105,69945,6,0,P|404:128|469:118,2,93.7500035762788
204,246,70308,1,0,0:0:0:0:
365,180,70490,1,0,0:0:0:0:
79,225,70672,6,0,P|155:172|169:261,1,187.500007152558
79,225,70945,2,0,P|147:144|169:261,1,250
286,252,71217,1,0,0:0:0:0:
223,298,71399,5,0,0:0:0:0:
366,211,71581,1,0,0:0:0:0:
416,71,71763,1,0,0:0:0:0:
255,97,71945,1,0,0:0:0:0:
366,211,72126,1,0,0:0:0:0:
343,140,72490,6,0,P|463:221|334:182,1,375.000014305115
249,267,72854,1,0,0:0:0:0:
249,267,72945,1,0,0:0:0:0:
249,267,73035,6,0,L|345:212,2,93.7500035762788
209,172,73399,1,0,0:0:0:0:
50,118,73581,6,0,B|60:176|60:176|152:191|221:78,1,187.500007152558
176,135,73854,2,0,B|186:193|186:193|278:208|347:95,1,187.500007152558
335,155,74126,1,0,0:0:0:0:
352,37,74308,6,0,L|455:66,2,93.7500035762788
439,157,74672,1,0,0:0:0:0:
370,279,74854,1,0,0:0:0:0:
70,244,75035,6,0,L|154:144,3,93.7500035762788
187,211,75399,1,0,0:0:0:0:
182,252,75490,1,0,0:0:0:0:
175,290,75581,1,0,0:0:0:0:
165,327,75672,1,0,0:0:0:0:
170,37,75763,6,0,L|276:93,2,93.7500035762788
97,108,76126,1,0,0:0:0:0:
97,108,76308,1,0,0:0:0:0:
308,131,76490,6,0,L|160:253,1,187.500007152558
164,244,76763,2,0,L|391:317,1,187.500007152558
342,301,77035,1,0,0:0:0:0:
385,175,77217,6,0,L|281:226,2,93.7500035762788
156,150,77581,1,0,0:0:0:0:
75,52,77763,1,0,0:0:0:0:
39,321,77945,6,0,P|69:246|163:253,1,187.500007152558
163,253,78308,2,0,P|133:328|39:321,1,187.500007152558
26,353,78672,5,0,0:0:0:0:
61,352,78763,1,0,0:0:0:0:
101,351,78854,1,0,0:0:0:0:
140,347,78945,1,0,0:0:0:0:
179,336,79035,1,0,0:0:0:0:
213,322,79126,1,0,0:0:0:0:
250,313,79217,1,0,0:0:0:0:
116,273,79399,6,0,L|172:182,1,93.7500035762788
237,201,79581,2,0,L|244:316,1,93.7500035762788
319,294,79763,2,0,L|375:203,1,93.7500035762788
440,222,79945,2,0,L|447:337,1,93.7500035762788
71,93,80126,6,0,P|125:61|176:73,1,93.7500035762788
89,187,80308,2,0,P|121:152|165:138,1,93.7500035762788
252,65,80490,2,0,P|306:33|357:45,1,93.7500035762788
270,159,80672,2,0,P|301:124|345:110,1,93.7500035762788
106,345,80854,6,0,P|202:219|368:58,1,375.000014305115
357,236,81399,1,0,0:0:0:0:
43,309,81581,6,0,L|66:191,2,93.7500035762788
62,111,81945,1,0,0:0:0:0:
144,42,82126,1,0,0:0:0:0:
272,136,82308,6,0,L|479:193,1,187.500007152558
452,185,82581,2,0,L|342:370,1,187.500007152558
288,253,82854,1,0,0:0:0:0:
64,194,83035,5,0,0:0:0:0:
229,104,83217,1,0,0:0:0:0:
354,242,83399,1,0,0:0:0:0:
181,330,83581,1,0,0:0:0:0:
223,205,83763,1,0,0:0:0:0:
343,140,84126,6,0,P|463:221|334:182,1,375.000014305115
132,319,84672,6,0,L|202:214,2,93.7500035762788
224,146,85035,1,0,0:0:0:0:
356,207,85217,6,0,L|203:337,1,187.500007152558
213,328,85490,2,0,L|50:184,1,187.500007152558
224,220,85763,1,0,0:0:0:0:
309,68,85945,6,0,L|398:154,2,93.7500035762788
165,165,86308,1,0,0:0:0:0:
305,238,86490,1,0,0:0:0:0:
52,96,86672,5,0,0:0:0:0:
68,142,86763,1,0,0:0:0:0:
95,182,86854,1,0,0:0:0:0:
123,220,86945,1,0,0:0:0:0:
172,210,87035,1,0,0:0:0:0:
214,189,87126,1,0,0:0:0:0:
236,149,87217,1,0,0:0:0:0:
256,108,87308,1,0,0:0:0:0:
375,91,87399,6,0,L|395:199,2,93.7500035762788
357,250,87763,1,0,0:0:0:0:
266,339,87945,1,0,0:0:0:0:
30,310,88126,6,0,P|32:235|167:214,1,187.500007152558
124,191,88399,2,0,P|220:214|237:291,1,187.500007152558
236,291,88672,1,0,0:0:0:0:
233,157,88854,5,0,0:0:0:0:
233,157,88945,1,0,0:0:0:0:
233,157,89035,1,0,0:0:0:0:
334,172,89217,2,0,L|415:352,1,187.500007152558
71,225,89581,6,0,L|270:123,1,187.500007152558
327,162,89945,2,0,L|448:350,1,187.500007152558
141,97,90308,6,0,L|346:91,1,187.500007152558
328,91,90581,2,0,L|386:294,1,187.500007152558
379,271,90854,1,0,0:0:0:0:
193,257,91035,1,0,0:0:0:0:
193,257,91126,1,0,0:0:0:0:
193,257,91217,6,0,L|287:197,1,93.7500035762788
157,173,91399,2,0,L|261:109,1,93.7500035762788
340,118,91581,2,0,L|431:236,1,93.7500035762788
67,74,91763,6,0,B|155:155|155:155|237:129,1,187.500007152558
219,134,92035,2,0,B|313:163|313:163|411:105,1,187.500007152558
390,117,92308,1,0,0:0:0:0:
199,199,92490,2,0,L|95:368,1,187.500007152558
321,300,92763,5,0,0:0:0:0:
321,300,92854,1,0,0:0:0:0:
321,300,92945,1,0,0:0:0:0:
321,300,93036,1,0,0:0:0:0:
338,73,93217,54,8,L|147:168,1,187.500007152558,12|0,0:0|0:0,0:0:0:0:
171,157,93581,2,0,L|386:266,1,187.500007152558,8|0,0:0|0:0,0:0:0:0:
268,315,93854,1,0,0:0:0:0:
154,307,93945,6,0,P|92:251|89:194,1,125,8|0,0:0|0:0,0:0:0:0:
219,164,94126,2,0,P|281:220|284:277,1,125
348,345,94308,2,0,P|337:219|401:85,1,250,8|0,0:0|0:0,0:0:0:0:
67,180,94672,53,8,0:0:0:0:
313,69,94854,1,4,0:0:0:0:
160,284,95035,1,8,0:0:0:0:
400,151,95217,1,4,0:0:0:0:
67,221,95399,6,0,P|162:146|300:79,1,250,8|0,0:0|0:0,0:0:0:0:
276,87,95763,2,0,P|378:171|444:289,1,250,8|0,0:0|0:0,0:0:0:0:
62,140,96126,53,8,0:0:0:0:
62,140,96308,2,8,L|302:251,1,250,0|8,0:0|0:0,0:0:0:0:
247,339,96672,2,0,L|382:226,1,125
335,93,96854,6,0,L|219:178,1,125,8|0,0:0|0:0,0:0:0:0:
177,235,97035,2,0,L|210:355,1,125
293,300,97217,2,0,P|272:221|419:199,1,250,8|0,0:0|0:0,0:0:0:0:
149,161,97581,53,8,0:0:0:0:
230,352,97763,1,4,0:0:0:0:
382,231,97945,1,8,0:0:0:0:
149,161,98126,1,4,0:0:0:0:
66,269,98308,6,0,L|284:136,1,250,8|0,0:0|0:0,0:0:0:0:
279,138,98581,1,0,0:0:0:0:
316,180,98671,1,0,0:0:0:0:
354,222,98762,1,0,0:0:0:0:
391,265,98853,1,0,0:0:0:0:
130,171,99035,53,8,0:0:0:0:
130,171,99217,2,0,P|239:268|343:300,1,250,0|8,0:0|0:0,0:0:0:0:
281,182,99581,2,0,L|410:110,1,125
228,229,99763,6,0,P|284:167|341:164,1,125,8|0,0:0|0:0,0:0:0:0:
369,225,99945,2,0,P|313:287|256:290,1,125
250,368,100126,2,0,P|372:370|465:290,1,250,8|0,0:0|0:0,0:0:0:0:
87,89,100490,53,8,0:0:0:0:
369,258,100672,1,4,0:0:0:0:
105,288,100854,1,8,0:0:0:0:
87,89,101035,1,4,0:0:0:0:
373,62,101217,6,0,P|266:137|182:244,1,250,8|0,0:0|0:0,0:0:0:0:
191,228,101581,2,0,P|303:285|496:297,1,250,8|0,0:0|0:0,0:0:0:0:
65,120,101945,5,0,0:0:0:0:
121,109,102035,1,0,0:0:0:0:
178,111,102126,1,0,0:0:0:0:
234,127,102217,1,0,0:0:0:0:
284,154,102308,1,0,0:0:0:0:
328,191,102399,1,0,0:0:0:0:
362,237,102490,1,0,0:0:0:0:
193,288,102672,37,0,0:0:0:0:
330,66,102854,6,0,L|367:206,1,125
216,215,103035,2,0,L|194:51,1,125,8|0,0:0|0:0,0:0:0:0:
62,93,103217,2,0,L|73:244,1,125
119,335,103399,5,0,0:0:0:0:
173,354,103489,1,0,0:0:0:0:
230,356,103580,1,0,0:0:0:0:
285,343,103671,1,0,0:0:0:0:
335,314,103762,1,0,0:0:0:0:
374,272,103853,1,0,0:0:0:0:
399,220,103944,1,0,0:0:0:0:
21,167,104126,54,0,P|123:106|263:84,1,250,12|0,0:0|0:0,0:0:0:0:
250,83,104490,2,0,P|365:161|441:260,1,250,12|0,0:0|0:0,0:0:0:0:
127,181,104854,22,0,P|153:89|349:139,1,312.5,4|0,0:0|0:0,0:0:0:0:
382,203,105217,2,0,P|356:295|160:245,1,312.5
90,208,105581,5,0,0:0:0:0:
154,151,105672,1,0,0:0:0:0:
237,146,105763,1,0,0:0:0:0:
312,183,105854,1,0,0:0:0:0:
355,235,105945,2,0,B|221:297|221:297|112:253,1,250
84,117,106308,53,0,0:0:0:0:
410,215,106490,1,4,0:0:0:0:
70,198,106672,1,0,0:0:0:0:
413,124,106854,1,4,0:0:0:0:
90,74,107035,6,0,P|141:224|279:281,1,312.5,8|0,0:0|0:0,0:0:0:0:
267,279,107399,2,0,P|384:239|409:60,1,312.5
51,176,107763,54,0,P|118:112|204:79,1,156.25
299,96,107945,2,0,P|382:136|444:205,1,156.25
382,255,108126,2,0,P|327:322|230:344,1,156.25
180,330,108308,2,0,P|108:334|30:258,1,156.25
90,208,108490,5,0,0:0:0:0:
154,151,108581,1,0,0:0:0:0:
237,146,108672,1,0,0:0:0:0:
312,183,108763,1,0,0:0:0:0:
358,252,108854,2,0,B|224:314|224:314|75:244,1,312.5
435,128,109217,53,0,0:0:0:0:
76,140,109399,1,4,0:0:0:0:
430,236,109581,1,0,0:0:0:0:
73,233,109763,1,4,0:0:0:0:
99,167,109945,6,0,P|158:250|350:215,1,312.5
336,150,110217,1,0,0:0:0:0:
293,127,110308,1,0,0:0:0:0:
245,114,110399,1,0,0:0:0:0:
200,137,110490,1,0,0:0:0:0:
95,278,110672,54,0,P|113:213|229:141,1,156.25
334,177,110854,2,0,P|375:265|335:359,1,156.25
38,250,111035,2,0,P|52:176|119:114,1,156.25
432,184,111217,2,0,P|442:279|411:331,1,156.25
96,128,111399,5,0,0:0:0:0:
132,145,111489,1,0,0:0:0:0:
167,161,111580,1,0,0:0:0:0:
202,177,111671,1,0,0:0:0:0:
244,192,111762,2,0,P|260:112|299:221,1,312.5
111,137,112126,53,0,0:0:0:0:
388,242,112308,1,4,0:0:0:0:
178,338,112490,1,0,0:0:0:0:
111,137,112672,1,4,0:0:0:0:
317,66,112854,6,0,P|201:166|101:335,1,312.5
115,299,113217,2,0,P|279:324|462:251,1,312.5
105,268,113581,5,4,0:0:0:0:
84,209,113671,1,0,0:0:0:0:
87,147,113762,1,0,0:0:0:0:
112,90,113853,1,0,0:0:0:0:
157,47,113944,1,4,0:0:0:0:
214,23,114035,1,0,0:0:0:0:
276,22,114126,1,0,0:0:0:0:
334,44,114217,1,0,0:0:0:0:
104,169,114308,54,0,L|259:147,1,156.25,6|0,0:0|0:0,0:0:0:0:
362,232,114490,2,0,L|147:261,1,156.25
157,338,114672,2,0,L|340:323,1,156.25,6|0,0:0|0:0,0:0:0:0:
432,332,114854,2,0,L|464:154,1,156.25
347,18,115035,5,4,0:0:0:0:
266,35,115125,1,0,0:0:0:0:
194,74,115216,1,0,0:0:0:0:
136,132,115307,1,0,0:0:0:0:
97,205,115398,1,4,0:0:0:0:
80,285,115489,1,0,0:0:0:0:
86,367,115580,1,0,0:0:0:0:
143,150,115763,6,0,P|248:107|198:228,1,312.5,6|0,0:0|0:0,0:0:0:0:
43,292,116126,1,6,0:0:0:0:
122,248,116217,1,0,0:0:0:0:
207,250,116308,1,0,0:0:0:0:
284,282,116399,1,0,0:0:0:0:
144,100,116490,6,0,B|234:141|42:296|329:301|329:301|266:127|402:270|357:93|391:4|424:293|424:293|482:170|482:170|448:370,1,1049.99996795654
