osu file format v14

[General]
AudioFilename: vs Masked Mushroom.mp3
AudioLeadIn: 0
PreviewTime: 15251
Countdown: 0
SampleSet: Soft
StackLeniency: 0.7
Mode: 0
LetterboxInBreaks: 1
WidescreenStoryboard: 1

[Editor]
DistanceSpacing: 0.8
BeatDivisor: 8
GridSize: 4
TimelineZoom: 1.8

[Metadata]
Title:vs Masked Mushroom
TitleUnicode:vsマスクドキノコ【星輝子MAD】
Artist:Megatti
ArtistUnicode:めがっち
Creator:Miama Satodeile
Version:old ver.
Source:Nico Nico Douga
Tags:アイドルマスター シンデレラガールズ 星輝子 星のカービィ マスクド・デデデのテーマ idol m@ster cinderella girls hoshi shouko kirby dedede hicca hicari
BeatmapID:1486548
BeatmapSetID:702523

[Difficulty]
HPDrainRate:3
CircleSize:4
OverallDifficulty:8
ApproachRate:9.5
SliderMultiplier:1.9
SliderTickRate:1

[Events]
//Background and Video events
0,0,"BG.jpg",0,0
Video,0,"vs Masked Mushroom.avi"
//Break Periods
//Storyboard Layer 0 (Background)
//Storyboard Layer 1 (Fail)
//Storyboard Layer 2 (Pass)
//Storyboard Layer 3 (Foreground)
//Storyboard Sound Samples

[TimingPoints]
1757,437.956204379562,4,2,1,50,1,0
2632,-133.333333333333,4,2,1,50,0,0
10450,400.16006402561,4,2,1,70,1,0
14851,-92.5925925925926,4,2,1,70,0,0
15051,-86.2068965517241,4,2,1,70,0,0
15251,-80,4,2,1,70,0,0
21654,-66.6666666666667,4,2,1,80,0,1
28057,-80,4,2,1,70,0,0
34259,-57.1428571428571,4,2,1,70,0,0
34459,-80,4,2,1,70,0,0
40862,-80,4,2,1,60,0,0
45664,-80,4,2,1,70,0,0
47064,-50,4,2,1,70,0,0
47264,-66.6666666666667,4,2,1,80,0,1
53667,-80,4,2,1,70,0,0
58469,-100,4,2,1,50,0,0
59669,-80,4,2,1,70,0,0
59694,-80,4,2,1,30,0,0
60069,-80,4,2,1,70,0,0
66472,-100,4,2,1,70,0,0

[HitObjects]
195,70,2632,6,0,P|152:99|148:151,1,106.875004076958,2|0,0:0|0:0,0:0:0:0:
355,146,3070,6,0,P|350:94|308:65,1,106.875004076958,2|0,0:0|0:0,0:0:0:0:
209,246,3508,6,0,B|255:268|304:242|304:242|286:260|275:286,1,142.500005435944,8|0,0:0|0:0,0:0:0:0:
255,175,4165,1,2,0:0:0:0:
100,214,4384,5,8,0:0:0:0:
170,330,4676,1,2,0:0:0:0:
171,139,4968,1,2,0:0:0:0:
53,289,5260,6,0,B|14:233|14:233|23:159,1,142.500005435944,8|0,0:0|0:0,0:0:0:0:
137,57,5917,1,2,0:0:0:0:
285,126,6136,5,8,0:0:0:0:
127,140,6428,1,2,0:0:0:0:
359,182,6720,1,2,0:0:0:0:
377,36,7012,6,0,L|306:29,1,71.2500027179719,8|2,0:0|0:0,0:0:0:0:
127,140,7450,2,0,L|197:133,1,71.2500027179719,0|2,0:0|0:0,0:0:0:0:
397,45,7888,6,0,L|326:38,1,71.2500027179719,8|2,0:0|0:0,0:0:0:0:
147,149,8326,2,0,L|217:142,1,71.2500027179719,0|2,0:0|0:0,0:0:0:0:
417,54,8764,6,0,L|346:47,1,71.2500027179719,8|2,0:0|0:0,0:0:0:0:
167,158,9202,2,0,L|237:151,1,71.2500027179719,0|2,0:0|0:0,0:0:0:0:
437,63,9640,6,0,L|366:56,1,71.2500027179719,8|2,0:0|0:0,0:0:0:0:
187,167,10078,2,0,L|257:160,1,71.2500027179719,0|2,0:0|0:0,0:0:0:0:
457,72,10450,5,8,0:0:0:0:
437,63,10550,1,2,0:0:0:0:
306,158,10750,5,8,0:0:0:0:
332,169,10850,1,2,0:0:0:0:
316,24,11050,5,8,0:0:0:0:
300,57,11150,1,2,0:0:0:0:
434,216,11350,5,8,0:0:0:0:
454,173,11450,1,2,0:0:0:0:
202,100,11650,5,8,0:0:0:0:
220,168,11750,1,2,0:0:0:0:
274,224,11850,5,8,0:0:0:0:
264,294,11950,1,8,0:0:0:0:
196,339,12050,5,4,0:0:0:0:
181,341,12150,1,0,0:0:0:0:
166,343,12250,1,8,0:0:0:0:
151,345,12350,1,0,0:0:0:0:
136,347,12450,1,0,0:0:0:0:
121,349,12550,1,0,0:0:0:0:
106,351,12650,1,8,0:0:0:0:
91,353,12750,1,0,0:0:0:0:
76,355,12850,5,0,0:0:0:0:
92,337,12951,1,0,0:0:0:0:
112,324,13051,1,8,0:0:0:0:
134,317,13151,1,0,0:0:0:0:
157,314,13251,1,0,0:0:0:0:
179,322,13351,1,0,0:0:0:0:
200,332,13451,1,8,0:0:0:0:
221,342,13551,1,0,0:0:0:0:
244,344,13651,5,0,0:0:0:0:
287,326,13751,1,0,0:0:0:0:
307,283,13851,1,8,0:0:0:0:
294,237,13951,1,0,0:0:0:0:
257,206,14051,5,0,0:0:0:0:
262,262,14151,1,0,0:0:0:0:
299,305,14251,1,8,0:0:0:0:
354,318,14351,1,0,0:0:0:0:
410,314,14451,5,0,0:0:0:0:
433,231,14551,1,0,0:0:0:0:
456,148,14651,2,0,L|447:101,1,47.5,8|0,0:0|0:0,0:0:0:0:
208,107,14851,2,0,L|197:158,1,51.3000012524414,8|0,0:0|0:0,0:0:0:0:
493,82,15051,2,0,L|482:24,1,55.1000016815186,8|0,0:0|0:0,0:0:0:0:
167,55,15251,5,12,0:0:0:0:
167,55,15351,2,0,L|155:113,1,59.375,2|0,0:0|0:0,0:0:0:0:
69,199,15552,1,2,0:0:0:0:
69,199,15652,2,0,L|129:259,1,59.375,8|0,0:0|0:0,0:0:0:0:
263,278,15852,1,8,0:0:0:0:
263,278,15952,2,0,L|272:200,1,59.375,2|0,0:0|0:0,0:0:0:0:
69,199,16152,1,2,0:0:0:0:
69,199,16252,2,0,L|129:259,1,59.375,8|0,0:0|0:0,0:0:0:0:
195,340,16452,5,8,0:0:0:0:
195,340,16552,1,2,0:0:0:0:
192,235,16652,5,8,0:0:0:0:
192,235,16752,1,2,0:0:0:0:
187,131,16852,5,8,0:0:0:0:
187,131,16952,2,0,L|221:74,1,59.375,2|0,0:0|0:0,0:0:0:0:
379,181,17152,1,2,0:0:0:0:
384,183,17252,2,0,L|284:175,1,59.375,8|0,0:0|0:0,0:0:0:0:
253,340,17452,1,8,0:0:0:0:
253,340,17552,2,0,L|353:332,1,59.375,2|0,0:0|0:0,0:0:0:0:
484,253,17752,1,2,0:0:0:0:
484,253,17852,2,0,L|450:196,1,59.375,8|0,0:0|0:0,0:0:0:0:
326,284,18053,5,8,0:0:0:0:
304,276,18153,1,2,0:0:0:0:
412,349,18253,5,8,0:0:0:0:
433,340,18353,1,2,0:0:0:0:
410,225,18453,5,8,0:0:0:0:
410,225,18553,2,0,L|330:185,1,59.375,2|0,0:0|0:0,0:0:0:0:
154,316,18753,1,2,0:0:0:0:
154,316,18853,2,0,L|207:289,1,59.375,8|0,0:0|0:0,0:0:0:0:
204,81,19053,1,8,0:0:0:0:
204,81,19153,2,0,L|217:169,1,59.375,2|0,0:0|0:0,0:0:0:0:
410,225,19353,1,2,0:0:0:0:
410,225,19453,2,0,L|330:185,1,59.375,8|0,0:0|0:0,0:0:0:0:
159,203,19653,5,8,0:0:0:0:
103,215,19753,1,2,0:0:0:0:
169,223,19853,5,8,0:0:0:0:
93,195,19953,1,2,0:0:0:0:
179,243,20053,5,8,0:0:0:0:
179,243,20153,2,0,L|160:310,1,59.375,2|0,0:0|0:0,0:0:0:0:
52,125,20354,1,2,0:0:0:0:
52,125,20454,2,0,L|71:58,1,59.375,8|0,0:0|0:0,0:0:0:0:
257,56,20654,1,8,0:0:0:0:
257,56,20754,2,0,L|348:47,1,59.375,2|0,0:0|0:0,0:0:0:0:
461,215,20954,1,2,0:0:0:0:
461,215,21054,2,0,L|370:206,1,59.375,8|0,0:0|0:0,0:0:0:0:
278,134,21254,5,8,0:0:0:0:
228,238,21354,5,2,0:0:0:0:
330,184,21454,5,8,0:0:0:0:
216,168,21554,5,2,0:0:0:0:
298,248,21654,5,12,0:0:0:0:
351,165,21754,2,0,P|348:136|299:89,1,71.2500027179719,2|0,0:0|0:0,0:0:0:0:
150,265,21954,1,2,0:0:0:0:
187,342,22054,2,0,P|221:346|255:334,1,71.2500027179719,8|0,0:0|0:0,0:0:0:0:
450,262,22254,1,8,0:0:0:0:
420,344,22354,2,0,P|390:326|337:323,1,71.2500027179719,2|0,0:0|0:0,0:0:0:0:
138,233,22554,1,2,0:0:0:0:
60,291,22654,2,0,L|47:217,1,71.2500027179719,8|0,0:0|0:0,0:0:0:0:
94,75,22854,5,8,0:0:0:0:
162,96,22955,1,2,0:0:0:0:
230,117,23055,5,8,0:0:0:0:
295,88,23155,1,2,0:0:0:0:
360,59,23255,5,12,0:0:0:0:
382,141,23355,2,0,P|382:177|369:210,1,71.2500027179719,2|0,0:0|0:0,0:0:0:0:
148,196,23555,1,2,0:0:0:0:
168,109,23655,2,0,P|189:76|216:55,1,71.2500027179719,8|0,0:0|0:0,0:0:0:0:
329,263,23855,1,8,0:0:0:0:
245,239,23955,2,0,P|215:216|181:162,1,71.2500027179719,2|0,0:0|0:0,0:0:0:0:
430,39,24155,1,2,0:0:0:0:
480,115,24255,2,0,P|433:111|405:120,1,71.2500027179719,8|0,0:0|0:0,0:0:0:0:
236,262,24455,5,8,0:0:0:0:
323,246,24555,1,2,0:0:0:0:
307,159,24655,5,8,0:0:0:0:
220,175,24755,1,2,0:0:0:0:
236,262,24855,5,12,0:0:0:0:
339,333,24955,2,0,P|376:334|419:316,1,71.2500027179719,2|0,0:0|0:0,0:0:0:0:
195,225,25155,1,2,0:0:0:0:
186,349,25255,2,0,P|217:368|263:374,1,71.2500027179719,8|0,0:0|0:0,0:0:0:0:
177,172,25456,1,8,0:0:0:0:
55,290,25556,2,0,P|72:322|109:350,1,71.2500027179719,2|0,0:0|0:0,0:0:0:0:
188,117,25756,1,2,0:0:0:0:
21,137,25856,2,0,P|20:173|38:216,1,71.2500027179719,8|0,0:0|0:0,0:0:0:0:
232,80,26056,5,8,0:0:0:0:
142,67,26156,1,2,0:0:0:0:
246,167,26256,5,8,0:0:0:0:
336,154,26356,1,2,0:0:0:0:
267,33,26456,5,12,0:0:0:0:
188,116,26556,2,0,L|186:195,1,71.2500027179719,2|0,0:0|0:0,0:0:0:0:
421,81,26756,1,2,0:0:0:0:
447,181,26856,2,0,L|447:254,1,71.2500027179719,8|0,0:0|0:0,0:0:0:0:
193,336,27056,1,8,0:0:0:0:
316,290,27156,2,0,P|353:286|387:298,1,71.2500027179719,2|0,0:0|0:0,0:0:0:0:
460,60,27356,1,2,0:0:0:0:
327,113,27456,2,0,P|292:96|236:107,1,71.2500027179719,8|0,0:0|0:0,0:0:0:0:
57,70,27656,5,8,0:0:0:0:
102,217,27756,1,2,0:0:0:0:
165,94,27856,5,8,0:0:0:0:
6,168,27957,1,2,0:0:0:0:
111,299,28057,5,6,0:0:0:0:
134,302,28157,1,2,0:0:0:0:
157,305,28257,1,8,0:0:0:0:
180,308,28357,1,0,0:0:0:0:
203,312,28457,1,2,0:0:0:0:
220,315,28557,1,2,0:0:0:0:
237,318,28657,1,8,0:0:0:0:
254,321,28757,1,2,0:0:0:0:
271,323,28857,5,2,0:0:0:0:
288,325,28957,2,0,P|316:305|380:301,1,59.375,8|0,0:0|0:0,0:0:0:0:
482,332,29157,2,0,P|450:317|415:264,1,59.375,8|0,0:0|0:0,0:0:0:0:
383,143,29357,1,8,0:0:0:0:
392,161,29457,2,0,P|395:195|366:252,1,59.375,8|0,0:0|0:0,0:0:0:0:
237,261,29657,5,2,0:0:0:0:
235,243,29757,1,2,0:0:0:0:
233,225,29857,1,8,0:0:0:0:
231,207,29957,1,0,0:0:0:0:
159,174,30057,5,2,0:0:0:0:
161,156,30157,1,2,0:0:0:0:
163,138,30257,1,8,0:0:0:0:
165,120,30357,1,2,0:0:0:0:
243,86,30458,5,2,0:0:0:0:
204,24,30558,2,0,L|101:29,1,59.375,8|0,0:0|0:0,0:0:0:0:
43,219,30758,2,0,L|146:224,1,59.375,8|0,0:0|0:0,0:0:0:0:
338,127,30958,1,8,0:0:0:0:
247,152,31058,1,8,0:0:0:0:
315,219,31158,1,0,0:0:0:0:
406,194,31258,5,2,0:0:0:0:
425,150,31358,1,2,0:0:0:0:
421,102,31458,1,8,0:0:0:0:
395,61,31558,1,0,0:0:0:0:
350,43,31658,5,2,0:0:0:0:
318,107,31758,1,2,0:0:0:0:
323,178,31858,1,8,0:0:0:0:
350,243,31958,1,2,0:0:0:0:
409,282,32058,5,2,0:0:0:0:
406,194,32158,2,0,L|346:193,1,59.375,8|0,0:0|0:0,0:0:0:0:
106,194,32358,2,0,L|165:193,1,59.375,8|0,0:0|0:0,0:0:0:0:
406,194,32558,1,8,0:0:0:0:
409,282,32658,1,8,0:0:0:0:
321,285,32758,1,0,0:0:0:0:
318,197,32858,5,2,0:0:0:0:
271,127,32959,1,2,0:0:0:0:
196,90,33059,1,8,0:0:0:0:
114,107,33159,1,0,0:0:0:0:
53,164,33259,5,2,0:0:0:0:
114,107,33359,1,2,0:0:0:0:
196,90,33459,1,8,0:0:0:0:
271,127,33559,1,2,0:0:0:0:
318,197,33659,5,2,0:0:0:0:
233,306,33759,2,0,L|225:214,1,59.375,8|0,0:0|0:0,0:0:0:0:
346,21,33959,2,0,L|345:85,1,59.375,8|0,0:0|0:0,0:0:0:0:
172,364,34159,1,8,0:0:0:0:
46,246,34259,6,2,L|53:160,1,83.1250007927418,10|2,0:0|0:0,0:0:0:0:
151,67,34459,6,0,L|281:62,1,118.75,2|8,0:0|0:0,0:0:0:0:
400,121,34759,1,10,0:0:0:0:
336,177,34859,2,0,P|318:150|316:102,1,59.375,2|0,0:0|0:0,0:0:0:0:
464,65,35059,2,0,P|481:91|483:139,1,59.375,8|2,0:0|0:0,0:0:0:0:
396,289,35259,1,2,0:0:0:0:
407,213,35359,1,0,0:0:0:0:
471,260,35460,2,0,L|459:336,1,59.375,10|0,0:0|0:0,0:0:0:0:
294,358,35660,2,0,L|234:309,1,59.375,2|0,0:0|0:0,0:0:0:0:
297,155,35860,2,0,L|368:127,1,59.375,8|0,0:0|0:0,0:0:0:0:
396,289,36060,6,0,P|351:267|254:275,1,118.75,2|8,0:0|0:0,0:0:0:0:
148,329,36360,1,10,0:0:0:0:
67,278,36460,2,0,P|49:220|71:137,1,118.75,2|8,0:0|0:0,0:0:0:0:
133,81,36760,1,2,0:0:0:0:
204,209,36860,2,0,L|114:215,1,59.375,2|0,0:0|0:0,0:0:0:0:
281,65,37060,2,0,L|191:71,1,59.375,8|8,0:0|0:0,0:0:0:0:
397,191,37260,2,0,L|307:197,1,59.375,4|0,0:0|0:0,0:0:0:0:
73,84,37460,2,0,L|132:80,1,59.375,8|2,0:0|0:0,0:0:0:0:
412,57,37660,6,0,B|454:101|454:101|453:135|419:151,1,118.75,2|8,0:0|0:0,0:0:0:0:
284,105,37961,1,8,0:0:0:0:
243,205,38061,5,2,0:0:0:0:
360,112,38194,5,2,0:0:0:0:
223,58,38327,5,2,0:0:0:0:
68,205,38461,6,0,P|113:165|194:179,1,118.75,2|8,0:0|0:0,0:0:0:0:
232,331,38761,1,8,0:0:0:0:
143,252,38861,5,2,0:0:0:0:
336,267,38994,5,2,0:0:0:0:
137,362,39128,5,2,0:0:0:0:
53,168,39261,5,8,0:0:0:0:
152,122,39394,1,2,0:0:0:0:
221,268,39528,5,8,0:0:0:0:
131,205,39661,1,2,0:0:0:0:
224,73,39795,5,8,0:0:0:0:
214,181,39928,1,2,0:0:0:0:
76,80,40061,5,8,0:0:0:0:
76,80,40161,1,2,0:0:0:0:
436,80,40361,5,8,0:0:0:0:
436,80,40461,1,2,0:0:0:0:
256,380,40662,5,8,0:0:0:0:
256,380,40762,1,8,0:0:0:0:
256,294,40862,5,12,0:0:0:0:
256,294,40962,2,0,L|272:222,1,59.375,2|0,0:0|0:0,0:0:0:0:
203,104,41162,1,2,0:0:0:0:
203,104,41262,2,0,L|274:75,1,59.375,8|0,0:0|0:0,0:0:0:0:
415,165,41462,1,8,0:0:0:0:
415,165,41562,2,0,L|423:224,1,59.375,2|0,0:0|0:0,0:0:0:0:
256,294,41762,1,2,0:0:0:0:
256,294,41862,2,0,L|272:222,1,59.375,8|0,0:0|0:0,0:0:0:0:
323,120,42062,5,8,0:0:0:0:
323,120,42162,1,2,0:0:0:0:
416,86,42262,5,8,0:0:0:0:
416,86,42362,1,2,0:0:0:0:
490,142,42462,5,8,0:0:0:0:
490,142,42562,2,0,L|457:205,1,59.375,2|0,0:0|0:0,0:0:0:0:
292,286,42762,1,2,0:0:0:0:
292,286,42862,2,0,L|369:277,1,59.375,8|0,0:0|0:0,0:0:0:0:
222,166,43063,1,8,0:0:0:0:
222,166,43163,2,0,L|209:268,1,59.375,2|0,0:0|0:0,0:0:0:0:
105,77,43363,1,2,0:0:0:0:
105,77,43463,2,0,L|118:179,1,59.375,8|0,0:0|0:0,0:0:0:0:
87,260,43663,5,8,0:0:0:0:
79,283,43763,1,2,0:0:0:0:
203,320,43863,5,8,0:0:0:0:
195,297,43963,1,2,0:0:0:0:
91,370,44063,5,8,0:0:0:0:
91,370,44163,2,0,L|167:359,1,59.375,2|0,0:0|0:0,0:0:0:0:
372,269,44363,1,2,0:0:0:0:
372,269,44463,2,0,L|296:258,1,59.375,8|0,0:0|0:0,0:0:0:0:
127,135,44663,1,8,0:0:0:0:
127,135,44763,2,0,L|138:211,1,59.375,2|0,0:0|0:0,0:0:0:0:
304,319,44963,1,2,0:0:0:0:
304,319,45063,2,0,L|315:243,1,59.375,8|0,0:0|0:0,0:0:0:0:
270,123,45263,5,8,0:0:0:0:
354,111,45363,1,2,0:0:0:0:
258,99,45464,5,8,0:0:0:0:
366,135,45564,1,2,0:0:0:0:
246,75,45664,6,0,L|279:26,1,59.375,8|2,0:0|0:0,0:0:0:0:
463,177,45864,2,0,L|430:226,1,59.375,0|2,0:0|0:0,0:0:0:0:
104,182,46064,2,0,L|94:100,1,59.375,8|0,0:0|0:0,0:0:0:0:
439,39,46264,2,0,L|431:97,1,59.375,8|2,0:0|0:0,0:0:0:0:
405,267,46464,5,0,0:0:0:0:
281,225,46564,5,8,0:0:0:0:
406,186,46664,5,2,0:0:0:0:
328,291,46764,5,0,0:0:0:0:
329,161,46864,6,2,L|348:132,1,29.6875,10|2,0:0|0:0,0:0:0:0:
312,95,46964,2,2,L|295:136,1,29.6875
389,73,47064,2,0,P|344:20|276:23,1,142.5,2|0,0:0|0:0,0:0:0:0:
211,77,47264,5,12,0:0:0:0:
169,165,47364,2,0,P|164:207|184:242,1,71.2500027179719,2|0,0:0|0:0,0:0:0:0:
335,315,47564,1,2,0:0:0:0:
402,236,47664,2,0,L|317:226,1,71.2500027179719,8|0,0:0|0:0,0:0:0:0:
114,293,47864,1,8,0:0:0:0:
196,356,47965,2,0,P|212:324|214:277,1,71.2500027179719,2|0,0:0|0:0,0:0:0:0:
50,128,48165,1,2,0:0:0:0:
139,82,48265,2,0,L|230:75,1,71.2500027179719,8|0,0:0|0:0,0:0:0:0:
407,43,48465,5,8,0:0:0:0:
393,120,48565,1,2,0:0:0:0:
380,197,48665,5,8,0:0:0:0:
336,131,48765,1,2,0:0:0:0:
293,65,48865,5,12,0:0:0:0:
192,28,48965,2,0,P|149:29|94:65,1,71.2500027179719,2|0,0:0|0:0,0:0:0:0:
46,193,49165,1,2,0:0:0:0:
131,235,49265,2,0,P|185:230|232:198,1,71.2500027179719,8|0,0:0|0:0,0:0:0:0:
43,98,49465,1,8,0:0:0:0:
46,193,49565,2,0,L|47:290,1,71.2500027179719,2|0,0:0|0:0,0:0:0:0:
235,335,49765,1,2,0:0:0:0:
309,250,49865,2,0,P|265:227|199:230,1,71.2500027179719,8|0,0:0|0:0,0:0:0:0:
410,334,50065,5,8,0:0:0:0:
424,248,50165,1,2,0:0:0:0:
323,164,50265,5,8,0:0:0:0:
309,250,50365,1,2,0:0:0:0:
438,162,50466,5,12,0:0:0:0:
358,78,50566,2,0,P|319:56|245:55,1,71.2500027179719,2|0,0:0|0:0,0:0:0:0:
166,184,50766,1,2,0:0:0:0:
323,164,50866,2,0,P|284:142|210:141,1,71.2500027179719,8|0,0:0|0:0,0:0:0:0:
114,309,51066,1,8,0:0:0:0:
28,187,51166,2,0,P|47:153|96:131,1,71.2500027179719,2|0,0:0|0:0,0:0:0:0:
255,227,51366,1,2,0:0:0:0:
114,309,51466,2,0,P|72:313|22:294,1,71.2500027179719,8|0,0:0|0:0,0:0:0:0:
159,107,51666,5,8,0:0:0:0:
130,214,51766,1,2,0:0:0:0:
256,152,51866,5,8,0:0:0:0:
278,260,51966,1,2,0:0:0:0:
403,157,52066,5,12,0:0:0:0:
342,59,52166,2,0,L|252:51,1,71.2500027179719,2|0,0:0|0:0,0:0:0:0:
415,285,52366,1,2,0:0:0:0:
301,345,52466,2,0,L|212:338,1,71.2500027179719,8|0,0:0|0:0,0:0:0:0:
62,185,52666,1,8,0:0:0:0:
106,333,52766,2,0,P|113:299|163:248,1,71.2500027179719,2|0,0:0|0:0,0:0:0:0:
247,125,52967,1,2,0:0:0:0:
337,233,53067,2,0,P|302:222|267:220,1,71.2500027179719,8|0,0:0|0:0,0:0:0:0:
133,76,53267,5,8,0:0:0:0:
303,73,53367,1,2,0:0:0:0:
206,208,53467,5,8,0:0:0:0:
224,23,53567,1,2,0:0:0:0:
367,157,53667,5,6,0:0:0:0:
360,184,53767,1,2,0:0:0:0:
354,207,53867,1,8,0:0:0:0:
348,230,53967,1,0,0:0:0:0:
342,253,54067,1,2,0:0:0:0:
336,276,54167,1,2,0:0:0:0:
330,299,54267,1,8,0:0:0:0:
324,322,54367,1,2,0:0:0:0:
318,345,54467,5,2,0:0:0:0:
312,368,54567,2,0,P|273:333|217:342,1,59.375,8|0,0:0|0:0,0:0:0:0:
93,349,54767,2,0,P|116:331|129:304,1,59.375,8|0,0:0|0:0,0:0:0:0:
108,114,54967,1,8,0:0:0:0:
112,130,55067,2,0,P|129:153|156:166,1,59.375,8|0,0:0|0:0,0:0:0:0:
331,149,55267,5,2,0:0:0:0:
360,145,55367,1,2,0:0:0:0:
389,141,55468,1,8,0:0:0:0:
418,137,55568,1,0,0:0:0:0:
461,51,55668,5,2,0:0:0:0:
432,47,55768,1,2,0:0:0:0:
403,43,55869,1,8,0:0:0:0:
374,39,55969,1,2,0:0:0:0:
285,74,56068,5,2,0:0:0:0:
214,117,56168,2,0,P|204:88|202:59,1,59.375,8|0,0:0|0:0,0:0:0:0:
497,127,56368,2,0,P|494:156|485:184,1,59.375,8|0,0:0|0:0,0:0:0:0:
340,262,56568,1,8,0:0:0:0:
349,171,56668,1,8,0:0:0:0:
424,225,56768,1,0,0:0:0:0:
414,326,56868,5,2,0:0:0:0:
367,317,56968,1,2,0:0:0:0:
319,314,57068,1,8,0:0:0:0:
273,326,57168,1,0,0:0:0:0:
228,348,57268,5,2,0:0:0:0:
282,301,57368,1,2,0:0:0:0:
293,230,57468,1,8,0:0:0:0:
269,162,57568,1,2,0:0:0:0:
205,129,57668,5,2,0:0:0:0:
100,179,57768,2,0,L|108:252,1,59.375,8|0,0:0|0:0,0:0:0:0:
405,238,57969,2,0,L|412:179,1,59.375,8|0,0:0|0:0,0:0:0:0:
100,179,58169,1,8,0:0:0:0:
92,281,58269,1,8,0:0:0:0:
194,289,58369,1,0,0:0:0:0:
201,187,58469,6,0,P|211:158|210:129,1,47.5,2|0,0:0|0:0,0:0:0:0:
117,64,58669,2,0,P|119:87|127:109,1,47.5,2|0,0:0|0:0,0:0:0:0:
384,109,58869,6,0,P|392:87|395:64,1,47.5,2|0,0:0|0:0,0:0:0:0:
300,141,59069,2,0,P|302:164|311:187,1,47.5,2|0,0:0|0:0,0:0:0:0:
419,257,59269,6,0,P|376:225|311:241,1,95,2|2,0:0|0:0,0:0:0:0:
347,325,59569,1,2,0:0:0:0:
451,117,59669,6,8,L|449:101,12,14.84375,10|8|8|8|8|8|8|8|8|8|8|8|8,0:0|0:0|0:0|0:0|0:0|0:0|0:0|0:0|0:0|0:0|0:0|0:0|0:0,0:0:0:0:
427,51,60069,6,0,B|439:110|439:110|427:167,1,118.75,2|8,0:0|0:0,0:0:0:0:
348,304,60369,1,10,0:0:0:0:
423,349,60470,2,0,L|488:337,1,59.375,2|0,0:0|0:0,0:0:0:0:
273,259,60670,2,0,L|208:271,1,59.375,8|2,0:0|0:0,0:0:0:0:
46,259,60870,1,2,0:0:0:0:
112,317,60970,1,0,0:0:0:0:
131,230,61070,2,0,P|118:204|117:175,1,59.375,10|0,0:0|0:0,0:0:0:0:
287,117,61270,2,0,P|286:146|272:172,1,59.375,2|0,0:0|0:0,0:0:0:0:
55,135,61470,2,0,P|74:112|101:100,1,59.375,8|0,0:0|0:0,0:0:0:0:
280,245,61670,5,2,0:0:0:0:
266,327,61770,1,0,0:0:0:0:
280,245,61870,5,8,0:0:0:0:
266,327,61970,1,10,0:0:0:0:
360,253,62070,6,0,P|370:225|368:195,1,59.375,2|0,0:0|0:0,0:0:0:0:
253,51,62270,1,8,0:0:0:0:
243,162,62370,1,2,0:0:0:0:
351,104,62470,2,0,L|355:40,1,59.375,2|0,0:0|0:0,0:0:0:0:
463,225,62670,2,0,L|466:165,1,59.375,8|8,0:0|0:0,0:0:0:0:
320,337,62870,2,0,L|324:273,1,59.375,4|0,0:0|0:0,0:0:0:0:
428,34,63071,2,0,L|424:93,1,59.375,8|2,0:0|0:0,0:0:0:0:
212,288,63271,6,0,L|219:169,1,118.75,2|8,0:0|0:0,0:0:0:0:
314,94,63571,1,8,0:0:0:0:
312,214,63671,5,2,0:0:0:0:
159,178,63804,5,2,0:0:0:0:
364,152,63938,5,2,0:0:0:0:
372,351,64071,6,0,B|333:357|312:367|312:367|258:360|235:304,1,118.75,2|8,0:0|0:0,0:0:0:0:
159,178,64371,1,8,0:0:0:0:
98,304,64471,5,2,0:0:0:0:
89,127,64604,5,2,0:0:0:0:
288,121,64738,5,2,0:0:0:0:
308,297,64871,5,8,0:0:0:0:
428,224,65005,1,2,0:0:0:0:
227,228,65138,5,8,0:0:0:0:
228,368,65272,1,2,0:0:0:0:
325,192,65404,5,8,0:0:0:0:
204,123,65538,1,2,0:0:0:0:
78,317,65672,5,8,0:0:0:0:
78,317,65772,1,2,0:0:0:0:
434,317,65972,5,8,0:0:0:0:
434,317,66072,1,2,0:0:0:0:
256,16,66272,5,8,0:0:0:0:
256,16,66373,1,8,0:0:0:0:
256,120,66472,5,4,0:0:0:0:
