osu file format v14

[General]
AudioFilename: vs Masked Mushroom.mp3
AudioLeadIn: 0
PreviewTime: 15251
Countdown: 0
SampleSet: Soft
StackLeniency: 0.7
Mode: 0
LetterboxInBreaks: 1
WidescreenStoryboard: 1

[Editor]
DistanceSpacing: 0.8
BeatDivisor: 4
GridSize: 32
TimelineZoom: 1.9

[Metadata]
Title:vs Masked Mushroom
TitleUnicode:vsマスクドキノコ【星輝子MAD】
Artist:Megatti
ArtistUnicode:めがっち
Creator:Miama Satodeile
Version:HELL KINOKO
Source:Nico Nico Douga
Tags:アイドルマスター シンデレラガールズ 星輝子 星のカービィ マスクド・デデデのテーマ idol m@ster cinderella girls hoshi shouko kirby dedede hicca hicari
BeatmapID:1491682
BeatmapSetID:702523

[Difficulty]
HPDrainRate:3
CircleSize:4
OverallDifficulty:8
ApproachRate:9.6
SliderMultiplier:3.39999990463257
SliderTickRate:1

[Events]
//Background and Video events
0,0,"BG.jpg",0,0
Video,0,"vs Masked Mushroom.avi"
//Break Periods
//Storyboard Layer 0 (Background)
//Storyboard Layer 1 (Fail)
//Storyboard Layer 2 (Pass)
//Storyboard Layer 3 (Foreground)
//Storyboard Sound Samples

[TimingPoints]
1757,437.956204379562,4,2,1,50,1,0
2632,-200,4,2,1,50,0,0
10450,400.16006402561,4,2,1,70,1,0
10450,-125,4,2,1,70,0,0
14851,-111.111111111111,4,2,1,70,0,0
15051,-100,4,2,1,70,0,0
15251,-90.9090909090909,4,2,1,70,0,0
21654,-80,4,2,1,80,0,1
28057,-90.9090909090909,4,2,1,70,0,0
34259,-50,4,2,1,70,0,0
34459,-90.9090909090909,4,2,1,70,0,0
40862,-100,4,2,1,50,0,0
45664,-90.9090909090909,4,2,1,70,0,0
46864,-66.6666666666667,4,2,1,70,0,0
47264,-80,4,2,1,80,0,1
53667,-90.9090909090909,4,2,1,70,0,0
58469,-133.333333333333,4,2,1,50,0,0
59669,-66.6666666666667,4,2,1,70,0,0
59694,-66.6666666666667,4,2,1,20,0,0
60069,-90.9090909090909,4,2,1,70,0,0
66472,-100,4,2,1,70,0,0

[HitObjects]
189,91,2632,6,0,P|138:124|135:186,1,127.499996423721,2|0,0:0|0:0,0:0:0:0:
376,186,3070,6,0,P|373:124|322:92,1,127.499996423721,2|0,0:0|0:0,0:0:0:0:
202,247,3508,6,0,B|256:275|311:247|311:247|289:270|279:292,1,169.999995231629,8|0,0:0|0:0,0:0:0:0:
256,171,4165,1,2,0:0:0:0:
96,218,4384,5,0,0:0:0:0:
158,338,4713,1,2,0:0:0:0:
161,147,5041,1,2,0:0:0:0:
50,302,5260,6,0,B|1:239|1:239|21:151,1,169.999995231629,8|0,0:0|0:0,0:0:0:0:
137,57,5917,1,2,0:0:0:0:
285,126,6136,5,0,0:0:0:0:
127,140,6428,1,2,0:0:0:0:
359,182,6720,1,2,0:0:0:0:
377,36,7012,6,0,L|292:27,1,84.9999976158143,8|2,0:0|0:0,0:0:0:0:
127,140,7450,2,0,L|239:128,1,84.9999976158143,0|2,0:0|0:0,0:0:0:0:
388,48,7888,6,0,L|303:39,1,84.9999976158143,0|2,0:0|0:0,0:0:0:0:
138,152,8326,2,0,L|250:140,1,84.9999976158143,0|2,0:0|0:0,0:0:0:0:
399,60,8764,6,0,L|314:51,1,84.9999976158143,0|2,0:0|0:0,0:0:0:0:
149,164,9202,2,0,L|261:152,1,84.9999976158143,0|2,0:0|0:0,0:0:0:0:
410,72,9640,6,0,L|325:63,1,84.9999976158143,0|2,0:0|0:0,0:0:0:0:
160,176,10078,2,0,L|272:164,1,84.9999976158143,0|2,0:0|0:0,0:0:0:0:
455,89,10450,5,10,0:0:0:0:
410,72,10550,1,0,0:0:0:0:
244,166,10750,5,8,0:0:0:0:
289,183,10850,1,2,0:0:0:0:
255,40,11050,5,8,0:0:0:0:
235,91,11150,1,2,0:0:0:0:
444,215,11350,5,8,0:0:0:0:
464,164,11450,1,2,0:0:0:0:
134,183,11650,5,8,0:0:0:0:
168,264,11750,1,2,0:0:0:0:
267,277,11850,5,8,0:0:0:0:
225,200,11950,1,8,0:0:0:0:
211,335,12050,5,4,0:0:0:0:
194,337,12150,1,0,0:0:0:0:
177,339,12250,1,8,0:0:0:0:
160,341,12350,1,0,0:0:0:0:
143,343,12450,1,0,0:0:0:0:
126,346,12550,1,0,0:0:0:0:
109,349,12650,1,8,0:0:0:0:
92,352,12750,1,0,0:0:0:0:
75,355,12850,5,0,0:0:0:0:
97,329,12951,1,0,0:0:0:0:
126,312,13051,1,8,0:0:0:0:
159,309,13151,1,0,0:0:0:0:
192,316,13251,1,0,0:0:0:0:
219,336,13351,1,0,0:0:0:0:
250,348,13451,1,8,0:0:0:0:
283,348,13551,1,0,0:0:0:0:
314,335,13651,5,0,0:0:0:0:
346,284,13751,1,0,0:0:0:0:
337,225,13851,1,8,0:0:0:0:
292,185,13951,1,0,0:0:0:0:
232,182,14051,5,0,0:0:0:0:
280,230,14151,1,0,0:0:0:0:
343,255,14251,1,8,0:0:0:0:
410,244,14351,1,0,0:0:0:0:
455,193,14451,5,0,0:0:0:0:
466,105,14551,1,0,0:0:0:0:
407,38,14651,2,0,L|301:24,1,67.9999980926514,8|0,0:0|0:0,0:0:0:0:
180,177,14851,2,0,L|286:163,1,76.4999955196382,8|0,0:0|0:0,0:0:0:0:
506,32,15051,2,0,L|400:18,1,84.9999976158143,8|0,0:0|0:0,0:0:0:0:
109,130,15251,5,12,0:0:0:0:
109,130,15351,2,0,L|222:114,1,93.5000002307892,2|0,0:0|0:0,0:0:0:0:
16,90,15552,1,2,0:0:0:0:
16,90,15652,2,0,P|7:145|51:199,1,93.5000002307892,8|0,0:0|0:0,0:0:0:0:
186,264,15852,1,8,0:0:0:0:
186,264,15952,2,0,P|195:209|151:155,1,93.5000002307892,2|0,0:0|0:0,0:0:0:0:
8,247,16152,1,2,0:0:0:0:
8,247,16252,2,0,L|121:231,1,93.5000002307892,8|0,0:0|0:0,0:0:0:0:
241,224,16452,5,8,0:0:0:0:
241,224,16552,1,2,0:0:0:0:
332,244,16652,5,8,0:0:0:0:
332,244,16752,1,2,0:0:0:0:
423,264,16852,5,8,0:0:0:0:
423,264,16952,2,0,B|420:215|420:215|397:176,1,93.5000002307892,2|0,0:0|0:0,0:0:0:0:
283,65,17152,1,2,0:0:0:0:
283,65,17252,2,0,L|180:58,1,93.5000002307892,8|0,0:0|0:0,0:0:0:0:
272,320,17452,1,8,0:0:0:0:
272,320,17552,2,0,L|375:313,1,93.5000002307892,2|0,0:0|0:0,0:0:0:0:
448,136,17752,1,2,0:0:0:0:
448,136,17852,2,0,P|464:183|441:253,1,93.5000002307892,8|0,0:0|0:0,0:0:0:0:
248,199,18053,5,8,0:0:0:0:
213,189,18153,1,2,0:0:0:0:
349,199,18253,5,8,0:0:0:0:
384,189,18353,1,2,0:0:0:0:
299,101,18453,5,8,0:0:0:0:
299,101,18553,2,0,P|312:151|302:224,1,93.5000002307892,2|0,0:0|0:0,0:0:0:0:
93,206,18753,1,2,0:0:0:0:
93,206,18853,2,0,P|80:156|90:83,1,93.5000002307892,8|0,0:0|0:0,0:0:0:0:
363,262,19053,1,8,0:0:0:0:
363,262,19153,2,0,L|268:252,1,93.5000002307892,2|0,0:0|0:0,0:0:0:0:
334,14,19353,1,2,0:0:0:0:
334,14,19453,2,0,L|239:24,1,93.5000002307892,8|0,0:0|0:0,0:0:0:0:
74,116,19653,5,8,0:0:0:0:
190,96,19753,1,2,0:0:0:0:
96,134,19853,5,8,0:0:0:0:
168,78,19953,1,2,0:0:0:0:
109,174,20053,5,8,0:0:0:0:
108,173,20153,2,0,P|123:218|126:264,1,93.5000002307892,2|0,0:0|0:0,0:0:0:0:
83,36,20353,1,2,0:0:0:0:
83,36,20454,2,0,L|203:20,1,93.5000002307892,8|0,0:0|0:0,0:0:0:0:
287,217,20654,1,8,0:0:0:0:
287,217,20755,2,0,L|167:233,1,93.5000002307892,2|0,0:0|0:0,0:0:0:0:
384,361,20954,1,2,0:0:0:0:
384,362,21054,2,0,P|398:317|401:271,1,93.5000002307892,8|0,0:0|0:0,0:0:0:0:
374,79,21254,5,8,0:0:0:0:
359,214,21354,5,2,0:0:0:0:
451,114,21454,5,8,0:0:0:0:
318,141,21554,5,2,0:0:0:0:
442,198,21654,5,12,0:0:0:0:
492,127,21754,2,0,P|393:120|359:214,1,212.499994039536,2|2,0:0|0:0,0:0:0:0:
448,351,22054,2,0,P|404:323|344:337,1,106.249997019768,8|0,0:0|0:0,0:0:0:0:
264,367,22254,1,8,0:0:0:0:
171,342,22354,1,2,0:0:0:0:
142,250,22454,2,0,B|133:201|133:201|143:135,1,106.249997019768,0|2,0:0|0:0,0:0:0:0:
0,86,22654,2,0,B|9:135|9:135|-1:201,1,106.249997019768,8|0,0:0|0:0,0:0:0:0:
80,289,22854,5,8,0:0:0:0:
171,342,22955,1,2,0:0:0:0:
277,348,23055,5,8,0:0:0:0:
366,291,23155,1,2,0:0:0:0:
408,193,23255,5,12,0:0:0:0:
329,130,23355,2,0,P|312:181|319:233,1,106.249997019768,2|0,0:0|0:0,0:0:0:0:
437,72,23555,1,2,0:0:0:0:
369,18,23655,2,0,L|247:17,1,106.249997019768,8|0,0:0|0:0,0:0:0:0:
160,176,23855,1,8,0:0:0:0:
239,100,23955,2,0,L|117:99,2,106.249997019768,2|0|2,0:0|0:0|0:0,0:0:0:0:
318,232,24255,2,0,P|311:180|328:129,1,106.249997019768,8|0,0:0|0:0,0:0:0:0:
441,341,24455,5,8,0:0:0:0:
226,325,24555,1,2,0:0:0:0:
337,365,24655,5,8,0:0:0:0:
207,220,24755,1,2,0:0:0:0:
289,297,24855,5,12,0:0:0:0:
127,269,24955,2,0,P|169:302|221:310,1,106.249997019768,2|0,0:0|0:0,0:0:0:0:
390,251,25155,5,2,0:0:0:0:
284,377,25255,2,0,P|333:357|366:316,1,106.249997019768,8|0,0:0|0:0,0:0:0:0:
400,140,25456,5,8,0:0:0:0:
456,295,25556,2,0,P|463:242|444:193,1,106.249997019768,2|0,0:0|0:0,0:0:0:0:
308,76,25756,5,2,0:0:0:0:
471,105,25856,2,0,P|429:72|377:64,1,106.249997019768,8|0,0:0|0:0,0:0:0:0:
206,123,26056,5,8,0:0:0:0:
324,124,26156,1,2,0:0:0:0:
133,37,26256,5,8,0:0:0:0:
240,13,26356,1,2,0:0:0:0:
158,189,26456,5,12,0:0:0:0:
265,211,26556,2,0,B|296:174|324:123|324:123|297:62|227:68,1,212.499994039536,2|2,0:0|0:0,0:0:0:0:
39,90,26856,1,8,0:0:0:0:
30,185,26956,1,0,0:0:0:0:
119,151,27056,1,8,0:0:0:0:
106,245,27156,1,2,0:0:0:0:
196,213,27256,2,0,L|332:197,1,106.249997019768,0|2,0:0|0:0,0:0:0:0:
450,83,27456,2,0,L|345:71,1,106.249997019768,8|0,0:0|0:0,0:0:0:0:
389,324,27656,5,8,0:0:0:0:
408,154,27756,1,2,0:0:0:0:
301,226,27856,5,8,0:0:0:0:
478,284,27957,1,2,0:0:0:0:
450,83,28057,5,6,0:0:0:0:
422,77,28157,1,2,0:0:0:0:
394,71,28257,1,8,0:0:0:0:
366,65,28357,1,0,0:0:0:0:
338,59,28457,1,2,0:0:0:0:
310,53,28557,1,2,0:0:0:0:
282,47,28657,1,8,0:0:0:0:
254,41,28757,1,2,0:0:0:0:
226,36,28857,5,2,0:0:0:0:
153,92,28957,2,0,P|129:52|135:7,1,93.5000002307892,8|0,0:0|0:0,0:0:0:0:
212,184,29157,2,0,P|189:224|147:241,1,93.5000002307892,8|2,0:0|0:0,0:0:0:0:
263,87,29357,2,0,P|308:85|344:114,2,93.5000002307892,8|8|0,0:0|0:0|0:0,0:0:0:0:
153,92,29657,5,2,0:0:0:0:
148,129,29757,1,2,0:0:0:0:
143,166,29857,1,8,0:0:0:0:
138,203,29957,1,0,0:0:0:0:
240,217,30057,5,2,0:0:0:0:
246,253,30157,1,2,0:0:0:0:
252,289,30257,1,8,0:0:0:0:
258,325,30357,1,2,0:0:0:0:
149,354,30458,5,2,0:0:0:0:
28,306,30558,2,0,B|23:230|23:230|36:219,1,93.5000002307892,8|0,0:0|0:0,0:0:0:0:
336,223,30758,2,0,B|349:233|349:233|344:309,1,93.5000002307892,8|2,0:0|0:0,0:0:0:0:
144,259,30958,1,8,0:0:0:0:
239,177,31058,1,8,0:0:0:0:
242,306,31158,1,0,0:0:0:0:
138,203,31258,5,2,0:0:0:0:
156,150,31358,1,2,0:0:0:0:
201,116,31458,1,8,0:0:0:0:
256,109,31558,1,0,0:0:0:0:
305,134,31658,5,2,0:0:0:0:
275,202,31758,1,2,0:0:0:0:
206,233,31858,1,8,0:0:0:0:
131,228,31958,1,2,0:0:0:0:
68,187,32058,5,2,0:0:0:0:
113,84,32158,2,0,L|206:74,1,93.5000002307892,8|0,0:0|0:0,0:0:0:0:
217,302,32358,2,0,L|310:311,1,93.5000002307892,8|2,0:0|0:0,0:0:0:0:
450,63,32558,1,8,0:0:0:0:
502,152,32658,2,0,L|408:161,1,93.5000002307892,8|0,0:0|0:0,0:0:0:0:
314,265,32858,5,2,0:0:0:0:
261,186,32959,1,2,0:0:0:0:
182,135,33059,1,8,0:0:0:0:
91,158,33159,1,0,0:0:0:0:
30,229,33259,5,2,0:0:0:0:
91,158,33359,1,2,0:0:0:0:
182,135,33459,1,8,0:0:0:0:
261,186,33559,1,2,0:0:0:0:
314,265,33660,5,2,0:0:0:0:
195,302,33759,2,0,L|202:208,1,93.5000002307892,8|0,0:0|0:0,0:0:0:0:
387,33,33959,2,0,L|379:126,1,93.5000002307892,8|2,0:0|0:0,0:0:0:0:
129,359,34159,1,8,0:0:0:0:
182,135,34259,6,2,B|223:114|264:125|264:125|224:114|182:135,1,169.999995231629,10|2,0:0|0:0,0:0:0:0:
506,240,34459,6,0,B|514:298|494:336|494:336|450:363|408:364,1,187.000000461578,2|8,0:0|0:0,0:0:0:0:
314,265,34759,1,10,0:0:0:0:
400,189,34859,2,0,P|425:227|429:273,1,93.5000002307892,2|0,0:0|0:0,0:0:0:0:
227,340,35059,2,0,P|201:301|197:255,1,93.5000002307892,8|2,0:0|0:0,0:0:0:0:
276,91,35259,1,2,0:0:0:0:
244,175,35359,1,0,0:0:0:0:
185,107,35460,2,0,L|210:16,1,93.5000002307892,10|0,0:0|0:0,0:0:0:0:
403,0,35660,2,0,L|468:66,1,93.5000002307892,2|0,0:0|0:0,0:0:0:0:
386,242,35860,2,0,L|295:265,1,93.5000002307892,8|0,0:0|0:0,0:0:0:0:
276,91,36060,6,0,P|329:162|295:244,1,187.000000461578,2|8,0:0|0:0,0:0:0:0:
133,97,36360,1,10,0:0:0:0:
150,250,36460,2,0,P|97:179|131:97,1,187.000000461578,2|8,0:0|0:0,0:0:0:0:
290,38,36760,1,2,0:0:0:0:
280,165,36860,2,0,L|180:169,1,93.5000002307892,2|0,0:0|0:0,0:0:0:0:
416,33,37060,2,0,L|316:37,1,93.5000002307892,8|8,0:0|0:0,0:0:0:0:
484,223,37260,2,0,L|384:227,1,93.5000002307892,4|0,0:0|0:0,0:0:0:0:
38,99,37460,2,0,L|131:95,1,93.5000002307892,8|2,0:0|0:0,0:0:0:0:
238,332,37660,6,0,B|145:336|145:336|110:279|162:238,1,187.000000461578,2|8,0:0|0:0,0:0:0:0:
241,172,37961,1,8,0:0:0:0:
292,268,38061,5,2,0:0:0:0:
131,210,38194,5,2,0:0:0:0:
273,89,38327,5,2,0:0:0:0:
391,225,38461,6,0,P|314:155|217:195,1,187.000000461578,2|8,0:0|0:0,0:0:0:0:
168,331,38761,1,8,0:0:0:0:
292,268,38861,5,2,0:0:0:0:
79,281,38994,5,2,0:0:0:0:
276,366,39128,5,2,0:0:0:0:
470,232,39261,5,8,0:0:0:0:
356,184,39394,1,2,0:0:0:0:
276,366,39528,5,8,0:0:0:0:
374,291,39661,1,2,0:0:0:0:
256,130,39795,5,8,0:0:0:0:
272,253,39928,1,2,0:0:0:0:
448,85,40061,5,8,0:0:0:0:
448,85,40161,1,2,0:0:0:0:
64,85,40361,5,8,0:0:0:0:
64,85,40461,1,2,0:0:0:0:
256,352,40662,5,8,0:0:0:0:
256,352,40762,1,8,0:0:0:0:
256,256,40862,5,4,0:0:0:0:
255,256,40962,2,0,P|294:238|336:237,1,84.9999976158143,2|0,0:0|0:0,0:0:0:0:
205,333,41162,1,2,0:0:0:0:
205,333,41262,2,0,P|170:308|148:272,1,84.9999976158143,8|0,0:0|0:0,0:0:0:0:
422,219,41462,2,0,P|418:261|397:297,1,84.9999976158143,8|2,0:0|0:0,0:0:0:0:
256,130,41662,2,0,P|259:87|280:51,1,84.9999976158143,0|2,0:0|0:0,0:0:0:0:
401,72,41862,5,8,0:0:0:0:
401,72,41962,1,0,0:0:0:0:
454,148,42062,5,8,0:0:0:0:
454,148,42162,1,2,0:0:0:0:
443,240,42262,5,8,0:0:0:0:
443,240,42362,1,2,0:0:0:0:
388,315,42462,5,8,0:0:0:0:
388,315,42562,2,0,L|288:300,1,84.9999976158143,2|0,0:0|0:0,0:0:0:0:
139,216,42762,1,2,0:0:0:0:
139,216,42862,2,0,L|39:231,1,84.9999976158143,8|0,0:0|0:0,0:0:0:0:
197,365,43063,2,0,P|221:330|225:288,1,84.9999976158143,8|2,0:0|0:0,0:0:0:0:
189,120,43263,1,0,0:0:0:0:
125,67,43363,1,2,0:0:0:0:
71,129,43463,2,0,P|123:152|156:141,1,84.9999976158143,8|0,0:0|0:0,0:0:0:0:
313,65,43663,5,8,0:0:0:0:
344,51,43763,1,2,0:0:0:0:
468,129,43863,5,8,0:0:0:0:
437,115,43963,1,2,0:0:0:0:
310,170,44063,5,8,0:0:0:0:
310,170,44163,2,0,P|299:211|307:252,1,84.9999976158143,2|0,0:0|0:0,0:0:0:0:
248,65,44363,1,2,0:0:0:0:
248,65,44463,2,0,P|211:85|188:121,1,84.9999976158143,8|0,0:0|0:0,0:0:0:0:
447,279,44663,2,0,P|424:243|387:222,1,84.9999976158143,8|2,0:0|0:0,0:0:0:0:
206,229,44863,5,0,0:0:0:0:
196,324,44963,1,2,0:0:0:0:
206,229,45063,5,8,0:0:0:0:
196,324,45163,1,0,0:0:0:0:
279,270,45263,5,8,0:0:0:0:
120,281,45363,1,2,0:0:0:0:
279,270,45464,5,8,0:0:0:0:
120,281,45564,1,2,0:0:0:0:
240,360,45664,5,8,0:0:0:0:
240,360,45764,2,0,L|351:350,1,93.5000002307892,2|0,0:0|0:0,0:0:0:0:
405,92,45964,1,2,0:0:0:0:
405,92,46064,2,0,L|294:82,1,93.5000002307892,8|0,0:0|0:0,0:0:0:0:
45,200,46264,2,0,L|156:190,1,93.5000002307892,8|2,0:0|0:0,0:0:0:0:
335,172,46464,5,0,0:0:0:0:
196,250,46564,5,2,0:0:0:0:
262,104,46664,5,8,0:0:0:0:
294,262,46764,5,0,0:0:0:0:
176,153,46864,6,2,P|152:131|144:101,1,63.7500006437302,10|2,0:0|0:0,0:0:0:0:
262,104,46964,2,2,P|255:134|233:157,1,63.7500006437302
177,55,47064,2,2,P|220:10|343:64,1,191.250001931191,2|0,0:0|0:0,0:0:0:0:
367,112,47264,5,12,0:0:0:0:
408,207,47364,2,0,P|398:259|349:297,1,106.249997019768,2|0,0:0|0:0,0:0:0:0:
215,283,47564,1,2,0:0:0:0:
228,185,47664,2,0,L|354:177,1,106.249997019768,8|0,0:0|0:0,0:0:0:0:
321,273,47864,1,8,0:0:0:0:
253,341,47965,1,2,0:0:0:0:
156,344,48065,2,0,P|126:303|136:252,1,106.249997019768,0|2,0:0|0:0,0:0:0:0:
297,120,48265,2,0,P|276:167|227:184,1,106.249997019768,8|0,0:0|0:0,0:0:0:0:
116,116,48465,5,8,0:0:0:0:
181,32,48565,1,2,0:0:0:0:
286,21,48665,5,8,0:0:0:0:
378,72,48765,1,2,0:0:0:0:
411,172,48865,5,12,0:0:0:0:
341,296,48965,2,0,P|318:250|323:197,1,106.249997019768,2|0,0:0|0:0,0:0:0:0:
473,93,49165,1,2,0:0:0:0:
510,238,49265,2,0,L|403:236,1,106.249997019768,8|0,0:0|0:0,0:0:0:0:
224,350,49465,1,8,0:0:0:0:
126,309,49565,2,0,P|199:238|293:273,1,212.499994039536,2|2,0:0|0:0,0:0:0:0:
419,378,49865,2,0,P|442:332|437:279,1,106.249997019768,8|0,0:0|0:0,0:0:0:0:
411,172,50065,5,8,0:0:0:0:
212,130,50165,1,2,0:0:0:0:
318,120,50265,5,8,0:0:0:0:
136,204,50365,1,2,0:0:0:0:
289,181,50466,5,12,0:0:0:0:
268,77,50566,2,0,P|212:45|166:61,1,106.249997019768,2|0,0:0|0:0,0:0:0:0:
267,263,50766,5,2,0:0:0:0:
373,260,50866,2,0,P|414:210|406:162,1,106.249997019768,8|0,0:0|0:0,0:0:0:0:
190,227,51066,5,8,0:0:0:0:
174,332,51166,2,0,P|215:381|264:381,1,106.249997019768,2|0,0:0|0:0,0:0:0:0:
238,157,51366,5,2,0:0:0:0:
138,124,51466,2,0,P|82:156|73:204,1,106.249997019768,8|0,0:0|0:0,0:0:0:0:
313,101,51666,5,8,0:0:0:0:
298,217,51766,1,2,0:0:0:0:
180,61,51866,5,8,0:0:0:0:
195,177,51966,1,2,0:0:0:0:
383,202,52066,5,12,0:0:0:0:
461,45,52166,2,0,B|415:52|394:42|394:42|359:65|359:65|320:55|320:55|295:69|258:71,1,212.499994039536,2|2,0:0|0:0,0:0:0:0:
71,193,52466,2,0,P|45:143|70:74,1,106.249997019768,8|0,0:0|0:0,0:0:0:0:
182,48,52666,1,8,0:0:0:0:
233,128,52766,1,2,0:0:0:0:
137,131,52866,1,0,0:0:0:0:
178,217,52967,1,2,0:0:0:0:
82,224,53067,2,0,P|98:277|165:308,1,106.249997019768,8|0,0:0|0:0,0:0:0:0:
374,279,53267,5,8,0:0:0:0:
184,297,53367,1,2,0:0:0:0:
292,180,53467,5,8,0:0:0:0:
272,378,53567,1,2,0:0:0:0:
83,297,53667,5,6,0:0:0:0:
79,269,53767,1,2,0:0:0:0:
75,241,53867,1,8,0:0:0:0:
71,213,53967,1,0,0:0:0:0:
67,185,54067,1,2,0:0:0:0:
63,157,54167,1,2,0:0:0:0:
59,129,54267,1,8,0:0:0:0:
55,101,54367,1,2,0:0:0:0:
51,73,54467,5,2,0:0:0:0:
150,104,54567,2,0,P|142:58|163:17,1,93.5000002307892,8|0,0:0|0:0,0:0:0:0:
196,241,54767,2,0,P|150:248|109:227,1,93.5000002307892,8|2,0:0|0:0,0:0:0:0:
332,195,54967,2,0,P|339:240|318:281,2,93.5000002307892,8|8|0,0:0|0:0|0:0,0:0:0:0:
287,59,55267,5,2,0:0:0:0:
324,57,55367,1,2,0:0:0:0:
361,55,55468,1,8,0:0:0:0:
398,54,55568,1,0,0:0:0:0:
467,157,55668,5,2,0:0:0:0:
430,155,55768,1,2,0:0:0:0:
393,153,55869,1,8,0:0:0:0:
356,152,55969,1,2,0:0:0:0:
262,96,56068,5,2,0:0:0:0:
210,165,56168,2,0,P|182:137|172:81,1,93.5000002307892,8|0,0:0|0:0,0:0:0:0:
497,172,56368,2,0,P|490:217|459:251,1,93.5000002307892,8|2,0:0|0:0,0:0:0:0:
278,293,56568,1,8,0:0:0:0:
282,161,56668,1,8,0:0:0:0:
389,235,56768,1,0,0:0:0:0:
386,358,56868,5,2,0:0:0:0:
335,334,56968,1,2,0:0:0:0:
279,326,57068,1,8,0:0:0:0:
224,340,57168,1,0,0:0:0:0:
178,373,57268,5,2,0:0:0:0:
211,331,57368,1,2,0:0:0:0:
206,256,57468,1,8,0:0:0:0:
162,194,57568,1,2,0:0:0:0:
88,178,57668,5,2,0:0:0:0:
21,275,57768,2,0,L|30:375,1,93.5000002307892,8|0,0:0|0:0,0:0:0:0:
378,324,57969,2,0,L|386:230,1,93.5000002307892,8|2,0:0|0:0,0:0:0:0:
88,178,58169,1,8,0:0:0:0:
94,270,58269,1,8,0:0:0:0:
186,264,58369,1,0,0:0:0:0:
180,172,58469,6,0,P|193:139|196:83,1,63.7500006437302,2|0,0:0|0:0,0:0:0:0:
75,53,58669,2,0,P|80:84|92:113,1,63.7500006437302,2|0,0:0|0:0,0:0:0:0:
419,113,58869,6,0,P|431:84|437:53,1,63.7500006437302,2|0,0:0|0:0,0:0:0:0:
314,111,59069,2,0,P|319:142|332:172,1,63.7500006437302,2|0,0:0|0:0,0:0:0:0:
408,269,59269,6,0,P|360:228|291:239,1,127.50000128746,2|2,0:0|0:0,0:0:0:0:
331,335,59569,1,2,0:0:0:0:
465,156,59669,6,8,L|453:100,12,31.8750003218651,10|8|8|8|8|8|8|8|8|8|8|8|8,0:0|0:0|0:0|0:0|0:0|0:0|0:0|0:0|0:0|0:0|0:0|0:0|0:0,0:0:0:0:
402,50,60069,6,0,B|433:187|433:187|398:152,1,187.000000461578,2|8,0:0|0:0,0:0:0:0:
243,113,60369,1,10,0:0:0:0:
309,38,60470,2,0,L|401:49,1,93.5000002307892,2|0,0:0|0:0,0:0:0:0:
177,188,60670,2,0,L|85:177,1,93.5000002307892,8|2,0:0|0:0,0:0:0:0:
94,337,60870,1,2,0:0:0:0:
158,253,60970,1,0,0:0:0:0:
54,240,61070,2,0,P|29:291|43:338,1,93.5000002307892,10|0,0:0|0:0,0:0:0:0:
177,188,61270,2,0,P|158:134|115:110,1,93.5000002307892,2|0,0:0|0:0,0:0:0:0:
198,350,61470,2,0,L|334:340,1,93.5000002307892,8|0,0:0|0:0,0:0:0:0:
382,242,61670,5,2,0:0:0:0:
278,232,61770,1,0,0:0:0:0:
382,242,61870,5,8,0:0:0:0:
278,232,61970,1,10,0:0:0:0:
379,325,62070,2,0,P|396:291|388:212,1,93.5000002307892,2|0,0:0|0:0,0:0:0:0:
216,67,62270,1,8,0:0:0:0:
202,183,62370,1,2,0:0:0:0:
319,146,62470,2,0,L|325:36,1,93.5000002307892,2|0,0:0|0:0,0:0:0:0:
481,260,62670,2,0,L|487:150,1,93.5000002307892,8|8,0:0|0:0,0:0:0:0:
272,374,62870,2,0,L|278:264,1,93.5000002307892,4|0,0:0|0:0,0:0:0:0:
418,0,63071,2,0,L|412:93,1,93.5000002307892,8|2,0:0|0:0,0:0:0:0:
186,288,63271,6,0,L|198:101,1,187.000000461578,2|8,0:0|0:0,0:0:0:0:
311,48,63571,1,8,0:0:0:0:
304,200,63671,5,2,0:0:0:0:
127,152,63804,5,2,0:0:0:0:
358,130,63938,5,2,0:0:0:0:
311,313,64071,6,0,B|335:304|356:328|343:352|317:373|286:375|260:372|233:345|226:296,1,187.000000461578,2|8,0:0|0:0,0:0:0:0:
127,152,64371,1,8,0:0:0:0:
97,292,64471,5,2,0:0:0:0:
84,88,64604,5,2,0:0:0:0:
288,75,64738,5,2,0:0:0:0:
304,283,64871,5,8,0:0:0:0:
424,210,65005,1,2,0:0:0:0:
223,214,65138,5,8,0:0:0:0:
224,354,65272,1,2,0:0:0:0:
321,178,65404,5,8,0:0:0:0:
200,109,65538,1,2,0:0:0:0:
64,320,65672,5,8,0:0:0:0:
64,320,65772,1,2,0:0:0:0:
448,320,65972,5,8,0:0:0:0:
448,320,66072,1,2,0:0:0:0:
256,32,66272,5,8,0:0:0:0:
256,32,66373,1,8,0:0:0:0:
256,192,66472,5,4,0:0:0:0:
