osu file format v14

[General]
AudioFilename: Shouko Hoshi Shouko.mp3
AudioLeadIn: 0
PreviewTime: 55927
Countdown: 0
SampleSet: Soft
StackLeniency: 0.7
Mode: 0
LetterboxInBreaks: 1
WidescreenStoryboard: 1

[Editor]
DistanceSpacing: 0.1
BeatDivisor: 4
GridSize: 8
TimelineZoom: 1

[Metadata]
Title:Shouko Hoshi Shouko
TitleUnicode:ショウコホシショウコ【星輝子MAD】
Artist:Megatti
ArtistUnicode:めがっち
Creator:HICCA
Version:HELL KINOKO
Source:Nico Nico Douga
Tags:アイドルマスター シンデレラガールズ 星輝子 ダンスロボットダンス idol m@ster cinderella girls vocaloid dance robot hicari
BeatmapID:1355228
BeatmapSetID:638942

[Difficulty]
HPDrainRate:5.5
CircleSize:4
OverallDifficulty:8.5
ApproachRate:9.4
SliderMultiplier:1.9
SliderTickRate:1

[Events]
//Background and Video events
0,0,"BG.jpg",0,0
Video,0,"Hoshi Shouko.avi"
//Break Periods
//Storyboard Layer 0 (Background)
//Storyboard Layer 1 (Fail)
//Storyboard Layer 2 (Pass)
//Storyboard Layer 3 (Foreground)
//Storyboard Sound Samples

[TimingPoints]
345,315.789473684211,4,2,1,75,1,0
45818,-133.333333333333,4,2,1,70,0,0
54660,-100,4,2,1,75,0,0
55450,-200,4,2,1,60,0,0
55923,-80,4,2,1,80,0,1
86239,-100,4,2,1,75,0,0

[HitObjects]
292,196,345,6,0,B|337:183|337:183|384:194,2,95,2|0|0,0:0|0:0|0:0,0:0:0:0:
426,268,818,2,0,P|464:228|458:158,1,95,0|2,0:0|0:0,0:0:0:0:
340,265,1134,2,0,P|349:310|383:342,1,95,2|0,0:0|0:0,0:0:0:0:
256,310,1450,1,0,0:0:0:0:
128,342,1608,6,0,P|162:310|172:265,1,95,2|0,0:0|0:0,0:0:0:0:
86,126,1923,1,0,0:0:0:0:
93,271,2081,2,0,P|135:192|225:210,2,190,2|2|2,0:0|0:0|0:0,0:0:0:0:
172,264,2792,1,0,0:0:0:0:
171,264,2871,6,0,P|162:310|128:342,2,95,2|0|0,0:0|0:0|0:0,0:0:0:0:
0,290,3345,2,0,L|93:271,1,95,0|2,0:0|0:0,0:0:0:0:
269,199,3660,2,0,L|175:180,1,95,2|0,0:0|0:0,0:0:0:0:
30,134,3976,1,0,0:0:0:0:
58,129,4055,1,0,0:0:0:0:
86,126,4134,5,2,0:0:0:0:
245,104,4292,1,0,0:0:0:0:
67,18,4450,1,0,0:0:0:0:
82,199,4608,2,0,L|175:180,1,95,2|0,0:0|0:0,0:0:0:0:
269,199,4923,2,0,L|363:181,1,95,2|0,0:0|0:0,0:0:0:0:
456,199,5239,2,0,L|503:190,1,47.5,2|0,0:0|0:0,0:0:0:0:
452,61,5397,5,2,0:0:0:0:
255,43,5555,2,0,P|298:26|345:33,1,95,2|0,0:0|0:0,0:0:0:0:
269,199,5871,2,0,P|232:169|215:125,1,95,0|2,0:0|0:0,0:0:0:0:
352,219,6187,1,2,0:0:0:0:
308,114,6345,1,0,0:0:0:0:
383,300,6502,1,2,0:0:0:0:
424,101,6660,5,2,0:0:0:0:
440,233,6818,2,0,P|395:212|349:219,1,95
253,285,7055,1,0,0:0:0:0:
235,298,7134,2,0,P|188:304|146:283,1,95,2|0,0:0|0:0,0:0:0:0:
165,120,7450,2,0,B|211:60|282:150|194:243,1,190,2|2,0:0|0:0,0:0:0:0:
20,177,7923,5,2,0:0:0:0:
147,169,8081,1,2,0:0:0:0:
14,177,8239,1,0,0:0:0:0:
152,168,8397,2,0,L|148:57,1,95,0|2,0:0|0:0,0:0:0:0:
14,177,8713,2,0,L|10:271,1,95,2|0,0:0|0:0,0:0:0:0:
83,370,8950,1,0,0:0:0:0:
108,354,9029,2,0,L|105:276,1,47.5,2|0,0:0|0:0,0:0:0:0:
83,171,9187,5,2,0:0:0:0:
252,253,9345,1,2,0:0:0:0:
67,284,9502,1,0,0:0:0:0:
197,150,9660,2,0,B|244:157|244:157|289:144,1,95,2|0,0:0|0:0,0:0:0:0:
171,336,9976,1,2,0:0:0:0:
164,308,10055,1,0,0:0:0:0:
156,275,10134,1,0,0:0:0:0:
147,237,10213,1,0,0:0:0:0:
137,195,10292,1,2,0:0:0:0:
126,148,10371,1,2,0:0:0:0:
115,96,10450,5,2,0:0:0:0:
253,169,10608,1,2,0:0:0:0:
357,63,10766,1,8,0:0:0:0:
165,29,10923,2,0,P|111:17|57:30,1,95,0|2,0:0|0:0,0:0:0:0:
253,169,11239,2,0,P|299:175|345:163,2,95,2|8|0,0:0|0:0|0:0,0:0:0:0:
462,87,11713,6,0,L|454:199,1,95,2|0,0:0|0:0,0:0:0:0:
291,0,12029,2,0,L|299:112,1,95,8|2,0:0|0:0,0:0:0:0:
304,145,12266,1,0,0:0:0:0:
304,145,12345,1,2,0:0:0:0:
292,333,12502,1,8,0:0:0:0:
413,188,12660,1,8,0:0:0:0:
230,234,12818,1,0,0:0:0:0:
423,186,12976,5,2,0:0:0:0:
405,304,13134,1,2,0:0:0:0:
230,234,13292,2,0,L|248:120,1,95,8|0,0:0|0:0,0:0:0:0:
405,304,13608,1,2,0:0:0:0:
292,333,13766,1,2,0:0:0:0:
304,145,13923,2,0,L|385:63,1,95,8|0,0:0|0:0,0:0:0:0:
405,304,14239,5,2,0:0:0:0:
221,276,14397,2,0,P|174:278|133:301,1,95,0|8,0:0|0:0,0:0:0:0:
57,366,14634,1,0,0:0:0:0:
57,366,14713,2,0,P|41:323|46:245,1,95,2|2,0:0|0:0,0:0:0:0:
184,186,15029,1,8,0:0:0:0:
24,137,15187,2,0,L|70:128,1,47.5,8|0,0:0|0:0,0:0:0:0:
133,301,15345,2,0,L|87:310,1,47.5
103,98,15502,5,2,0:0:0:0:
20,240,15660,1,2,0:0:0:0:
2,48,15818,1,8,0:0:0:0:
92,192,15976,2,0,P|141:178|197:192,1,95,0|2,0:0|0:0,0:0:0:0:
283,257,16292,1,2,0:0:0:0:
186,65,16450,2,0,P|227:87|255:125,1,95,8|0,0:0|0:0,0:0:0:0:
144,256,16766,5,2,0:0:0:0:
283,257,16923,1,0,0:0:0:0:
178,148,17081,1,8,0:0:0:0:
178,148,17160,1,0,0:0:0:0:
178,148,17239,2,0,L|83:142,1,95,2|2,0:0|0:0,0:0:0:0:
283,257,17555,2,0,L|188:251,1,95,8|8,0:0|0:0,0:0:0:0:
233,67,17871,2,0,L|147:61,1,47.5
328,132,18029,5,2,0:0:0:0:
371,12,18187,1,2,0:0:0:0:
389,195,18345,2,0,P|344:210|296:208,1,95,8|0,0:0|0:0,0:0:0:0:
370,280,18660,1,2,0:0:0:0:
328,132,18818,1,2,0:0:0:0:
313,345,18976,2,0,P|358:360|406:358,1,95,8|0,0:0|0:0,0:0:0:0:
251,225,19292,5,2,0:0:0:0:
46,275,19450,1,8,0:0:0:0:
221,326,19608,1,0,0:0:0:0:
75,173,19766,1,10,0:0:0:0:
118,351,19923,1,2,0:0:0:0:
178,148,20081,1,10,0:0:0:0:
118,351,20239,1,2,0:0:0:0:
113,328,20318,1,0,0:0:0:0:
107,304,20397,1,8,0:0:0:0:
101,280,20476,1,8,0:0:0:0:
94,254,20555,6,0,B|71:239|71:239|89:176|59:142,1,95,2|0,0:0|0:0,0:0:0:0:
30,55,20871,1,8,0:0:0:0:
178,148,21029,2,0,P|221:126|281:140,1,95,2|2,0:0|0:0,0:0:0:0:
88,114,21345,2,0,P|46:135|0:130,1,95,0|8,0:0|0:0,0:0:0:0:
164,50,21660,1,2,0:0:0:0:
235,206,21818,1,0,0:0:0:0:
295,47,21976,2,0,P|292:95|250:140,1,95,2|8,0:0|0:0,0:0:0:0:
177,180,22213,1,0,0:0:0:0:
178,148,22292,2,0,P|221:126|281:140,1,95,2|0,0:0|0:0,0:0:0:0:
204,284,22608,6,0,P|251:289|293:267,2,95,2|8|0,0:0|0:0|0:0,0:0:0:0:
337,185,23081,1,2,0:0:0:0:
319,371,23239,1,0,0:0:0:0:
460,223,23397,2,0,B|451:272|451:272|465:316,1,95,8|2,0:0|0:0,0:0:0:0:
337,185,23713,2,0,B|346:136|346:136|332:92,1,95,2|0,0:0|0:0,0:0:0:0:
235,206,24029,1,8,0:0:0:0:
404,336,24187,6,0,P|369:360|316:370,1,95,8|2,0:0|0:0,0:0:0:0:
387,165,24502,2,0,P|425:183|460:224,1,95,8|2,0:0|0:0,0:0:0:0:
221,297,24818,2,0,P|217:254|235:203,1,95,8|2,0:0|0:0,0:0:0:0:
248,170,25055,1,2,0:0:0:0:
245,132,25134,1,2,0:0:0:0:
251,94,25213,1,0,0:0:0:0:
277,67,25292,1,8,0:0:0:0:
321,82,25371,1,0,0:0:0:0:
368,87,25450,1,0,0:0:0:0:
412,69,25529,1,0,0:0:0:0:
449,40,25608,6,0,P|360:71|401:136,1,190,2|8,0:0|0:0,0:0:0:0:
464,205,26002,1,0,0:0:0:0:
464,205,26081,2,0,P|409:191|337:204,1,95,2|2,0:0|0:0,0:0:0:0:
350,346,26397,2,0,P|395:359|442:357,1,95,0|8,0:0|0:0,0:0:0:0:
403,275,26713,1,2,0:0:0:0:
250,220,26871,1,0,0:0:0:0:
279,381,27029,1,2,0:0:0:0:
403,275,27187,1,8,0:0:0:0:
279,381,27345,2,0,P|231:382|186:369,1,95,2|0,0:0|0:0,0:0:0:0:
44,283,27660,5,2,0:0:0:0:
49,315,27739,1,0,0:0:0:0:
54,347,27818,2,0,P|78:360|106:363,1,47.5,8|0,0:0|0:0,0:0:0:0:
242,302,27976,2,0,P|241:274|229:248,1,47.5,2|0,0:0|0:0,0:0:0:0:
110,162,28134,2,0,P|86:176|70:199,1,47.5,2|0,0:0|0:0,0:0:0:0:
133,277,28292,1,0,0:0:0:0:
231,156,28450,2,0,B|259:114|259:114|257:61,1,95,8|2,0:0|0:0,0:0:0:0:
157,25,28687,1,0,0:0:0:0:
128,32,28766,2,0,B|100:74|100:74|102:127,2,95,2|0|8,0:0|0:0|0:0,0:0:0:0:
112,248,29239,1,2,0:0:0:0:
179,94,29397,5,2,0:0:0:0:
17,131,29555,1,8,0:0:0:0:
59,124,29634,1,0,0:0:0:0:
101,118,29713,1,2,0:0:0:0:
196,261,29871,1,8,0:0:0:0:
154,254,29950,1,0,0:0:0:0:
112,248,30029,1,2,0:0:0:0:
179,94,30187,1,8,0:0:0:0:
221,87,30266,1,0,0:0:0:0:
263,81,30345,2,0,P|281:72|323:71,1,47.5,2|0,0:0|0:0,0:0:0:0:
475,156,30502,2,0,P|457:147|415:146,1,47.5,8|8,0:0|0:0,0:0:0:0:
322,244,30660,5,2,0:0:0:0:
379,36,30818,1,2,0:0:0:0:
433,232,30976,1,8,0:0:0:0:
307,148,31134,2,0,P|262:138|202:141,1,95,0|2,0:0|0:0,0:0:0:0:
379,36,31450,2,0,P|424:46|484:43,2,95,2|8|2,0:0|0:0|0:0,0:0:0:0:
430,143,31923,5,2,0:0:0:0:
321,338,32081,2,0,L|321:243,1,95,2|8,0:0|0:0,0:0:0:0:
196,261,32318,1,0,0:0:0:0:
196,261,32397,2,0,L|196:166,1,95,2|0,0:0|0:0,0:0:0:0:
430,238,32713,2,0,L|429:143,1,95,8|8,0:0|0:0,0:0:0:0:
321,352,33029,1,2,0:0:0:0:
110,286,33187,6,0,P|154:259|221:273,1,95,2|2,0:0|0:0,0:0:0:0:
172,351,33502,1,8,0:0:0:0:
142,170,33660,1,0,0:0:0:0:
250,155,33818,1,2,0:0:0:0:
172,351,33976,1,2,0:0:0:0:
64,336,34134,1,8,0:0:0:0:
280,366,34292,1,2,0:0:0:0:
103,253,34450,5,2,0:0:0:0:
265,260,34608,2,0,L|312:242,1,47.5,8|0,0:0|0:0,0:0:0:0:
142,170,34766,1,2,0:0:0:0:
172,351,34923,2,0,L|127:367,1,47.5,8|0,0:0|0:0,0:0:0:0:
250,155,35081,1,2,0:0:0:0:
280,366,35239,2,0,L|327:348,1,47.5,8|0,0:0|0:0,0:0:0:0:
477,208,35397,1,2,0:0:0:0:
435,216,35476,1,0,0:0:0:0:
393,225,35555,1,8,0:0:0:0:
351,234,35634,1,8,0:0:0:0:
309,243,35713,6,0,B|275:249|275:249|241:231|203:223,1,95,2|0,0:0|0:0,0:0:0:0:
8,251,36029,1,8,0:0:0:0:
155,352,36187,1,2,0:0:0:0:
135,160,36345,1,2,0:0:0:0:
64,368,36502,2,0,B|98:374|98:374|132:356|170:348,1,95,0|8,0:0|0:0,0:0:0:0:
273,314,36739,1,0,0:0:0:0:
304,336,36818,2,0,P|313:273|303:226,1,95,2|0,0:0|0:0,0:0:0:0:
135,160,37134,1,2,0:0:0:0:
224,281,37292,1,8,0:0:0:0:
37,195,37450,2,0,P|67:238|111:257,1,95,2|0,0:0|0:0,0:0:0:0:
155,62,37766,5,2,0:0:0:0:
155,62,37845,1,0,0:0:0:0:
155,62,37923,2,0,P|102:66|64:95,1,95,8|0,0:0|0:0,0:0:0:0:
213,226,38239,1,2,0:0:0:0:
243,84,38397,1,0,0:0:0:0:
37,195,38555,1,8,0:0:0:0:
180,146,38713,1,2,0:0:0:0:
72,9,38871,1,2,0:0:0:0:
102,151,39029,1,0,0:0:0:0:
141,149,39108,1,0,0:0:0:0:
180,146,39187,2,0,P|209:136|243:142,1,47.5,8|0,0:0|0:0,0:0:0:0:
353,185,39345,5,8,0:0:0:0:
314,44,39502,1,2,0:0:0:0:
498,101,39660,2,0,P|444:109|386:95,1,95,8|2,0:0|0:0,0:0:0:0:
314,44,39897,1,0,0:0:0:0:
287,20,39976,2,0,P|240:13|193:21,1,95,8|2,0:0|0:0,0:0:0:0:
102,151,40292,1,0,0:0:0:0:
30,47,40450,1,10,0:0:0:0:
243,100,40608,2,0,L|192:117,1,47.5
73,228,40766,6,0,P|12:162|51:81,1,190,2|8,0:0|0:0,0:0:0:0:
102,151,41160,1,0,0:0:0:0:
102,151,41239,1,2,0:0:0:0:
199,307,41397,1,2,0:0:0:0:
197,115,41555,1,0,0:0:0:0:
135,349,41713,2,0,L|89:335,1,47.5,8|0,0:0|0:0,0:0:0:0:
259,357,41871,5,2,0:0:0:0:
443,277,42029,1,0,0:0:0:0:
295,163,42187,5,2,0:0:0:0:
333,355,42345,1,8,0:0:0:0:
421,198,42502,5,2,0:0:0:0:
218,174,42660,1,0,0:0:0:0:
403,326,42818,5,2,0:0:0:0:
403,326,42897,1,0,0:0:0:0:
403,326,42976,2,0,L|408:265,1,47.5,8|0,0:0|0:0,0:0:0:0:
310,283,43134,2,0,L|315:222,1,47.5
388,81,43292,5,2,0:0:0:0:
241,91,43450,1,0,0:0:0:0:
450,161,43608,1,8,0:0:0:0:
264,174,43766,1,2,0:0:0:0:
489,68,43923,1,2,0:0:0:0:
219,14,44081,1,0,0:0:0:0:
450,161,44239,1,8,0:0:0:0:
241,91,44397,1,2,0:0:0:0:
297,87,44476,1,0,0:0:0:0:
353,84,44555,5,4,0:0:0:0:
241,91,44871,5,4,0:0:0:0:
129,98,45187,5,4,0:0:0:0:
129,88,45266,1,0,0:0:0:0:
129,78,45345,1,0,0:0:0:0:
129,68,45423,1,0,0:0:0:0:
129,58,45502,2,0,L|124:206,1,142.5,2|0,0:0|0:0,0:0:0:0:
124,207,45818,6,0,L|196:199,1,71.2500027179719,2|0,0:0|0:0,0:0:0:0:
112,336,46134,2,0,L|41:328,1,71.2500027179719,8|0,0:0|0:0,0:0:0:0:
212,248,46450,1,2,0:0:0:0:
191,353,46608,1,0,0:0:0:0:
63,192,46766,2,0,L|135:184,1,71.2500027179719,8|0,0:0|0:0,0:0:0:0:
252,110,47002,1,0,0:0:0:0:
277,114,47081,6,0,P|299:141|327:163,1,71.2500027179719,2|0,0:0|0:0,0:0:0:0:
495,164,47397,2,0,P|459:169|426:182,1,71.2500027179719,8|2,0:0|0:0,0:0:0:0:
342,327,47713,2,0,P|354:293|359:258,1,71.2500027179719,2|0,0:0|0:0,0:0:0:0:
194,179,48029,2,0,P|198:214|211:247,1,71.2500027179719,8|0,0:0|0:0,0:0:0:0:
293,348,48345,5,2,0:0:0:0:
423,304,48502,1,0,0:0:0:0:
320,214,48660,1,8,0:0:0:0:
293,348,48817,1,0,0:0:0:0:
428,210,48976,1,2,0:0:0:0:
229,267,49134,1,0,0:0:0:0:
422,304,49292,2,0,P|448:257|418:202,1,106.875004076958,8|0,0:0|0:0,0:0:0:0:
415,199,49608,5,2,0:0:0:0:
365,351,49766,1,0,0:0:0:0:
305,176,49923,1,8,0:0:0:0:
422,304,50081,1,2,0:0:0:0:
414,93,50239,1,2,0:0:0:0:
336,263,50397,1,0,0:0:0:0:
336,263,50476,1,0,0:0:0:0:
336,263,50555,1,8,0:0:0:0:
280,87,50713,2,0,L|331:89,1,35.625001358986
486,202,50871,6,0,L|408:198,1,71.2500027179719,2|0,0:0|0:0,0:0:0:0:
233,172,51187,2,0,L|304:175,1,71.2500027179719,8|0,0:0|0:0,0:0:0:0:
485,96,51502,2,0,L|407:92,1,71.2500027179719,2|0,0:0|0:0,0:0:0:0:
232,66,51818,2,0,L|303:69,1,71.2500027179719,8|0,0:0|0:0,0:0:0:0:
406,27,52055,1,0,0:0:0:0:
405,48,52134,6,0,L|401:143,1,71.2500027179719,2|0,0:0|0:0,0:0:0:0:
277,109,52450,1,8,0:0:0:0:
325,235,52608,1,2,0:0:0:0:
188,154,52766,2,0,L|185:82,1,71.2500027179719,2|0,0:0|0:0,0:0:0:0:
78,23,53002,1,0,0:0:0:0:
77,44,53081,2,0,L|74:115,1,71.2500027179719,8|0,0:0|0:0,0:0:0:0:
164,269,53397,5,2,0:0:0:0:
35,290,53555,1,0,0:0:0:0:
14,161,53713,1,8,0:0:0:0:
143,140,53871,1,0,0:0:0:0:
108,327,54029,1,2,0:0:0:0:
70,103,54187,1,0,0:0:0:0:
35,290,54345,1,8,0:0:0:0:
45,289,54423,1,0,0:0:0:0:
55,287,54502,1,2,0:0:0:0:
65,286,54581,1,0,0:0:0:0:
79,284,54660,5,2,0:0:0:0:
319,218,54818,1,8,0:0:0:0:
86,130,54976,5,2,0:0:0:0:
222,338,55134,1,8,0:0:0:0:
235,89,55292,5,8,0:0:0:0:
176,211,55450,1,2,0:0:0:0:
176,211,55529,1,2,0:0:0:0:
176,211,55608,2,0,B|182:175|182:175|166:139,1,71.25,2|0,0:0|0:0,0:0:0:0:
149,32,55923,6,0,B|140:94|140:94|167:142,1,118.75,6|0,0:0|0:0,0:0:0:0:
79,284,56239,1,8,0:0:0:0:
22,112,56397,1,2,0:0:0:0:
176,211,56555,2,0,P|123:186|42:201,1,118.75,2|0,0:0|0:0,0:0:0:0:
222,338,56871,2,0,P|280:342|333:317,1,118.75,8|0,0:0|0:0,0:0:0:0:
392,136,57187,5,2,0:0:0:0:
469,342,57345,1,0,0:0:0:0:
264,252,57502,2,0,L|241:128,1,118.75,8|2,0:0|0:0,0:0:0:0:
490,225,57818,2,0,L|468:341,1,118.75,2|8,0:0|0:0,0:0:0:0:
333,317,58055,1,0,0:0:0:0:
316,294,58134,2,0,L|305:224,1,59.375,8|0,0:0|0:0,0:0:0:0:
382,194,58292,2,0,L|391:135,1,59.375,2|0,0:0|0:0,0:0:0:0:
472,108,58450,5,2,0:0:0:0:
234,67,58608,1,0,0:0:0:0:
403,241,58766,1,8,0:0:0:0:
368,1,58923,1,2,0:0:0:0:
255,216,59081,5,2,0:0:0:0:
228,42,59239,1,0,0:0:0:0:
391,266,59397,1,8,0:0:0:0:
464,81,59555,1,0,0:0:0:0:
222,136,59713,5,2,0:0:0:0:
346,341,59871,2,0,P|398:355|467:308,1,118.75,2|8,0:0|0:0,0:0:0:0:
267,67,60187,2,0,P|215:53|146:100,1,118.75,2|2,0:0|0:0,0:0:0:0:
479,228,60502,2,0,P|482:198|478:169,1,59.375
363,7,60660,1,8,0:0:0:0:
361,24,60739,1,0,0:0:0:0:
359,41,60818,1,0,0:0:0:0:
357,58,60897,1,0,0:0:0:0:
355,75,60976,5,6,0:0:0:0:
222,136,61134,1,0,0:0:0:0:
35,53,61292,2,0,P|88:26|146:32,1,118.75,8|2,0:0|0:0,0:0:0:0:
337,158,61608,1,2,0:0:0:0:
107,114,61766,1,0,0:0:0:0:
107,114,61845,1,0,0:0:0:0:
107,114,61923,1,8,0:0:0:0:
355,75,62081,1,0,0:0:0:0:
90,206,62239,6,0,P|40:174|17:120,1,118.75,2|0,0:0|0:0,0:0:0:0:
196,83,62476,1,0,0:0:0:0:
196,83,62555,2,0,P|192:141|158:188,1,118.75,8|2,0:0|0:0,0:0:0:0:
82,311,62792,1,0,0:0:0:0:
82,311,62871,2,0,P|147:286|217:291,1,118.75,2|0,0:0|0:0,0:0:0:0:
316,225,63108,1,0,0:0:0:0:
316,225,63187,2,0,P|372:243|418:279,1,118.75,8|2,0:0|0:0,0:0:0:0:
156,370,63502,5,2,0:0:0:0:
123,193,63660,1,0,0:0:0:0:
249,277,63818,5,8,0:0:0:0:
31,255,63976,1,2,0:0:0:0:
188,90,64134,5,2,0:0:0:0:
162,287,64292,1,8,0:0:0:0:
25,86,64450,5,8,0:0:0:0:
265,73,64608,1,0,0:0:0:0:
156,369,64766,5,2,0:0:0:0:
32,122,64923,1,8,0:0:0:0:
25,86,65002,1,0,0:0:0:0:
19,50,65081,1,2,0:0:0:0:
267,182,65239,5,8,0:0:0:0:
259,229,65318,1,0,0:0:0:0:
249,277,65397,1,2,0:0:0:0:
139,58,65555,6,0,P|170:58|202:52,1,59.375,8|0,0:0|0:0,0:0:0:0:
254,33,65713,1,2,0:0:0:0:
313,30,65792,1,0,0:0:0:0:
367,54,65871,1,8,0:0:0:0:
402,101,65950,1,8,0:0:0:0:
414,159,66029,6,0,B|421:200|421:200|396:143|332:121,1,118.75,6|0,0:0|0:0,0:0:0:0:
317,361,66345,2,0,L|424:352,1,59.375,8|0,0:0|0:0,0:0:0:0:
481,205,66502,2,0,L|374:196,1,59.375,2|0,0:0|0:0,0:0:0:0:
252,272,66660,1,2,0:0:0:0:
448,293,66818,1,0,0:0:0:0:
223,267,66976,2,0,L|68:255,1,118.75,8|0,0:0|0:0,0:0:0:0:
209,143,67213,1,0,0:0:0:0:
210,154,67292,5,2,0:0:0:0:
232,337,67450,1,0,0:0:0:0:
322,181,67608,5,8,0:0:0:0:
284,335,67766,1,2,0:0:0:0:
409,248,67923,5,2,0:0:0:0:
331,344,68081,1,0,0:0:0:0:
459,359,68239,5,8,0:0:0:0:
187,351,68397,1,2,0:0:0:0:
110,135,68555,5,2,0:0:0:0:
277,319,68713,1,0,0:0:0:0:
63,220,68871,5,8,0:0:0:0:
323,233,69029,1,2,0:0:0:0:
91,318,69187,5,2,0:0:0:0:
295,135,69345,1,8,0:0:0:0:
186,369,69502,5,8,0:0:0:0:
200,84,69660,1,0,0:0:0:0:
293,337,69818,5,2,0:0:0:0:
93,116,69976,1,8,0:0:0:0:
147,101,70055,1,0,0:0:0:0:
200,84,70134,1,2,0:0:0:0:
430,266,70292,1,8,0:0:0:0:
376,250,70371,1,0,0:0:0:0:
323,233,70450,5,6,0:0:0:0:
464,43,70608,2,0,L|469:102,1,59.375,8|0,0:0|0:0,0:0:0:0:
484,282,70766,1,2,0:0:0:0:
341,106,70923,2,0,P|321:96|240:94,1,59.375,12|8,0:0|0:0,0:0:0:0:
65,150,71081,1,2,0:0:0:0:
200,203,71239,1,2,0:0:0:0:
195,39,71397,1,8,0:0:0:0:
52,188,71555,1,2,0:0:0:0:
290,111,71713,5,6,0:0:0:0:
238,342,71871,2,0,L|169:329,1,59.375,8|0,0:0|0:0,0:0:0:0:
152,131,72029,1,2,0:0:0:0:
52,321,72187,2,0,L|-3:241,1,59.375,12|8,0:0|0:0,0:0:0:0:
158,118,72345,1,2,0:0:0:0:
155,326,72502,1,2,0:0:0:0:
85,64,72660,6,0,P|141:34|229:58,1,118.75,8|2,0:0|0:0,0:0:0:0:
423,182,72976,2,0,L|427:64,1,118.75,2|0,0:0|0:0,0:0:0:0:
85,64,73292,2,0,L|88:182,1,118.75,8|0,0:0|0:0,0:0:0:0:
333,151,73608,5,2,0:0:0:0:
329,326,73766,1,0,0:0:0:0:
277,145,73923,1,8,0:0:0:0:
385,332,74081,1,2,0:0:0:0:
378,120,74239,1,2,0:0:0:0:
284,357,74397,1,0,0:0:0:0:
320,99,74555,1,8,0:0:0:0:
342,378,74713,1,0,0:0:0:0:
169,233,74871,5,2,0:0:0:0:
453,247,75029,2,0,L|378:240,1,59.375,8|0,0:0|0:0,0:0:0:0:
173,247,75187,1,2,0:0:0:0:
463,168,75345,2,0,L|377:159,1,59.375,8|0,0:0|0:0,0:0:0:0:
177,261,75503,1,2,0:0:0:0:
473,89,75660,2,0,L|387:80,1,59.375,8|0,0:0|0:0,0:0:0:0:
181,275,75818,2,0,L|239:281,1,59.375,2|0,0:0|0:0,0:0:0:0:
483,10,75976,2,0,L|397:1,1,59.375,8|8,0:0|0:0,0:0:0:0:
273,286,76134,5,6,0:0:0:0:
243,149,76292,1,0,0:0:0:0:
106,179,76450,1,8,0:0:0:0:
136,316,76608,1,2,0:0:0:0:
359,246,76766,1,2,0:0:0:0:
163,122,76923,2,0,P|112:97|35:138,1,118.75,0|8,0:0|0:0,0:0:0:0:
218,343,77239,2,0,P|269:368|346:327,1,118.75,2|2,0:0|0:0,0:0:0:0:
376,81,77555,5,2,0:0:0:0:
376,81,77634,1,0,0:0:0:0:
376,81,77713,1,8,0:0:0:0:
359,246,77871,1,8,0:0:0:0:
451,150,78029,1,2,0:0:0:0:
420,344,78187,2,0,L|425:272,1,59.375,8|0,0:0|0:0,0:0:0:0:
298,148,78345,2,0,L|309:16,1,118.75,8|0,0:0|0:0,0:0:0:0:
148,75,78581,1,0,0:0:0:0:
141,104,78660,6,0,L|249:179,1,118.75,6|0,0:0|0:0,0:0:0:0:
448,106,78976,1,8,0:0:0:0:
238,36,79134,2,0,L|129:111,1,118.75,2|2,0:0|0:0,0:0:0:0:
239,312,79450,1,0,0:0:0:0:
335,103,79608,2,0,L|237:35,1,118.75,8|2,0:0|0:0,0:0:0:0:
79,235,79923,5,2,0:0:0:0:
62,69,80081,1,2,0:0:0:0:
58,224,80239,1,8,0:0:0:0:
253,200,80397,1,8,0:0:0:0:
78,212,80555,1,2,0:0:0:0:
91,384,80713,1,8,0:0:0:0:
170,105,80871,1,8,0:0:0:0:
169,87,80950,1,0,0:0:0:0:
168,69,81029,1,0,0:0:0:0:
167,51,81108,1,0,0:0:0:0:
166,32,81187,5,6,0:0:0:0:
293,162,81345,1,0,0:0:0:0:
117,206,81502,1,8,0:0:0:0:
219,32,81660,5,2,0:0:0:0:
269,225,81818,1,2,0:0:0:0:
76,170,81975,1,0,0:0:0:0:
266,60,82134,5,8,0:0:0:0:
207,269,82292,1,2,0:0:0:0:
54,113,82449,5,2,0:0:0:0:
293,162,82608,1,2,0:0:0:0:
42,110,82766,1,8,0:0:0:0:
305,164,82923,1,8,0:0:0:0:
84,237,83081,5,2,0:0:0:0:
262,36,83240,1,8,0:0:0:0:
215,263,83397,5,8,0:0:0:0:
130,9,83556,1,0,0:0:0:0:
317,166,83713,5,6,0:0:0:0:
174,137,83871,1,0,0:0:0:0:
174,137,83950,1,0,0:0:0:0:
174,137,84029,1,8,0:0:0:0:
458,100,84187,1,2,0:0:0:0:
391,286,84345,1,2,0:0:0:0:
123,234,84502,1,0,0:0:0:0:
362,46,84660,1,8,0:0:0:0:
313,365,84818,1,2,0:0:0:0:
58,111,84976,5,2,0:0:0:0:
96,309,85134,1,10,0:0:0:0:
265,153,85292,5,8,0:0:0:0:
27,181,85450,1,2,0:0:0:0:
279,334,85608,5,8,0:0:0:0:
241,38,85766,1,8,0:0:0:0:
36,258,85923,5,2,0:0:0:0:
450,168,86081,1,8,0:0:0:0:
421,161,86160,1,8,0:0:0:0:
392,154,86239,5,2,0:0:0:0:
374,315,86397,1,2,0:0:0:0:
265,153,86555,1,8,0:0:0:0:
447,89,86713,2,0,P|474:133|473:178,1,95,0|2,0:0|0:0,0:0:0:0:
279,334,87029,2,0,P|280:287|306:247,2,95,2|8|2,0:0|0:0|0:0,0:0:0:0:
181,260,87502,5,2,0:0:0:0:
374,315,87660,2,0,L|481:293,1,95,2|8,0:0|0:0,0:0:0:0:
200,370,87976,2,0,L|93:348,1,95,0|2,0:0|0:0,0:0:0:0:
57,334,88213,1,0,0:0:0:0:
57,334,88292,1,8,0:0:0:0:
162,150,88450,1,8,0:0:0:0:
181,260,88608,1,2,0:0:0:0:
17,259,88766,6,0,P|5:213|24:150,1,95,2|2,0:0|0:0,0:0:0:0:
143,40,89081,1,8,0:0:0:0:
181,260,89239,2,0,B|131:252|131:252|79:268,1,95,0|2,0:0|0:0,0:0:0:0:
137,345,89555,1,2,0:0:0:0:
162,150,89713,2,0,B|212:158|212:158|264:142,1,95,8|2,0:0|0:0,0:0:0:0:
143,40,90029,5,2,0:0:0:0:
95,187,90187,1,2,0:0:0:0:
95,187,90266,1,0,0:0:0:0:
95,187,90345,1,8,0:0:0:0:
256,31,90502,2,0,L|379:21,1,95,0|2,0:0|0:0,0:0:0:0:
48,47,90818,2,0,L|171:37,1,95,8|8,0:0|0:0,0:0:0:0:
253,144,91134,2,0,L|301:141,1,47.5,2|0,0:0|0:0,0:0:0:0:
407,80,91292,5,2,0:0:0:0:
407,233,91450,1,2,0:0:0:0:
407,64,91608,1,8,0:0:0:0:
329,267,91766,2,0,P|398:320|420:318,1,95,0|2,0:0|0:0,0:0:0:0:
301,141,92081,2,0,P|220:174|211:194,1,95,2|8,0:0|0:0,0:0:0:0:
412,203,92397,1,2,0:0:0:0:
418,191,92476,1,0,0:0:0:0:
424,179,92555,6,0,P|435:92|422:74,2,95,2|2|8,0:0|0:0|0:0,0:0:0:0:
311,80,93029,1,0,0:0:0:0:
493,70,93187,1,2,0:0:0:0:
287,159,93345,1,8,0:0:0:0:
419,34,93503,1,8,0:0:0:0:
319,234,93660,1,2,0:0:0:0:
340,54,93818,5,2,0:0:0:0:
195,138,93976,1,2,0:0:0:0:
379,205,94134,2,0,L|491:198,1,95,8|0,0:0|0:0,0:0:0:0:
296,122,94450,1,2,0:0:0:0:
288,337,94608,2,0,L|382:331,1,95,2|8,0:0|0:0,0:0:0:0:
228,264,94923,2,0,L|158:268,1,47.5
131,343,95081,5,2,0:0:0:0:
69,181,95239,1,8,0:0:0:0:
69,181,95318,1,0,0:0:0:0:
69,181,95397,1,2,0:0:0:0:
265,216,95555,5,8,0:0:0:0:
43,256,95713,1,2,0:0:0:0:
183,82,95871,5,8,0:0:0:0:
179,276,96029,2,0,L|158:215,1,47.5,2|0,0:0|0:0,0:0:0:0:
73,36,96187,5,8,0:0:0:0:
439,348,97450,5,4,0:0:0:0:
