osu file format v14

[General]
AudioFilename: kanna hentai.mp3
AudioLeadIn: 0
PreviewTime: 250
Countdown: 0
SampleSet: None
StackLeniency: 0.7
Mode: 0
LetterboxInBreaks: 1
WidescreenStoryboard: 1

[Editor]
DistanceSpacing: 1
BeatDivisor: 8
GridSize: 4
TimelineZoom: 1.6

[Metadata]
Title:Kanna's HENTAITTAI
TitleUnicode:カンナ先進国ヘンタイッタイッ【小林さんちのメイドラゴンMAD】
Artist:Megatti!
ArtistUnicode:めがっち!
Creator:HICCA
Version:Hentai
Source:Nico Nico Douga
Tags:小林さんちのメイドラゴン カンナカムイ サンドキャニオン miss kobayashi's dragon maid kanna kamuy kamui sand canyon hicari
BeatmapID:1906577
BeatmapSetID:912666

[Difficulty]
HPDrainRate:7
CircleSize:4
OverallDifficulty:8
ApproachRate:9.2
SliderMultiplier:1.7
SliderTickRate:1

[Events]
//Background and Video events
0,0,"BG.jpg",0,0
Video,80,"kanna hentai.avi"
//Break Periods
//Storyboard Layer 0 (Background)
//Storyboard Layer 1 (Fail)
//Storyboard Layer 2 (Pass)
//Storyboard Layer 3 (Foreground)
//Storyboard Sound Samples

[TimingPoints]
296,363.636363636364,4,2,1,70,1,0
23568,-83.3333333333333,4,2,1,70,0,1
34477,-200,4,2,1,70,0,1
34841,-200,4,2,1,30,0,1

[HitObjects]
341,92,296,5,2,0:0:0:0:
377,265,477,1,0,0:0:0:0:
509,148,659,5,8,0:0:0:0:
279,120,841,1,2,0:0:0:0:
370,334,1023,5,2,0:0:0:0:
403,64,1205,1,0,0:0:0:0:
403,64,1296,1,0,0:0:0:0:
403,64,1386,1,8,0:0:0:0:
502,217,1568,1,2,0:0:0:0:
336,153,1750,5,2,0:0:0:0:
310,320,1932,1,2,0:0:0:0:
310,320,2023,1,0,0:0:0:0:
310,320,2114,1,8,0:0:0:0:
150,200,2296,1,2,0:0:0:0:
213,350,2477,5,2,0:0:0:0:
206,119,2659,1,0,0:0:0:0:
85,281,2841,2,0,P|128:256|191:269,1,85,8|2,0:0|0:0,0:0:0:0:
310,320,3205,5,2,0:0:0:0:
471,272,3386,1,0,0:0:0:0:
255,205,3568,5,8,0:0:0:0:
434,319,3750,1,2,0:0:0:0:
193,301,3932,5,2,0:0:0:0:
460,214,4114,1,0,0:0:0:0:
460,214,4205,1,0,0:0:0:0:
460,214,4296,1,8,0:0:0:0:
310,320,4477,1,2,0:0:0:0:
294,116,4659,5,2,0:0:0:0:
193,301,4841,2,0,P|179:273|173:230,1,42.5,2|0,0:0|0:0,0:0:0:0:
190,86,5023,1,8,0:0:0:0:
398,146,5205,1,2,0:0:0:0:
271,29,5386,1,2,0:0:0:0:
230,209,5568,5,0,0:0:0:0:
185,176,5659,1,0,0:0:0:0:
130,168,5750,1,8,0:0:0:0:
80,192,5841,1,0,0:0:0:0:
49,237,5932,1,0,0:0:0:0:
24,187,6023,1,0,0:0:0:0:
29,131,6114,5,2,0:0:0:0:
149,278,6296,1,0,0:0:0:0:
153,34,6477,1,8,0:0:0:0:
192,49,6568,1,0,0:0:0:0:
234,49,6659,1,2,0:0:0:0:
274,36,6750,1,0,0:0:0:0:
306,8,6841,1,2,0:0:0:0:
298,144,7023,5,0,0:0:0:0:
298,144,7114,1,0,0:0:0:0:
298,144,7205,1,8,0:0:0:0:
111,40,7386,1,2,0:0:0:0:
144,232,7568,6,0,L|149:295,1,42.5,2|0,0:0|0:0,0:0:0:0:
191,70,7750,2,0,L|194:27,1,42.5,2|0,0:0|0:0,0:0:0:0:
44,143,7932,2,0,L|40:185,1,42.5,8|0,0:0|0:0,0:0:0:0:
301,186,8114,2,0,L|297:143,1,42.5,2|0,0:0|0:0,0:0:0:0:
165,147,8296,5,2,0:0:0:0:
227,339,8477,1,0,0:0:0:0:
227,339,8568,1,0,0:0:0:0:
227,339,8659,2,0,P|190:369|148:367,1,85,8|2,0:0|0:0,0:0:0:0:
51,287,9023,5,2,0:0:0:0:
204,245,9205,1,2,0:0:0:0:
162,92,9386,1,8,0:0:0:0:
9,134,9568,1,2,0:0:0:0:
138,304,9750,5,2,0:0:0:0:
72,68,9932,1,0,0:0:0:0:
51,287,10114,1,8,0:0:0:0:
162,92,10296,1,2,0:0:0:0:
9,134,10477,6,0,P|43:137|73:148,1,42.5,2|0,0:0|0:0,0:0:0:0:
125,234,10659,1,2,0:0:0:0:
151,263,10750,1,0,0:0:0:0:
189,272,10841,1,8,0:0:0:0:
224,255,10932,1,0,0:0:0:0:
242,222,11022,1,2,0:0:0:0:
240,184,11114,1,0,0:0:0:0:
225,149,11205,5,2,0:0:0:0:
226,94,11296,1,0,0:0:0:0:
270,62,11386,1,0,0:0:0:0:
326,66,11477,1,0,0:0:0:0:
366,106,11568,1,8,0:0:0:0:
343,305,11750,1,2,0:0:0:0:
479,158,11932,5,2,0:0:0:0:
283,197,12114,1,0,0:0:0:0:
283,197,12205,1,0,0:0:0:0:
283,197,12296,1,8,0:0:0:0:
465,281,12477,1,2,0:0:0:0:
366,106,12659,1,2,0:0:0:0:
370,328,12841,1,0,0:0:0:0:
365,93,13023,1,8,0:0:0:0:
371,341,13205,5,2,0:0:0:0:
371,341,13296,1,0,0:0:0:0:
371,341,13386,1,2,0:0:0:0:
230,248,13568,1,2,0:0:0:0:
381,172,13750,1,8,0:0:0:0:
206,339,13932,1,2,0:0:0:0:
206,339,14023,1,0,0:0:0:0:
206,339,14114,5,2,0:0:0:0:
32,196,14296,1,0,0:0:0:0:
242,117,14477,1,8,0:0:0:0:
60,301,14659,1,2,0:0:0:0:
190,64,14841,5,2,0:0:0:0:
179,271,15023,1,0,0:0:0:0:
62,99,15205,5,8,0:0:0:0:
137,351,15386,1,2,0:0:0:0:
21,225,15568,5,2,0:0:0:0:
333,148,15750,1,0,0:0:0:0:
333,148,15932,1,8,0:0:0:0:
301,318,16114,5,2,0:0:0:0:
301,318,16205,1,0,0:0:0:0:
301,318,16296,1,2,0:0:0:0:
180,242,16477,1,2,0:0:0:0:
393,212,16659,1,8,0:0:0:0:
81,137,16841,6,0,L|139:127,1,42.5,2|0,0:0|0:0,0:0:0:0:
430,87,17023,1,2,0:0:0:0:
245,25,17205,5,0,0:0:0:0:
255,109,17386,5,8,0:0:0:0:
265,193,17568,5,2,0:0:0:0:
265,193,17659,1,0,0:0:0:0:
265,193,17750,1,2,0:0:0:0:
227,172,17841,1,0,0:0:0:0:
184,165,17932,1,0,0:0:0:0:
146,184,18023,1,0,0:0:0:0:
126,221,18114,2,0,P|112:174|139:105,1,85,8|2,0:0|0:0,0:0:0:0:
211,32,18477,5,2,0:0:0:0:
392,70,18659,1,2,0:0:0:0:
66,107,18841,1,8,0:0:0:0:
247,145,19023,1,2,0:0:0:0:
205,327,19205,5,2,0:0:0:0:
103,134,19386,2,0,L|99:197,1,42.5,2|0,0:0|0:0,0:0:0:0:
92,356,19568,1,8,0:0:0:0:
204,161,19750,2,0,L|204:221,1,42.5,2|0,0:0|0:0,0:0:0:0:
327,354,19932,1,2,0:0:0:0:
305,132,20114,2,0,L|309:195,1,42.5
205,327,20296,1,8,0:0:0:0:
388,196,20477,5,2,0:0:0:0:
388,196,20568,1,0,0:0:0:0:
388,196,20659,1,2,0:0:0:0:
408,158,20750,1,0,0:0:0:0:
405,115,20841,1,2,0:0:0:0:
383,78,20932,1,0,0:0:0:0:
343,62,21023,5,8,0:0:0:0:
309,100,21114,1,0,0:0:0:0:
261,119,21205,1,2,0:0:0:0:
210,114,21296,1,0,0:0:0:0:
167,86,21386,1,2,0:0:0:0:
263,237,21568,1,2,0:0:0:0:
254,31,21750,1,8,0:0:0:0:
80,141,21932,5,2,0:0:0:0:
139,352,22114,1,2,0:0:0:0:
210,114,22296,1,2,0:0:0:0:
26,289,22477,1,8,0:0:0:0:
80,141,22659,1,2,0:0:0:0:
263,237,22841,2,0,P|260:189|273:130,1,85,2|0,0:0|0:0,0:0:0:0:
428,20,23205,5,2,0:0:0:0:
424,45,23296,1,2,0:0:0:0:
420,70,23386,1,2,0:0:0:0:
416,95,23477,1,2,0:0:0:0:
412,120,23568,5,6,0:0:0:0:
414,360,23750,1,8,0:0:0:0:
243,166,23932,1,0,0:0:0:0:
481,211,24114,1,8,0:0:0:0:
358,264,24296,5,2,0:0:0:0:
325,5,24477,1,10,0:0:0:0:
121,85,24659,1,0,0:0:0:0:
412,120,24841,1,10,0:0:0:0:
222,206,25023,5,0,0:0:0:0:
18,93,25205,2,0,L|89:85,1,50.9999984436036,8|0,0:0|0:0,0:0:0:0:
127,291,25386,5,0,0:0:0:0:
389,174,25568,2,0,L|332:168,1,50.9999984436036,10|0,0:0|0:0,0:0:0:0:
246,370,25750,5,2,0:0:0:0:
220,68,25932,1,8,0:0:0:0:
220,68,26023,1,8,0:0:0:0:
220,68,26114,1,2,0:0:0:0:
325,257,26296,1,10,0:0:0:0:
325,257,26386,1,0,0:0:0:0:
325,257,26477,5,2,0:0:0:0:
303,107,26659,1,8,0:0:0:0:
153,129,26841,1,0,0:0:0:0:
175,279,27023,1,8,0:0:0:0:
371,173,27205,5,2,0:0:0:0:
254,331,27387,1,8,0:0:0:0:
96,213,27569,1,0,0:0:0:0:
213,55,27751,1,10,0:0:0:0:
426,130,27932,5,2,0:0:0:0:
370,381,28114,2,0,L|363:317,1,50.9999984436036,8|0,0:0|0:0,0:0:0:0:
144,191,28296,5,0,0:0:0:0:
452,220,28477,2,0,L|389:226,1,50.9999984436036,10|0,0:0|0:0,0:0:0:0:
242,36,28659,5,2,0:0:0:0:
262,339,28841,1,8,0:0:0:0:
262,339,28932,1,8,0:0:0:0:
262,339,29023,1,2,0:0:0:0:
331,153,29205,1,10,0:0:0:0:
331,153,29296,1,0,0:0:0:0:
331,153,29386,5,2,0:0:0:0:
77,80,29568,2,0,B|70:110|68:120|75:142,1,50.9999984436036,8|2,0:0|0:0,0:0:0:0:
144,277,29750,1,2,0:0:0:0:
172,36,29932,1,8,0:0:0:0:
258,263,30114,6,0,P|286:239|297:221,1,50.9999984436036,2|0,0:0|0:0,0:0:0:0:
68,308,30296,2,0,P|83:328|103:343,1,50.9999984436036,10|0,0:0|0:0,0:0:0:0:
137,145,30477,1,0,0:0:0:0:
182,346,30659,5,8,0:0:0:0:
436,318,30841,1,2,0:0:0:0:
449,290,30932,2,0,L|454:232,1,50.9999984436036,2|8,0:0|0:0,0:0:0:0:
257,164,31114,1,2,0:0:0:0:
243,195,31205,2,0,L|247:245,1,50.9999984436036,2|0,0:0|0:0,0:0:0:0:
419,84,31386,1,8,0:0:0:0:
390,72,31477,1,0,0:0:0:0:
362,59,31568,5,2,0:0:0:0:
311,51,31659,1,0,0:0:0:0:
260,56,31750,1,10,0:0:0:0:
219,87,31841,1,0,0:0:0:0:
197,133,31932,5,0,0:0:0:0:
203,193,32023,1,0,0:0:0:0:
244,237,32114,1,8,0:0:0:0:
302,255,32205,1,0,0:0:0:0:
357,228,32296,5,2,0:0:0:0:
123,92,32477,1,8,0:0:0:0:
123,92,32568,1,2,0:0:0:0:
123,92,32659,1,2,0:0:0:0:
320,78,32841,1,8,0:0:0:0:
182,343,33023,5,2,0:0:0:0:
86,167,33205,1,10,0:0:0:0:
332,287,33386,1,0,0:0:0:0:
382,64,33568,1,10,0:0:0:0:
219,281,33750,5,2,0:0:0:0:
179,309,33841,2,0,L|129:312,1,50.9999984436036,2|8,0:0|0:0,0:0:0:0:
404,129,34023,5,2,0:0:0:0:
443,156,34114,2,0,L|452:222,1,50.9999984436036,2|0,0:0|0:0,0:0:0:0:
163,94,34296,5,10,0:0:0:0:
146,49,34386,1,2,0:0:0:0:
178,9,34477,6,0,P|230:19|243:44,1,85,8|4,0:0|0:0,0:0:0:0:
