osu file format v14

[General]
AudioFilename: MaindoBurando.mp3
AudioLeadIn: 0
PreviewTime: 11375
Countdown: 0
SampleSet: Soft
StackLeniency: 0.7
Mode: 3
LetterboxInBreaks: 0
SkinPreference:Popn Music v4.2
SpecialStyle: 0
WidescreenStoryboard: 1
SamplesMatchPlaybackRate: 1

[Editor]
Bookmarks: 73437,165857,192909
DistanceSpacing: 1
BeatDivisor: 3
GridSize: 4
TimelineZoom: 0.7

[Metadata]
Title:Mind brand
TitleUnicode:マインドブランド
Artist:Megatera Zero
ArtistUnicode:メガテラ・ゼロ
Creator:MaboHan
Version:NORMAL(9K)
Source:
Tags:MARETU vocaloid 初音ミク hatsune miku niko douga 9k
BeatmapID:878198
BeatmapSetID:403639

[Difficulty]
HPDrainRate:7
CircleSize:9
OverallDifficulty:8
ApproachRate:5
SliderMultiplier:1.4
SliderTickRate:1

[Events]
//Background and Video events
0,0,"maindhaikei.jpg",0,0
//Break Periods
//Storyboard Layer 0 (Background)
//Storyboard Layer 1 (Fail)
//Storyboard Layer 2 (Pass)
//Storyboard Layer 3 (Foreground)
//Storyboard Sound Samples

[TimingPoints]
986,384.615384615385,4,2,1,75,1,0

[Colours]
Combo1 : 225,30,186
Combo2 : 192,192,192
Combo3 : 0,0,0
Combo4 : 128,0,255

[HitObjects]
85,192,601,5,0,0:0:0:0:
312,192,986,1,0,0:0:0:0:
426,192,1242,1,0,0:0:0:0:
142,192,1370,1,2,0:0:0:0:
256,192,1755,1,0,0:0:0:0:
28,192,2011,1,0,0:0:0:0:
142,192,2139,1,2,0:0:0:0:
369,192,2396,1,0,0:0:0:0:
483,192,2524,1,0,0:0:0:0:
85,192,2780,1,0,0:0:0:0:
199,192,2909,1,2,0:0:0:0:
312,192,3165,1,0,0:0:0:0:
426,192,3293,1,0,0:0:0:0:
199,192,3550,1,0,0:0:0:0:
85,192,3678,1,2,0:0:0:0:
142,192,4062,1,0,0:0:0:0:
369,192,4319,1,0,0:0:0:0:
483,192,4447,1,2,0:0:0:0:
256,192,4832,1,0,0:0:0:0:
28,192,5088,1,0,0:0:0:0:
142,192,5216,1,2,0:0:0:0:
369,192,5473,1,0,0:0:0:0:
483,192,5601,1,0,0:0:0:0:
85,192,5857,1,0,0:0:0:0:
199,192,5986,1,2,0:0:0:0:
312,192,6242,1,0,0:0:0:0:
426,192,6370,1,0,0:0:0:0:
142,192,6755,1,0,0:0:0:0:
28,192,6755,1,0,0:0:0:70:se_maoudamashii_instruments_drum2_snare.wav
369,192,7139,1,0,0:0:0:0:
28,192,7139,1,0,0:0:0:70:se_maoudamashii_instruments_drum2_snare.wav
199,192,7524,1,0,0:0:0:0:
28,192,7524,1,0,0:0:0:70:se_maoudamashii_instruments_drum2_snare.wav
426,192,7909,1,0,0:0:0:0:
28,192,7909,1,0,0:0:0:70:se_maoudamashii_instruments_drum2_snare.wav
483,192,8293,1,0,0:0:0:0:
28,192,8293,1,0,0:0:0:70:se_maoudamashii_instruments_drum2_snare.wav
142,192,8678,1,0,0:0:0:0:
28,192,8678,1,0,0:0:0:70:se_maoudamashii_instruments_drum2_snare.wav
369,192,9062,1,0,0:0:0:0:
28,192,9062,1,0,0:0:0:70:se_maoudamashii_instruments_drum2_snare.wav
256,192,9447,1,0,0:0:0:0:
28,192,9447,1,0,0:0:0:70:se_maoudamashii_instruments_drum2_snare.wav
426,192,9832,1,0,0:0:0:70:se_maoudamashii_instruments_drum2_hat.wav
28,192,9832,1,0,0:0:0:70:se_maoudamashii_instruments_drum2_snare.wav
426,192,10216,1,0,0:0:0:70:se_maoudamashii_instruments_drum2_hat.wav
28,192,10216,1,0,0:0:0:70:se_maoudamashii_instruments_drum2_snare.wav
426,192,10601,1,0,0:0:0:70:se_maoudamashii_instruments_drum2_hat.wav
28,192,10601,1,0,0:0:0:70:se_maoudamashii_instruments_drum2_snare.wav
426,192,10986,1,0,0:0:0:70:se_maoudamashii_instruments_drum2_hat.wav
28,192,10986,1,0,0:0:0:70:se_maoudamashii_instruments_drum2_snare.wav
256,192,11370,1,0,0:0:0:70:welcome_to_the.wav
312,192,12075,1,0,0:0:0:70:drum-hitclap2.wav
199,192,12524,1,0,0:0:0:70:drum-hitclap3.wav
369,192,12909,1,0,0:0:0:0:
28,192,12909,1,0,0:0:0:70:se_maoudamashii_instruments_drum1_tom3.wav
483,192,13293,1,0,0:0:0:0:
28,192,13293,1,0,0:0:0:70:se_maoudamashii_instruments_drum1_tom3.wav
369,192,13678,1,0,0:0:0:0:
85,192,13678,1,8,0:0:0:0:
256,192,14062,1,0,0:0:0:0:
312,192,14447,1,0,0:0:0:0:
28,192,14447,1,0,0:0:0:70:se_maoudamashii_instruments_drum1_tom3.wav
199,192,14832,1,0,0:0:0:0:
28,192,14832,1,0,0:0:0:70:se_maoudamashii_instruments_drum1_tom3.wav
256,192,15216,1,0,0:0:0:0:
85,192,15216,1,8,0:0:0:0:
142,192,15601,1,4,0:0:0:0:
369,192,15986,1,0,0:0:0:0:
28,192,15986,1,0,0:0:0:70:se_maoudamashii_instruments_drum1_tom3.wav
483,192,16370,1,0,0:0:0:0:
28,192,16370,1,0,0:0:0:70:se_maoudamashii_instruments_drum1_tom3.wav
369,192,16755,1,0,0:0:0:0:
85,192,16755,1,8,0:0:0:0:
256,192,17139,1,0,0:0:0:0:
312,192,17524,1,0,0:0:0:0:
28,192,17524,1,0,0:0:0:70:se_maoudamashii_instruments_drum1_tom3.wav
199,192,17909,1,0,0:0:0:0:
28,192,17909,1,0,0:0:0:70:se_maoudamashii_instruments_drum1_tom3.wav
256,192,18293,1,0,0:0:0:0:
85,192,18293,1,8,0:0:0:0:
142,192,18678,1,4,0:0:0:0:
369,192,19062,1,0,0:0:0:0:
28,192,19062,1,0,0:0:0:70:se_maoudamashii_instruments_drum1_tom3.wav
483,192,19447,1,0,0:0:0:0:
28,192,19447,1,0,0:0:0:70:se_maoudamashii_instruments_drum1_tom3.wav
369,192,19832,1,0,0:0:0:0:
85,192,19832,1,8,0:0:0:0:
256,192,20216,1,0,0:0:0:0:
312,192,20601,1,0,0:0:0:0:
28,192,20601,1,0,0:0:0:70:se_maoudamashii_instruments_drum1_tom3.wav
199,192,20986,1,0,0:0:0:0:
28,192,20986,1,0,0:0:0:70:se_maoudamashii_instruments_drum1_tom3.wav
256,192,21370,1,0,0:0:0:0:
85,192,21370,1,8,0:0:0:0:
142,192,21755,1,4,0:0:0:0:
369,192,22139,1,0,0:0:0:0:
28,192,22139,1,0,0:0:0:70:se_maoudamashii_instruments_drum1_tom3.wav
483,192,22524,1,0,0:0:0:0:
28,192,22524,1,0,0:0:0:70:se_maoudamashii_instruments_drum1_tom3.wav
369,192,22909,1,0,0:0:0:0:
85,192,22909,1,8,0:0:0:0:
256,192,23293,1,0,0:0:0:0:
142,192,23550,1,0,0:0:0:0:
312,192,23678,1,2,0:0:0:0:
28,192,23678,1,0,0:0:0:70:se_maoudamashii_instruments_drum1_tom3.wav
142,192,23934,1,0,0:0:0:0:
199,192,24062,1,2,0:0:0:0:
28,192,24062,1,0,0:0:0:70:se_maoudamashii_instruments_drum1_tom3.wav
142,192,24319,1,0,0:0:0:0:
312,192,24447,1,10,0:0:0:0:
28,192,24447,1,0,0:0:0:70:se_maoudamashii_instruments_drum1_tom3.wav
85,192,24832,1,2,0:0:0:0:
28,192,24832,1,0,0:0:0:70:se_maoudamashii_instruments_drum1_tom3.wav
199,192,25216,1,2,0:0:0:0:
28,192,25216,1,0,0:0:0:70:se_maoudamashii_instruments_drum1_tom3.wav
312,192,25601,1,2,0:0:0:0:
28,192,25601,1,0,0:0:0:70:se_maoudamashii_instruments_drum1_tom3.wav
256,192,25986,1,0,0:0:0:0:
85,192,25986,1,8,0:0:0:0:
369,192,26370,1,2,0:0:0:0:
312,192,26755,1,2,0:0:0:0:
28,192,26755,1,0,0:0:0:70:se_maoudamashii_instruments_drum1_tom3.wav
426,192,27139,1,2,0:0:0:0:
28,192,27139,1,0,0:0:0:70:se_maoudamashii_instruments_drum1_tom3.wav
369,192,27524,1,2,0:0:0:0:
85,192,27524,1,8,0:0:0:0:
483,192,27909,1,4,0:0:0:0:
199,192,28293,1,2,0:0:0:0:
28,192,28293,1,0,0:0:0:70:se_maoudamashii_instruments_drum1_tom3.wav
312,192,28678,1,2,0:0:0:0:
28,192,28678,1,0,0:0:0:70:se_maoudamashii_instruments_drum1_tom3.wav
256,192,29062,1,2,0:0:0:0:
85,192,29062,1,8,0:0:0:0:
369,192,29447,1,2,0:0:0:0:
312,192,29832,1,2,0:0:0:0:
28,192,29832,1,0,0:0:0:70:se_maoudamashii_instruments_drum1_tom3.wav
426,192,30216,1,2,0:0:0:0:
28,192,30216,1,0,0:0:0:70:se_maoudamashii_instruments_drum1_tom3.wav
369,192,30601,1,2,0:0:0:0:
85,192,30601,1,8,0:0:0:0:
483,192,30986,1,4,0:0:0:0:
199,192,31370,1,2,0:0:0:0:
28,192,31370,1,0,0:0:0:70:se_maoudamashii_instruments_drum1_tom3.wav
312,192,31755,1,2,0:0:0:0:
28,192,31755,1,0,0:0:0:70:se_maoudamashii_instruments_drum1_tom3.wav
256,192,32139,1,2,0:0:0:0:
85,192,32139,1,8,0:0:0:0:
369,192,32524,1,2,0:0:0:0:
312,192,32909,1,2,0:0:0:0:
28,192,32909,1,0,0:0:0:70:se_maoudamashii_instruments_drum1_tom3.wav
426,192,33293,1,2,0:0:0:0:
28,192,33293,1,0,0:0:0:70:se_maoudamashii_instruments_drum1_tom3.wav
369,192,33678,1,2,0:0:0:0:
85,192,33678,1,8,0:0:0:0:
483,192,34062,1,4,0:0:0:0:
28,192,34447,1,0,0:0:0:70:se_maoudamashii_instruments_drum1_tom3.wav
142,192,34447,1,0,0:0:0:70:se_maoudamashii_instruments_drum1_cymbal.wav
369,192,37524,1,0,0:0:0:0:
28,192,37524,1,0,0:0:0:70:se_maoudamashii_instruments_drum1_tom3.wav
483,192,37909,1,0,0:0:0:0:
28,192,37909,1,0,0:0:0:70:se_maoudamashii_instruments_drum1_tom3.wav
369,192,38293,1,0,0:0:0:0:
85,192,38293,1,8,0:0:0:0:
256,192,38678,1,0,0:0:0:0:
312,192,39062,1,0,0:0:0:0:
28,192,39062,1,0,0:0:0:70:se_maoudamashii_instruments_drum1_tom3.wav
199,192,39447,1,0,0:0:0:0:
28,192,39447,1,0,0:0:0:70:se_maoudamashii_instruments_drum1_tom3.wav
256,192,39832,1,0,0:0:0:0:
85,192,39832,1,8,0:0:0:0:
142,192,40216,1,4,0:0:0:0:
369,192,40601,1,0,0:0:0:0:
28,192,40601,1,0,0:0:0:70:se_maoudamashii_instruments_drum1_tom3.wav
483,192,40986,1,0,0:0:0:0:
28,192,40986,1,0,0:0:0:70:se_maoudamashii_instruments_drum1_tom3.wav
369,192,41370,1,0,0:0:0:0:
85,192,41370,1,8,0:0:0:0:
256,192,41755,1,0,0:0:0:0:
142,192,42011,1,0,0:0:0:0:
199,192,42139,1,2,0:0:0:0:
28,192,42139,1,0,0:0:0:70:se_maoudamashii_instruments_drum1_tom3.wav
142,192,42396,1,0,0:0:0:0:
312,192,42524,1,2,0:0:0:0:
28,192,42524,1,0,0:0:0:70:se_maoudamashii_instruments_drum1_tom3.wav
142,192,42780,1,0,0:0:0:0:
426,192,42909,1,2,0:0:0:0:
85,192,42909,1,8,0:0:0:0:
28,192,43165,1,0,0:0:0:70:se_maoudamashii_instruments_drum1_tom3.wav
28,192,43293,1,0,0:0:0:70:se_maoudamashii_instruments_drum1_tom3.wav
28,192,43550,1,0,0:0:0:70:se_maoudamashii_instruments_drum1_tom3.wav
199,192,43678,1,2,0:0:0:0:
28,192,43678,1,0,0:0:0:70:se_maoudamashii_instruments_drum1_tom3.wav
312,192,44062,1,2,0:0:0:0:
28,192,44062,1,0,0:0:0:70:se_maoudamashii_instruments_drum1_tom3.wav
142,192,44447,1,2,0:0:0:0:
85,192,44447,1,8,0:0:0:0:
369,192,44832,1,2,0:0:0:0:
256,192,45216,1,2,0:0:0:0:
28,192,45216,1,0,0:0:0:70:se_maoudamashii_instruments_drum1_tom3.wav
483,192,45601,1,2,0:0:0:0:
28,192,45601,1,0,0:0:0:70:se_maoudamashii_instruments_drum1_tom3.wav
312,192,45986,1,2,0:0:0:0:
85,192,45986,1,8,0:0:0:0:
483,192,46370,1,4,0:0:0:0:
199,192,46755,1,2,0:0:0:0:
28,192,46755,1,0,0:0:0:70:se_maoudamashii_instruments_drum1_tom3.wav
312,192,47139,1,2,0:0:0:0:
28,192,47139,1,0,0:0:0:70:se_maoudamashii_instruments_drum1_tom3.wav
142,192,47524,1,2,0:0:0:0:
85,192,47524,1,8,0:0:0:0:
369,192,47909,1,2,0:0:0:0:
256,192,48293,1,2,0:0:0:0:
28,192,48293,1,0,0:0:0:70:se_maoudamashii_instruments_drum1_tom3.wav
426,192,48678,1,2,0:0:0:0:
28,192,48678,1,0,0:0:0:70:se_maoudamashii_instruments_drum1_tom3.wav
312,192,49062,1,2,0:0:0:0:
85,192,49062,1,8,0:0:0:0:
199,192,49447,1,6,0:0:0:0:
199,192,49703,1,2,0:0:0:0:
256,192,49832,1,2,0:0:0:0:
28,192,49832,1,0,0:0:0:70:se_maoudamashii_instruments_drum1_tom3.wav
369,192,50216,1,2,0:0:0:0:
28,192,50216,1,0,0:0:0:70:se_maoudamashii_instruments_drum1_tom3.wav
312,192,50601,1,2,0:0:0:0:
85,192,50601,1,8,0:0:0:0:
426,192,50986,1,2,0:0:0:0:
312,192,51370,1,2,0:0:0:0:
28,192,51370,1,0,0:0:0:70:se_maoudamashii_instruments_drum1_tom3.wav
312,192,51755,1,2,0:0:0:0:
28,192,51755,1,0,0:0:0:70:se_maoudamashii_instruments_drum1_tom3.wav
199,192,52139,1,2,0:0:0:0:
85,192,52396,1,2,0:0:0:0:
199,192,52524,1,6,0:0:0:0:
28,192,52909,1,0,0:0:0:70:se_maoudamashii_instruments_drum1_tom3.wav
142,192,54447,1,0,0:0:0:70:se_maoudamashii_instruments_drum1_tom2.wav
369,192,54832,1,0,0:0:0:70:se_maoudamashii_instruments_drum1_tom2.wav
142,192,55216,1,0,0:0:0:70:se_maoudamashii_instruments_drum1_tom2.wav
369,192,55601,1,0,0:0:0:70:se_maoudamashii_instruments_drum1_tom2.wav
426,192,55986,1,0,0:0:0:70:se_maoudamashii_instruments_drum2_hat.wav
85,192,56370,1,0,0:0:0:70:se_maoudamashii_instruments_drum2_hat.wav
28,192,56755,1,0,0:0:0:70:se_maoudamashii_instruments_drum1_tom3.wav
199,192,56755,1,0,0:0:0:0:
312,192,57139,1,2,0:0:0:0:
28,192,57139,1,0,0:0:0:70:se_maoudamashii_instruments_drum1_tom3.wav
142,192,57524,1,0,0:0:0:0:
85,192,57524,1,8,0:0:0:0:
369,192,57909,1,2,0:0:0:0:
256,192,58293,1,0,0:0:0:0:
28,192,58293,1,0,0:0:0:70:se_maoudamashii_instruments_drum1_tom3.wav
483,192,58678,1,2,0:0:0:0:
28,192,58678,1,0,0:0:0:70:se_maoudamashii_instruments_drum1_tom3.wav
312,192,59062,1,0,0:0:0:0:
85,192,59062,1,8,0:0:0:0:
483,192,59447,1,4,0:0:0:0:
199,192,59832,1,2,0:0:0:0:
28,192,59832,1,0,0:0:0:70:se_maoudamashii_instruments_drum1_tom3.wav
312,192,60216,1,0,0:0:0:0:
28,192,60216,1,0,0:0:0:70:se_maoudamashii_instruments_drum1_tom3.wav
142,192,60601,1,2,0:0:0:0:
85,192,60601,1,8,0:0:0:0:
369,192,60986,1,0,0:0:0:0:
256,192,61370,1,2,0:0:0:0:
28,192,61370,1,0,0:0:0:70:se_maoudamashii_instruments_drum1_tom3.wav
483,192,61755,1,2,0:0:0:0:
28,192,61755,1,0,0:0:0:70:se_maoudamashii_instruments_drum1_tom3.wav
312,192,62139,1,2,0:0:0:0:
85,192,62139,1,8,0:0:0:0:
142,192,62396,1,0,0:0:0:0:
483,192,62524,1,6,0:0:0:0:
28,192,62524,1,0,0:0:0:70:se_maoudamashii_instruments_drum1_tom3.wav
199,192,62909,1,0,0:0:0:0:
28,192,62909,1,0,0:0:0:70:se_maoudamashii_instruments_drum1_tom3.wav
312,192,63293,1,2,0:0:0:0:
28,192,63293,1,0,0:0:0:70:se_maoudamashii_instruments_drum1_tom3.wav
142,192,63678,1,0,0:0:0:0:
85,192,63678,1,8,0:0:0:0:
369,192,64062,1,2,0:0:0:0:
256,192,64447,1,0,0:0:0:0:
28,192,64447,1,0,0:0:0:70:se_maoudamashii_instruments_drum1_tom3.wav
28,192,64703,1,0,0:0:0:70:se_maoudamashii_instruments_drum1_tom3.wav
483,192,64832,1,2,0:0:0:0:
312,192,65216,1,0,0:0:0:0:
85,192,65216,1,8,0:0:0:0:
483,192,65601,1,6,0:0:0:0:
199,192,65986,1,0,0:0:0:0:
28,192,65986,1,0,0:0:0:70:se_maoudamashii_instruments_drum1_tom3.wav
312,192,66370,1,2,0:0:0:0:
28,192,66370,1,0,0:0:0:70:se_maoudamashii_instruments_drum1_tom3.wav
142,192,66755,1,0,0:0:0:0:
85,192,66755,1,8,0:0:0:0:
369,192,67139,1,2,0:0:0:0:
256,192,67524,1,0,0:0:0:0:
28,192,67524,1,0,0:0:0:70:se_maoudamashii_instruments_drum1_tom3.wav
426,192,67780,1,2,0:0:0:0:
483,192,67909,1,2,0:0:0:0:
28,192,67909,1,0,0:0:0:70:se_maoudamashii_instruments_drum1_tom3.wav
312,192,68293,1,0,0:0:0:0:
85,192,68293,1,8,0:0:0:0:
426,192,68550,1,2,0:0:0:0:
142,192,68550,1,0,0:0:0:70:se_maoudamashii_instruments_drum1_tom3.wav
483,192,68678,1,2,0:0:0:0:
28,192,68678,1,0,0:0:0:70:se_maoudamashii_instruments_drum1_tom3.wav
142,192,68934,1,0,0:0:0:70:se_maoudamashii_instruments_drum1_tom3.wav
28,192,69062,1,0,0:0:0:70:se_maoudamashii_instruments_drum1_tom3.wav
142,192,69447,1,2,0:0:0:0:
256,192,69832,1,2,0:0:0:0:
369,192,70216,1,2,0:0:0:0:
483,192,70473,1,0,0:0:0:0:
256,192,70601,1,0,0:0:0:0:
369,192,70857,1,0,0:0:0:0:
142,192,70986,1,0,0:0:0:0:
256,192,71242,1,0,0:0:0:0:
28,192,71370,1,0,0:0:0:70:se_maoudamashii_instruments_drum1_tom3.wav
85,192,71627,1,8,0:0:0:0:
426,192,71755,1,8,0:0:0:0:
142,192,72139,1,0,0:0:0:0:
28,192,72139,1,0,0:0:0:70:se_maoudamashii_instruments_drum1_tom3.wav
369,192,72524,1,0,0:0:0:70:se_maoudamashii_instruments_drum1_tom2.wav
142,192,72909,1,0,0:0:0:0:
28,192,72909,1,0,0:0:0:70:se_maoudamashii_instruments_drum1_tom3.wav
256,192,73293,1,0,0:0:0:0:
369,192,73293,1,0,0:0:0:70:se_maoudamashii_instruments_drum1_tom2.wav
369,192,73678,1,0,0:0:0:0:
28,192,73678,1,0,0:0:0:70:se_maoudamashii_instruments_drum1_tom3.wav
369,192,74062,1,0,0:0:0:70:se_maoudamashii_instruments_drum1_tom2.wav
199,192,74447,1,0,0:0:0:0:
28,192,74447,1,0,0:0:0:70:se_maoudamashii_instruments_drum1_tom3.wav
312,192,74832,1,0,0:0:0:0:
426,192,74832,1,0,0:0:0:70:se_maoudamashii_instruments_drum1_tom2.wav
426,192,75216,1,0,0:0:0:0:
28,192,75216,1,0,0:0:0:70:se_maoudamashii_instruments_drum1_tom3.wav
369,192,75601,1,0,0:0:0:70:se_maoudamashii_instruments_drum1_tom2.wav
256,192,75986,1,0,0:0:0:0:
28,192,75986,1,0,0:0:0:70:se_maoudamashii_instruments_drum1_tom3.wav
369,192,76370,1,0,0:0:0:70:se_maoudamashii_instruments_drum1_tom2.wav
142,192,76370,1,0,0:0:0:0:
483,192,76755,1,0,0:0:0:0:
28,192,76755,1,0,0:0:0:70:se_maoudamashii_instruments_drum1_tom3.wav
142,192,77139,1,0,0:0:0:70:se_maoudamashii_instruments_drum1_tom2.wav
426,192,77396,1,0,0:0:0:0:
312,192,77524,1,0,0:0:0:0:
28,192,77524,1,0,0:0:0:70:se_maoudamashii_instruments_drum1_tom3.wav
369,192,77909,1,0,0:0:0:70:se_maoudamashii_instruments_drum1_tom2.wav
142,192,77909,1,0,0:0:0:0:
256,192,78293,1,0,0:0:0:0:
28,192,78293,1,0,0:0:0:70:se_maoudamashii_instruments_drum1_tom3.wav
142,192,78678,1,0,0:0:0:70:se_maoudamashii_instruments_drum1_tom2.wav
426,192,78806,1,0,0:0:0:0:
28,192,79062,1,0,0:0:0:70:se_maoudamashii_instruments_drum1_tom3.wav
142,192,79319,1,0,0:0:0:70:se_maoudamashii_instruments_drum1_tom3.wav
369,192,79447,1,0,0:0:0:70:se_maoudamashii_instruments_drum1_tom2.wav
369,192,79703,1,0,0:0:0:70:se_maoudamashii_instruments_drum1_tom2.wav
142,192,79832,1,0,0:0:0:70:se_maoudamashii_instruments_drum1_tom3.wav
369,192,80216,1,0,0:0:0:70:se_maoudamashii_instruments_drum1_tom2.wav
483,192,80601,1,0,0:0:0:0:
28,192,80601,1,0,0:0:0:70:se_maoudamashii_instruments_drum1_tom3.wav
312,192,80986,1,0,0:0:0:0:
369,192,80986,1,0,0:0:0:70:se_maoudamashii_instruments_drum1_tom2.wav
142,192,81370,1,0,0:0:0:0:
28,192,81370,1,0,0:0:0:70:se_maoudamashii_instruments_drum1_tom3.wav
312,192,81755,1,0,0:0:0:0:
142,192,81755,1,0,0:0:0:70:se_maoudamashii_instruments_drum1_tom2.wav
369,192,82139,1,0,0:0:0:0:
28,192,82139,1,0,0:0:0:70:se_maoudamashii_instruments_drum1_tom3.wav
426,192,82524,1,0,0:0:0:0:
142,192,82524,1,0,0:0:0:70:se_maoudamashii_instruments_drum1_tom2.wav
483,192,82909,1,0,0:0:0:0:
28,192,82909,1,0,0:0:0:70:se_maoudamashii_instruments_drum1_tom3.wav
426,192,83293,1,0,0:0:0:0:
142,192,83293,1,0,0:0:0:70:se_maoudamashii_instruments_drum1_tom2.wav
369,192,83678,1,0,0:0:0:0:
28,192,83678,1,0,0:0:0:70:se_maoudamashii_instruments_drum1_tom3.wav
312,192,84062,1,0,0:0:0:0:
142,192,84062,1,0,0:0:0:70:se_maoudamashii_instruments_drum1_tom2.wav
256,192,84447,1,0,0:0:0:0:
28,192,84447,1,0,0:0:0:70:se_maoudamashii_instruments_drum1_tom3.wav
312,192,84832,1,4,0:0:0:0:
199,192,84832,1,0,0:0:0:70:se_maoudamashii_instruments_drum1_tom2.wav
142,192,85216,1,0,0:0:0:0:
28,192,85216,1,0,0:0:0:70:se_maoudamashii_instruments_drum1_tom3.wav
256,192,85601,1,0,0:0:0:0:
369,192,85601,1,0,0:0:0:70:se_maoudamashii_instruments_drum1_tom2.wav
369,192,85986,1,0,0:0:0:0:
28,192,85986,1,0,0:0:0:70:se_maoudamashii_instruments_drum1_tom3.wav
369,192,86370,1,0,0:0:0:70:se_maoudamashii_instruments_drum1_tom2.wav
199,192,86755,1,0,0:0:0:0:
28,192,86755,1,0,0:0:0:70:se_maoudamashii_instruments_drum1_tom3.wav
312,192,87139,1,0,0:0:0:0:
142,192,87139,1,0,0:0:0:70:se_maoudamashii_instruments_drum1_tom2.wav
426,192,87524,1,0,0:0:0:0:
28,192,87524,1,0,0:0:0:70:se_maoudamashii_instruments_drum1_tom3.wav
369,192,87909,1,0,0:0:0:70:se_maoudamashii_instruments_drum1_tom2.wav
256,192,88293,1,0,0:0:0:0:
28,192,88293,1,0,0:0:0:70:se_maoudamashii_instruments_drum1_tom3.wav
369,192,88678,1,0,0:0:0:0:
142,192,88678,1,0,0:0:0:70:se_maoudamashii_instruments_drum1_tom2.wav
483,192,89062,1,0,0:0:0:0:
28,192,89062,1,0,0:0:0:70:se_maoudamashii_instruments_drum1_tom3.wav
369,192,89447,1,0,0:0:0:70:se_maoudamashii_instruments_drum1_tom2.wav
426,192,89703,1,0,0:0:0:0:
369,192,89832,1,0,0:0:0:0:
256,192,90216,1,0,0:0:0:0:
28,192,90216,1,0,0:0:0:70:se_maoudamashii_instruments_drum1_tom3.wav
142,192,90601,1,2,0:0:0:0:
369,192,90601,1,0,0:0:0:70:se_maoudamashii_instruments_drum1_tom3.wav
369,192,91114,1,0,0:0:0:0:
256,192,91242,1,0,0:0:0:70:se_maoudamashii_instruments_drum1_tom3.wav
142,192,91370,1,0,0:0:0:70:se_maoudamashii_instruments_drum1_tom3.wav
28,192,92139,1,0,0:0:0:70:se_maoudamashii_instruments_drum1_tom3.wav
28,192,92524,1,0,0:0:0:70:se_maoudamashii_instruments_drum1_tom3.wav
199,192,92909,1,2,0:0:0:0:
369,192,92909,1,0,0:0:0:70:se_maoudamashii_instruments_drum1_tom2.wav
312,192,93293,1,0,0:0:0:0:
483,192,93678,1,2,0:0:0:0:
28,192,93678,1,0,0:0:0:70:se_maoudamashii_instruments_drum1_tom3.wav
369,192,94062,1,0,0:0:0:0:
28,192,94062,1,0,0:0:0:70:se_maoudamashii_instruments_drum1_tom3.wav
256,192,94447,1,2,0:0:0:0:
142,192,94447,1,0,0:0:0:70:se_maoudamashii_instruments_drum1_tom2.wav
426,192,94832,1,0,0:0:0:0:
312,192,95216,1,2,0:0:0:0:
28,192,95216,1,0,0:0:0:70:se_maoudamashii_instruments_drum1_tom3.wav
369,192,95601,1,0,0:0:0:0:
28,192,95601,1,0,0:0:0:70:se_maoudamashii_instruments_drum1_tom3.wav
142,192,95986,1,0,0:0:0:70:se_maoudamashii_instruments_drum1_tom2.wav
369,192,95986,1,2,0:0:0:0:
142,192,96242,1,0,0:0:0:70:se_maoudamashii_instruments_drum1_tom2.wav
312,192,96370,1,0,0:0:0:0:
28,192,96370,1,0,0:0:0:70:se_maoudamashii_instruments_drum1_tom3.wav
256,192,96755,1,0,0:0:0:70:se_maoudamashii_instruments_drum1_tom2.wav
142,192,96755,1,2,0:0:0:0:
369,192,96883,1,0,0:0:0:70:se_maoudamashii_instruments_drum1_tom2.wav
256,192,97011,1,0,0:0:0:70:se_maoudamashii_instruments_drum1_tom2.wav
142,192,97139,1,2,0:0:0:0:
312,192,97396,1,0,0:0:0:70:se_maoudamashii_instruments_drum2_hat.wav
28,192,97396,1,0,0:0:0:70:se_maoudamashii_instruments_drum1_tom3.wav
312,192,97652,1,0,0:0:0:70:se_maoudamashii_instruments_drum2_hat.wav
28,192,97652,1,0,0:0:0:70:se_maoudamashii_instruments_drum1_tom3.wav
312,192,97909,1,0,0:0:0:70:se_maoudamashii_instruments_drum2_hat.wav
28,192,97909,1,0,0:0:0:70:se_maoudamashii_instruments_drum1_tom3.wav
312,192,98165,1,0,0:0:0:70:se_maoudamashii_instruments_drum2_hat.wav
28,192,98165,1,0,0:0:0:70:se_maoudamashii_instruments_drum1_tom3.wav
369,192,98293,1,0,0:0:0:70:se_maoudamashii_instruments_drum1_tom3.wav
256,192,98293,1,0,0:0:0:70:welcome_to_the.wav
312,192,98998,1,0,0:0:0:70:drum-hitclap2.wav
199,192,99447,1,0,0:0:0:70:drum-hitclap3.wav
369,192,99832,1,2,0:0:0:0:
28,192,99832,1,0,0:0:0:70:se_maoudamashii_instruments_drum1_tom3.wav
483,192,100216,1,2,0:0:0:0:
28,192,100216,1,0,0:0:0:70:se_maoudamashii_instruments_drum1_tom3.wav
369,192,100601,1,0,0:0:0:0:
142,192,100601,1,0,0:0:0:70:se_maoudamashii_instruments_drum1_tom2.wav
256,192,100986,1,0,0:0:0:0:
312,192,101370,1,2,0:0:0:0:
28,192,101370,1,0,0:0:0:70:se_maoudamashii_instruments_drum1_tom3.wav
199,192,101755,1,2,0:0:0:0:
28,192,101755,1,0,0:0:0:70:se_maoudamashii_instruments_drum1_tom3.wav
256,192,102139,1,0,0:0:0:0:
142,192,102139,1,0,0:0:0:70:se_maoudamashii_instruments_drum1_tom2.wav
142,192,102524,1,0,0:0:0:0:
369,192,102909,1,2,0:0:0:0:
28,192,102909,1,0,0:0:0:70:se_maoudamashii_instruments_drum1_tom3.wav
483,192,103293,1,2,0:0:0:0:
28,192,103293,1,0,0:0:0:70:se_maoudamashii_instruments_drum1_tom3.wav
369,192,103678,1,0,0:0:0:0:
142,192,103678,1,0,0:0:0:70:se_maoudamashii_instruments_drum1_tom2.wav
256,192,104062,1,0,0:0:0:0:
312,192,104447,1,2,0:0:0:0:
28,192,104447,1,0,0:0:0:70:se_maoudamashii_instruments_drum1_tom3.wav
199,192,104832,1,2,0:0:0:0:
28,192,104832,1,0,0:0:0:70:se_maoudamashii_instruments_drum1_tom3.wav
256,192,105216,1,0,0:0:0:0:
142,192,105216,1,0,0:0:0:70:se_maoudamashii_instruments_drum1_tom2.wav
369,192,105473,1,0,0:0:0:70:se_maoudamashii_instruments_drum1_tom3.wav
256,192,105601,1,0,0:0:0:70:se_maoudamashii_instruments_drum1_tom3.wav
142,192,105729,1,0,0:0:0:70:se_maoudamashii_instruments_drum1_tom3.wav
28,192,105857,1,0,0:0:0:70:se_maoudamashii_instruments_drum1_tom3.wav
199,192,105986,1,0,0:0:0:70:se_maoudamashii_instruments_drum1_tom2.wav
85,192,105986,1,0,0:0:0:0:
312,192,106370,1,0,0:0:0:0:
28,192,106370,1,0,0:0:0:70:se_maoudamashii_instruments_drum1_tom3.wav
426,192,106755,1,0,0:0:0:0:
85,192,106755,1,8,0:0:0:0:se_maoudamashii_instruments_drum1_tom2.wav
369,192,107139,1,0,0:0:0:0:
256,192,107524,1,0,0:0:0:0:
28,192,107524,1,0,0:0:0:70:se_maoudamashii_instruments_drum1_tom3.wav
312,192,107909,1,0,0:0:0:0:
28,192,107909,1,0,0:0:0:70:se_maoudamashii_instruments_drum1_tom3.wav
369,192,108293,1,0,0:0:0:0:
85,192,108293,1,8,0:0:0:0:
483,192,108678,1,0,0:0:0:0:
369,192,109062,1,2,0:0:0:0:
28,192,109062,1,0,0:0:0:70:se_maoudamashii_instruments_drum1_tom3.wav
483,192,109447,1,2,0:0:0:0:
28,192,109447,1,0,0:0:0:70:se_maoudamashii_instruments_drum1_tom3.wav
369,192,109832,1,0,0:0:0:0:
85,192,109832,1,8,0:0:0:0:
28,192,110088,1,0,0:0:0:70:se_maoudamashii_instruments_drum1_tom3.wav
256,192,110216,1,0,0:0:0:0:
142,192,110216,1,0,0:0:0:70:se_maoudamashii_instruments_drum1_tom3.wav
28,192,110473,1,0,0:0:0:70:se_maoudamashii_instruments_drum1_tom3.wav
369,192,110601,1,2,0:0:0:0:
142,192,110601,1,0,0:0:0:70:se_maoudamashii_instruments_drum1_tom3.wav
28,192,110857,1,0,0:0:0:70:se_maoudamashii_instruments_drum1_tom3.wav
256,192,110986,1,2,0:0:0:0:
142,192,110986,1,0,0:0:0:70:se_maoudamashii_instruments_drum1_tom3.wav
28,192,111242,1,0,0:0:0:70:se_maoudamashii_instruments_drum1_tom3.wav
483,192,111370,1,4,0:0:0:0:
142,192,111370,1,0,0:0:0:70:se_maoudamashii_instruments_drum1_tom3.wav
312,192,111755,1,2,0:0:0:0:
28,192,112139,1,2,0:0:0:0:se_maoudamashii_instruments_drum1_tom3.wav
199,192,112139,1,2,0:0:0:0:
142,192,112524,1,2,0:0:0:0:
256,192,112524,1,2,0:0:0:0:
85,192,112909,1,2,0:0:0:0:
312,192,112909,1,2,0:0:0:0:
312,192,113165,1,2,0:0:0:0:
142,192,113293,1,2,0:0:0:0:
369,192,113293,1,2,0:0:0:0:
28,192,113678,1,2,0:0:0:0:se_maoudamashii_instruments_drum1_tom3.wav
256,192,113678,1,2,0:0:0:0:
199,192,114062,1,2,0:0:0:0:
312,192,114062,1,2,0:0:0:0:
85,192,114447,1,2,0:0:0:0:
426,192,114447,1,0,0:0:0:0:
199,192,114832,1,2,0:0:0:0:
312,192,114832,1,0,0:0:0:0:
28,192,115216,1,2,0:0:0:0:se_maoudamashii_instruments_drum1_tom3.wav
256,192,115216,1,2,0:0:0:0:
142,192,115601,1,2,0:0:0:0:
369,192,115601,1,2,0:0:0:0:
85,192,115986,1,2,0:0:0:0:
312,192,115986,1,2,0:0:0:0:
142,192,116370,1,2,0:0:0:0:
369,192,116370,1,2,0:0:0:0:
28,192,116755,1,2,0:0:0:0:se_maoudamashii_instruments_drum1_tom3.wav
483,192,116755,1,2,0:0:0:0:
199,192,117139,1,2,0:0:0:0:
312,192,117139,1,2,0:0:0:0:
85,192,117524,1,2,0:0:0:0:
426,192,117524,1,0,0:0:0:0:
199,192,117909,1,2,0:0:0:0:
312,192,117909,1,0,0:0:0:0:
28,192,118293,1,2,0:0:0:0:se_maoudamashii_instruments_drum1_tom3.wav
256,192,118293,1,2,0:0:0:0:
142,192,118678,1,2,0:0:0:0:
369,192,118678,1,2,0:0:0:0:
85,192,119062,1,2,0:0:0:0:
312,192,119062,1,2,0:0:0:0:
142,192,119447,1,2,0:0:0:0:
369,192,119447,1,2,0:0:0:0:
142,192,119703,1,2,0:0:0:0:
28,192,119832,1,2,0:0:0:0:se_maoudamashii_instruments_drum1_tom3.wav
483,192,119832,1,2,0:0:0:0:
28,192,120088,1,2,0:0:0:0:se_maoudamashii_instruments_drum1_tom3.wav
142,192,120216,1,2,0:0:0:0:
369,192,120216,1,2,0:0:0:0:
142,192,120473,1,2,0:0:0:0:
85,192,120601,1,0,0:0:0:0:
312,192,120601,1,2,0:0:0:0:
85,192,120857,1,2,0:0:0:0:
199,192,120986,1,0,0:0:0:0:
369,192,120986,1,0,0:0:0:70:se_maoudamashii_instruments_drum1_tom3.wav
483,192,121114,1,0,0:0:0:70:se_maoudamashii_instruments_drum1_tom3.wav
369,192,121242,1,0,0:0:0:70:se_maoudamashii_instruments_drum1_tom3.wav
483,192,121370,1,0,0:0:0:70:se_maoudamashii_instruments_drum1_tom2.wav
142,192,121370,1,0,0:0:0:0:
142,192,121755,1,0,0:0:0:0:
369,192,122139,1,0,0:0:0:0:
256,192,122139,1,0,0:0:0:0:
369,192,122524,1,0,0:0:0:0:
256,192,122524,1,0,0:0:0:0:
426,192,122909,1,0,0:0:0:0:
312,192,122909,1,0,0:0:0:0:
312,192,123293,1,0,0:0:0:0:
199,192,123293,1,0,0:0:0:0:
199,192,123678,1,0,0:0:0:0:
85,192,123678,1,0,0:0:0:0:
85,192,124062,1,0,0:0:0:0:
199,192,124062,1,0,0:0:0:0:
312,192,124447,1,2,0:0:0:0:
28,192,124447,1,0,0:0:0:70:se_maoudamashii_instruments_drum1_tom3.wav
426,192,124832,1,2,0:0:0:0:
28,192,124832,1,0,0:0:0:70:se_maoudamashii_instruments_drum1_tom3.wav
142,192,125216,1,2,0:0:0:0:
85,192,125216,1,8,0:0:0:0:
369,192,125601,1,2,0:0:0:0:
256,192,125986,1,2,0:0:0:0:
28,192,125986,1,0,0:0:0:70:se_maoudamashii_instruments_drum1_tom3.wav
483,192,126370,1,2,0:0:0:0:
28,192,126370,1,0,0:0:0:70:se_maoudamashii_instruments_drum1_tom3.wav
312,192,126755,1,2,0:0:0:0:
85,192,126755,1,8,0:0:0:0:
483,192,127139,1,2,0:0:0:0:
199,192,127524,1,2,0:0:0:0:
28,192,127524,1,0,0:0:0:70:se_maoudamashii_instruments_drum1_tom3.wav
312,192,127909,1,2,0:0:0:0:
28,192,127909,1,0,0:0:0:70:se_maoudamashii_instruments_drum1_tom3.wav
142,192,128293,1,2,0:0:0:0:
85,192,128293,1,8,0:0:0:0:
369,192,128678,1,2,0:0:0:0:
256,192,129062,1,2,0:0:0:0:
28,192,129062,1,0,0:0:0:70:se_maoudamashii_instruments_drum1_tom3.wav
483,192,129447,1,2,0:0:0:0:
28,192,129447,1,0,0:0:0:70:se_maoudamashii_instruments_drum1_tom3.wav
312,192,129832,1,2,0:0:0:0:
85,192,129832,1,8,0:0:0:0:
142,192,130088,1,0,0:0:0:70:se_maoudamashii_instruments_drum1_tom3.wav
483,192,130216,1,2,0:0:0:0:
28,192,130216,1,0,0:0:0:70:se_maoudamashii_instruments_drum1_tom3.wav
142,192,130473,1,0,0:0:0:70:se_maoudamashii_instruments_drum1_tom3.wav
199,192,130601,1,2,0:0:0:0:
28,192,130601,1,0,0:0:0:70:se_maoudamashii_instruments_drum1_tom3.wav
312,192,130986,1,2,0:0:0:0:
28,192,130986,1,0,0:0:0:70:se_maoudamashii_instruments_drum1_tom3.wav
142,192,131370,1,2,0:0:0:0:
85,192,131370,1,8,0:0:0:0:
369,192,131755,1,2,0:0:0:0:
256,192,132139,1,2,0:0:0:0:
28,192,132139,1,0,0:0:0:70:se_maoudamashii_instruments_drum1_tom3.wav
483,192,132524,1,2,0:0:0:0:
28,192,132524,1,0,0:0:0:70:se_maoudamashii_instruments_drum1_tom3.wav
312,192,132909,1,2,0:0:0:0:
85,192,132909,1,8,0:0:0:0:
483,192,133293,1,2,0:0:0:0:
199,192,133678,1,2,0:0:0:0:
28,192,133678,1,0,0:0:0:70:se_maoudamashii_instruments_drum1_tom3.wav
312,192,134062,1,2,0:0:0:0:
28,192,134062,1,0,0:0:0:70:se_maoudamashii_instruments_drum1_tom3.wav
142,192,134447,1,2,0:0:0:0:
85,192,134447,1,8,0:0:0:0:
369,192,134832,1,2,0:0:0:0:
256,192,135216,1,2,0:0:0:0:
28,192,135216,1,0,0:0:0:70:se_maoudamashii_instruments_drum1_tom3.wav
426,192,135473,1,0,0:0:0:0:
483,192,135601,1,2,0:0:0:0:
28,192,135601,1,0,0:0:0:70:se_maoudamashii_instruments_drum1_tom3.wav
312,192,135857,1,2,0:0:0:0:
426,192,135986,1,0,0:0:0:0:
85,192,135986,1,8,0:0:0:0:
483,192,136242,1,2,0:0:0:0:
142,192,136242,1,0,0:0:0:0:
369,192,136370,1,0,0:0:0:0:
28,192,136370,1,0,0:0:0:70:se_maoudamashii_instruments_drum1_tom3.wav
256,192,136627,1,0,0:0:0:0:
369,192,136627,1,0,0:0:0:0:
142,192,136755,1,2,0:0:0:0:
28,192,136755,1,0,0:0:0:70:se_maoudamashii_instruments_drum1_tom3.wav
142,192,137139,1,0,0:0:0:70:se_maoudamashii_instruments_drum1_tom3.wav
256,192,137524,1,0,0:0:0:70:se_maoudamashii_instruments_drum1_tom3.wav
369,192,137909,1,0,0:0:0:70:se_maoudamashii_instruments_drum1_tom3.wav
426,192,138165,1,0,0:0:0:70:se_maoudamashii_instruments_drum1_tom2.wav
483,192,138293,1,0,0:0:0:70:se_maoudamashii_instruments_drum1_tom1.wav
85,192,139447,1,8,0:0:0:0:
426,192,139447,1,8,0:0:0:0:
142,192,139832,1,0,0:0:0:0:
28,192,139832,1,0,0:0:0:70:se_maoudamashii_instruments_drum1_tom3.wav
369,192,140216,1,0,0:0:0:70:se_maoudamashii_instruments_drum1_tom2.wav
142,192,140601,1,0,0:0:0:0:
28,192,140601,1,0,0:0:0:70:se_maoudamashii_instruments_drum1_tom3.wav
142,192,140857,1,0,0:0:0:0:
28,192,140857,1,0,0:0:0:70:se_maoudamashii_instruments_drum1_tom3.wav
199,192,140986,1,0,0:0:0:0:
369,192,140986,1,0,0:0:0:70:se_maoudamashii_instruments_drum1_tom2.wav
256,192,141370,1,0,0:0:0:0:
28,192,141370,1,0,0:0:0:70:se_maoudamashii_instruments_drum1_tom3.wav
369,192,141755,1,0,0:0:0:70:se_maoudamashii_instruments_drum1_tom2.wav
256,192,142139,1,0,0:0:0:0:
28,192,142139,1,0,0:0:0:70:se_maoudamashii_instruments_drum1_tom3.wav
256,192,142396,1,0,0:0:0:0:
28,192,142396,1,0,0:0:0:70:se_maoudamashii_instruments_drum1_tom3.wav
312,192,142524,1,0,0:0:0:0:
426,192,142524,1,0,0:0:0:70:se_maoudamashii_instruments_drum1_tom2.wav
28,192,142780,1,0,0:0:0:70:se_maoudamashii_instruments_drum1_tom3.wav
369,192,142909,1,0,0:0:0:0:
28,192,142909,1,0,0:0:0:70:se_maoudamashii_instruments_drum1_tom3.wav
142,192,143293,1,0,0:0:0:70:se_maoudamashii_instruments_drum1_tom2.wav
369,192,143678,1,0,0:0:0:0:
28,192,143678,1,0,0:0:0:70:se_maoudamashii_instruments_drum1_tom3.wav
369,192,143934,1,0,0:0:0:0:
28,192,143934,1,0,0:0:0:70:se_maoudamashii_instruments_drum1_tom3.wav
426,192,144062,1,0,0:0:0:0:
142,192,144062,1,0,0:0:0:70:se_maoudamashii_instruments_drum1_tom2.wav
483,192,144447,1,0,0:0:0:0:
28,192,144447,1,0,0:0:0:70:se_maoudamashii_instruments_drum1_tom3.wav
142,192,144832,1,0,0:0:0:70:se_maoudamashii_instruments_drum1_tom2.wav
426,192,145088,1,0,0:0:0:0:
312,192,145216,1,0,0:0:0:0:
28,192,145216,1,0,0:0:0:70:se_maoudamashii_instruments_drum1_tom3.wav
199,192,145601,1,0,0:0:0:0:
369,192,145601,1,0,0:0:0:70:se_maoudamashii_instruments_drum1_tom2.wav
369,192,145986,1,0,0:0:0:0:
28,192,145986,1,0,0:0:0:70:se_maoudamashii_instruments_drum1_tom3.wav
142,192,146370,1,0,0:0:0:70:se_maoudamashii_instruments_drum1_tom2.wav
483,192,146370,1,0,0:0:0:0:
28,192,146755,1,0,0:0:0:70:se_maoudamashii_instruments_drum1_tom3.wav
28,192,147011,1,0,0:0:0:70:se_maoudamashii_instruments_drum1_tom3.wav
369,192,147139,1,0,0:0:0:70:se_maoudamashii_instruments_drum1_tom2.wav
28,192,147524,1,0,0:0:0:70:se_maoudamashii_instruments_drum1_tom3.wav
142,192,147909,1,0,0:0:0:70:se_maoudamashii_instruments_drum1_tom2.wav
369,192,148293,1,0,0:0:0:0:
28,192,148293,1,0,0:0:0:70:se_maoudamashii_instruments_drum1_tom3.wav
256,192,148550,1,0,0:0:0:0:
142,192,148678,1,0,0:0:0:70:se_maoudamashii_instruments_drum1_tom2.wav
426,192,149062,1,0,0:0:0:0:
28,192,149062,1,0,0:0:0:70:se_maoudamashii_instruments_drum1_tom3.wav
312,192,149447,1,0,0:0:0:0:
142,192,149447,1,0,0:0:0:70:se_maoudamashii_instruments_drum1_tom2.wav
199,192,149832,1,0,0:0:0:0:
28,192,149832,1,0,0:0:0:70:se_maoudamashii_instruments_drum1_tom3.wav
369,192,150088,1,0,0:0:0:70:se_maoudamashii_instruments_drum1_tom3.wav
85,192,150216,1,0,0:0:0:0:
256,192,150601,1,0,0:0:0:0:
28,192,150601,1,0,0:0:0:70:se_maoudamashii_instruments_drum1_tom3.wav
312,192,150986,1,0,0:0:0:0:
142,192,150986,1,0,0:0:0:70:se_maoudamashii_instruments_drum1_tom2.wav
369,192,151370,1,0,0:0:0:0:
142,192,151370,1,0,0:0:0:70:se_maoudamashii_instruments_drum1_tom2.wav
483,192,151755,1,0,0:0:0:0:
142,192,151755,1,0,0:0:0:70:se_maoudamashii_instruments_drum1_tom2.wav
369,192,152139,1,4,0:0:0:0:
28,192,152139,1,0,0:0:0:70:se_maoudamashii_instruments_drum1_tom3.wav
256,192,152524,1,0,0:0:0:0:
142,192,152524,1,0,0:0:0:70:se_maoudamashii_instruments_drum1_tom2.wav
142,192,152909,1,0,0:0:0:0:
28,192,152909,1,0,0:0:0:70:se_maoudamashii_instruments_drum1_tom3.wav
256,192,153293,1,0,0:0:0:0:
369,192,153293,1,0,0:0:0:70:se_maoudamashii_instruments_drum1_tom2.wav
426,192,153678,1,0,0:0:0:0:
28,192,153678,1,0,0:0:0:70:se_maoudamashii_instruments_drum1_tom3.wav
142,192,154062,1,0,0:0:0:70:se_maoudamashii_instruments_drum1_tom2.wav
199,192,154447,1,0,0:0:0:0:
28,192,154447,1,0,0:0:0:70:se_maoudamashii_instruments_drum1_tom3.wav
312,192,154832,1,0,0:0:0:0:
142,192,154832,1,0,0:0:0:70:se_maoudamashii_instruments_drum1_tom2.wav
426,192,155216,1,0,0:0:0:0:
28,192,155216,1,0,0:0:0:70:se_maoudamashii_instruments_drum1_tom3.wav
142,192,155601,1,0,0:0:0:70:se_maoudamashii_instruments_drum1_tom2.wav
256,192,155986,1,0,0:0:0:0:
28,192,155986,1,0,0:0:0:70:se_maoudamashii_instruments_drum1_tom3.wav
369,192,156370,1,0,0:0:0:0:
142,192,156370,1,0,0:0:0:70:se_maoudamashii_instruments_drum1_tom2.wav
483,192,156755,1,0,0:0:0:0:
28,192,156755,1,0,0:0:0:70:se_maoudamashii_instruments_drum1_tom3.wav
142,192,157139,1,0,0:0:0:70:se_maoudamashii_instruments_drum1_tom2.wav
426,192,157524,1,0,0:0:0:0:
28,192,157524,1,0,0:0:0:70:se_maoudamashii_instruments_drum1_tom3.wav
369,192,157909,1,0,0:0:0:0:
142,192,157909,1,0,0:0:0:70:se_maoudamashii_instruments_drum1_tom2.wav
256,192,158293,1,0,0:0:0:0:
28,192,158293,1,0,0:0:0:70:se_maoudamashii_instruments_drum1_tom3.wav
28,192,158678,1,0,0:0:0:70:se_maoudamashii_instruments_drum1_tom3.wav
483,192,158934,1,0,0:0:0:70:se_maoudamashii_instruments_drum1_tom2.wav
369,192,159062,1,0,0:0:0:70:se_maoudamashii_instruments_drum1_tom1.wav
28,192,159832,1,0,0:0:0:70:se_maoudamashii_instruments_drum1_tom3.wav
28,192,160216,1,0,0:0:0:70:se_maoudamashii_instruments_drum1_tom3.wav
312,192,160601,1,0,0:0:0:0:
426,192,160601,1,0,0:0:0:70:se_maoudamashii_instruments_drum1_tom2.wav
199,192,160986,1,0,0:0:0:0:
426,192,161370,1,2,0:0:0:0:
28,192,161370,1,0,0:0:0:70:se_maoudamashii_instruments_drum1_tom3.wav
369,192,161755,1,0,0:0:0:0:
28,192,161755,1,0,0:0:0:70:se_maoudamashii_instruments_drum1_tom3.wav
312,192,162139,1,0,0:0:0:0:
199,192,162139,1,0,0:0:0:70:se_maoudamashii_instruments_drum1_tom2.wav
256,192,162524,1,0,0:0:0:0:
312,192,162909,1,2,0:0:0:0:
28,192,162909,1,0,0:0:0:70:se_maoudamashii_instruments_drum1_tom3.wav
199,192,163293,1,2,0:0:0:0:
28,192,163293,1,0,0:0:0:70:se_maoudamashii_instruments_drum1_tom3.wav
369,192,163678,1,0,0:0:0:0:
142,192,163678,1,0,0:0:0:70:se_maoudamashii_instruments_drum1_tom2.wav
28,192,163934,1,0,0:0:0:70:se_maoudamashii_instruments_drum1_tom3.wav
256,192,164062,1,0,0:0:0:0:
142,192,164062,1,0,0:0:0:70:se_maoudamashii_instruments_drum1_tom2.wav
28,192,164319,1,0,0:0:0:70:se_maoudamashii_instruments_drum1_tom3.wav
312,192,164447,1,0,0:0:0:0:
199,192,164447,1,0,0:0:0:0:
199,192,164832,1,2,0:0:0:0:
312,192,165088,1,2,0:0:0:0:
199,192,165344,1,2,0:0:0:0:
312,192,165601,1,2,0:0:0:0:
199,192,165857,1,2,0:0:0:0:
85,192,165986,1,0,0:0:0:0:
199,192,166370,1,0,0:0:0:0:
312,192,166755,1,0,0:0:0:0:
426,192,167139,1,0,0:0:0:0:
199,192,167524,1,0,0:0:0:0:
28,192,167524,1,0,0:0:0:70:se_maoudamashii_instruments_drum1_tom3.wav
28,192,167909,1,0,0:0:0:70:se_maoudamashii_instruments_drum1_tom3.wav
142,192,168293,1,0,0:0:0:70:se_maoudamashii_instruments_drum1_tom2.wav
312,192,168678,1,0,0:0:0:0:
199,192,169062,1,0,0:0:0:0:
28,192,169062,1,0,0:0:0:70:se_maoudamashii_instruments_drum1_tom3.wav
312,192,169447,1,0,0:0:0:0:
28,192,169447,1,0,0:0:0:70:se_maoudamashii_instruments_drum1_tom3.wav
426,192,169832,1,0,0:0:0:0:
142,192,169832,1,0,0:0:0:70:se_maoudamashii_instruments_drum1_tom2.wav
426,192,169960,1,0,0:0:0:0:
28,192,170601,1,0,0:0:0:70:se_maoudamashii_instruments_drum1_tom3.wav
28,192,170986,1,0,0:0:0:70:se_maoudamashii_instruments_drum1_tom3.wav
142,192,171370,1,0,0:0:0:70:se_maoudamashii_instruments_drum1_tom2.wav
369,192,171755,1,0,0:0:0:0:
312,192,172139,1,0,0:0:0:0:
28,192,172139,1,0,0:0:0:70:se_maoudamashii_instruments_drum1_tom3.wav
369,192,172524,1,0,0:0:0:0:
28,192,172524,1,0,0:0:0:70:se_maoudamashii_instruments_drum1_tom3.wav
256,192,172909,1,0,0:0:0:0:
142,192,172909,1,0,0:0:0:70:se_maoudamashii_instruments_drum1_tom2.wav
369,192,173678,1,0,0:0:0:0:
28,192,173678,1,0,0:0:0:70:se_maoudamashii_instruments_drum1_tom3.wav
426,192,174062,1,0,0:0:0:0:
28,192,174062,1,0,0:0:0:70:se_maoudamashii_instruments_drum1_tom3.wav
369,192,174447,1,0,0:0:0:0:
142,192,174447,1,0,0:0:0:70:se_maoudamashii_instruments_drum1_tom2.wav
85,192,174832,1,2,0:0:0:0:
199,192,174960,1,2,0:0:0:0:
312,192,175088,1,2,0:0:0:0:
142,192,175216,1,2,0:0:0:0:
256,192,175344,1,2,0:0:0:0:
369,192,175473,1,2,0:0:0:0:
199,192,175601,1,2,0:0:0:0:
312,192,175729,1,2,0:0:0:0:
426,192,175857,1,2,0:0:0:0:
483,192,175986,1,4,0:0:0:0:
142,192,175986,1,0,0:0:0:70:se_maoudamashii_instruments_drum1_tom2.wav
369,192,176370,1,0,0:0:0:0:
256,192,176755,1,0,0:0:0:0:
28,192,176755,1,0,0:0:0:70:se_maoudamashii_instruments_drum1_tom3.wav
142,192,177139,1,0,0:0:0:0:
28,192,177139,1,0,0:0:0:70:se_maoudamashii_instruments_drum1_tom3.wav
256,192,177332,1,0,0:0:0:0:
369,192,177524,1,0,0:0:0:70:se_maoudamashii_instruments_drum1_tom2.wav
199,192,177588,1,2,0:0:0:0:
142,192,177716,1,2,0:0:0:0:
256,192,178165,1,0,0:0:0:0:
369,192,178293,1,0,0:0:0:0:
28,192,178293,1,0,0:0:0:70:se_maoudamashii_instruments_drum1_tom3.wav
312,192,178550,1,0,0:0:0:0:
426,192,178678,1,0,0:0:0:0:
28,192,178678,1,0,0:0:0:70:se_maoudamashii_instruments_drum1_tom3.wav
483,192,178934,1,0,0:0:0:0:
369,192,179062,1,0,0:0:0:0:
142,192,179062,1,0,0:0:0:70:se_maoudamashii_instruments_drum1_tom2.wav
256,192,179191,1,0,0:0:0:0:
142,192,179319,1,0,0:0:0:0:
199,192,179447,1,0,0:0:0:0:
369,192,179703,1,0,0:0:0:0:
483,192,179832,1,0,0:0:0:0:
28,192,179832,1,0,0:0:0:70:se_maoudamashii_instruments_drum1_tom3.wav
426,192,180216,1,2,0:0:0:0:
28,192,180216,1,0,0:0:0:70:se_maoudamashii_instruments_drum1_tom3.wav
85,192,180601,1,8,0:0:0:0:
426,192,180986,1,2,0:0:0:0:
28,192,181370,1,0,0:0:0:70:se_maoudamashii_instruments_drum1_tom3.wav
426,192,181755,1,2,0:0:0:0:
28,192,181755,1,0,0:0:0:70:se_maoudamashii_instruments_drum1_tom3.wav
85,192,182139,1,8,0:0:0:0:
426,192,182524,1,2,0:0:0:0:
28,192,182909,1,0,0:0:0:70:se_maoudamashii_instruments_drum1_tom3.wav
426,192,183293,1,2,0:0:0:0:
28,192,183293,1,0,0:0:0:70:se_maoudamashii_instruments_drum1_tom3.wav
85,192,183678,1,8,0:0:0:0:
426,192,184062,1,2,0:0:0:0:
28,192,184447,1,0,0:0:0:70:se_maoudamashii_instruments_drum1_tom3.wav
426,192,184832,1,2,0:0:0:0:
28,192,184832,1,0,0:0:0:70:se_maoudamashii_instruments_drum1_tom3.wav
85,192,185216,1,8,0:0:0:0:
426,192,185601,1,2,0:0:0:0:
28,192,185986,1,0,0:0:0:70:se_maoudamashii_instruments_drum1_tom3.wav
426,192,186370,1,2,0:0:0:0:
28,192,186370,1,0,0:0:0:70:se_maoudamashii_instruments_drum1_tom3.wav
85,192,186755,1,8,0:0:0:0:
426,192,187139,1,2,0:0:0:0:
28,192,187524,1,0,0:0:0:70:se_maoudamashii_instruments_drum1_tom3.wav
426,192,187909,1,2,0:0:0:0:
28,192,187909,1,0,0:0:0:70:se_maoudamashii_instruments_drum1_tom3.wav
85,192,188293,1,8,0:0:0:0:
426,192,188678,1,2,0:0:0:0:
28,192,189062,1,0,0:0:0:70:se_maoudamashii_instruments_drum1_tom3.wav
426,192,189447,1,2,0:0:0:0:
28,192,189447,1,0,0:0:0:70:se_maoudamashii_instruments_drum1_tom3.wav
85,192,189832,1,8,0:0:0:0:
426,192,190216,1,2,0:0:0:0:
483,192,190601,1,0,0:0:0:0:
28,192,190601,1,0,0:0:0:70:se_maoudamashii_instruments_drum1_tom3.wav
483,192,190986,1,0,0:0:0:0:
28,192,190986,1,0,0:0:0:70:se_maoudamashii_instruments_drum1_tom3.wav
483,192,191370,1,0,0:0:0:0:
28,192,191370,1,0,0:0:0:70:se_maoudamashii_instruments_drum1_tom3.wav
426,192,191755,1,2,0:0:0:0:
142,192,192139,1,4,0:0:0:0:
28,192,192139,1,0,0:0:0:70:se_maoudamashii_instruments_drum1_tom3.wav
369,192,192524,1,0,0:0:0:0:
142,192,192909,1,0,0:0:0:0:
28,192,192909,1,0,0:0:0:70:se_maoudamashii_instruments_drum1_tom3.wav
28,192,193165,1,0,0:0:0:70:se_maoudamashii_instruments_drum1_tom3.wav
256,192,193293,1,0,0:0:0:0:
142,192,193293,1,0,0:0:0:70:se_maoudamashii_instruments_drum1_tom2.wav
28,192,193550,1,0,0:0:0:70:se_maoudamashii_instruments_drum1_tom3.wav
369,192,193678,1,0,0:0:0:0:
28,192,193678,1,0,0:0:0:70:se_maoudamashii_instruments_drum1_tom3.wav
142,192,194062,1,0,0:0:0:70:se_maoudamashii_instruments_drum1_tom2.wav
199,192,194447,1,0,0:0:0:0:
28,192,194447,1,0,0:0:0:70:se_maoudamashii_instruments_drum1_tom3.wav
142,192,194703,1,0,0:0:0:70:se_maoudamashii_instruments_drum1_tom3.wav
312,192,194832,1,0,0:0:0:0:
28,192,194832,1,0,0:0:0:70:se_maoudamashii_instruments_drum1_tom3.wav
28,192,195088,1,0,0:0:0:70:se_maoudamashii_instruments_drum1_tom3.wav
426,192,195216,1,0,0:0:0:0:
28,192,195216,1,0,0:0:0:70:se_maoudamashii_instruments_drum1_tom3.wav
142,192,195601,1,0,0:0:0:70:se_maoudamashii_instruments_drum1_tom2.wav
28,192,195857,1,0,0:0:0:70:se_maoudamashii_instruments_drum1_tom3.wav
256,192,195986,1,0,0:0:0:0:
28,192,195986,1,0,0:0:0:70:se_maoudamashii_instruments_drum1_tom3.wav
28,192,196242,1,0,0:0:0:70:se_maoudamashii_instruments_drum1_tom3.wav
369,192,196370,1,0,0:0:0:0:
142,192,196370,1,0,0:0:0:70:se_maoudamashii_instruments_drum1_tom2.wav
28,192,196627,1,0,0:0:0:70:se_maoudamashii_instruments_drum1_tom3.wav
483,192,196755,1,0,0:0:0:0:
28,192,196755,1,0,0:0:0:70:se_maoudamashii_instruments_drum1_tom3.wav
142,192,197139,1,0,0:0:0:70:se_maoudamashii_instruments_drum1_tom2.wav
426,192,197396,1,0,0:0:0:0:
312,192,197524,1,0,0:0:0:0:
28,192,197524,1,0,0:0:0:70:se_maoudamashii_instruments_drum1_tom3.wav
28,192,197780,1,0,0:0:0:70:se_maoudamashii_instruments_drum1_tom3.wav
369,192,197909,1,0,0:0:0:0:
142,192,197909,1,0,0:0:0:0:
28,192,198165,1,0,0:0:0:70:se_maoudamashii_instruments_drum1_tom3.wav
256,192,198293,1,0,0:0:0:0:
28,192,198293,1,0,0:0:0:70:se_maoudamashii_instruments_drum1_tom3.wav
142,192,198678,1,0,0:0:0:0:
369,192,198678,1,2,0:0:0:0:
28,192,199062,1,0,0:0:0:70:se_maoudamashii_instruments_drum1_tom3.wav
28,192,199319,1,0,0:0:0:70:se_maoudamashii_instruments_drum1_tom3.wav
369,192,199447,1,2,0:0:0:0:
28,192,199703,1,0,0:0:0:70:se_maoudamashii_instruments_drum1_tom3.wav
28,192,199832,1,0,0:0:0:70:se_maoudamashii_instruments_drum1_tom3.wav
369,192,200216,1,2,0:0:0:0:
426,192,200601,1,0,0:0:0:0:
28,192,200601,1,0,0:0:0:70:se_maoudamashii_instruments_drum1_tom3.wav
256,192,200986,1,0,0:0:0:0:
142,192,200986,1,0,0:0:0:0:
483,192,201370,1,0,0:0:0:0:
28,192,201370,1,0,0:0:0:70:se_maoudamashii_instruments_drum1_tom3.wav
312,192,201755,1,0,0:0:0:0:
142,192,201755,1,0,0:0:0:0:
256,192,202139,1,0,0:0:0:0:
28,192,202139,1,0,0:0:0:70:se_maoudamashii_instruments_drum1_tom3.wav
199,192,202524,1,0,0:0:0:0:
142,192,202524,1,0,0:0:0:0:
256,192,202909,1,0,0:0:0:0:
28,192,202909,1,0,0:0:0:70:se_maoudamashii_instruments_drum1_tom3.wav
312,192,203293,1,0,0:0:0:0:
142,192,203293,1,0,0:0:0:0:
483,192,203678,1,0,0:0:0:0:
28,192,203678,1,0,0:0:0:70:se_maoudamashii_instruments_drum1_tom3.wav
369,192,204062,1,0,0:0:0:0:
142,192,204062,1,0,0:0:0:0:
28,192,204191,1,0,0:0:0:70:se_maoudamashii_instruments_drum1_tom3.wav
142,192,204319,1,0,0:0:0:0:
312,192,204447,1,0,0:0:0:0:
28,192,204447,1,0,0:0:0:70:se_maoudamashii_instruments_drum1_tom3.wav
426,192,204832,1,0,0:0:0:0:
142,192,204832,1,0,0:0:0:0:
142,192,205216,1,0,0:0:0:0:
28,192,205216,1,0,0:0:0:70:se_maoudamashii_instruments_drum1_tom3.wav
256,192,205601,1,0,0:0:0:0:
142,192,205601,1,0,0:0:0:0:
369,192,205986,1,0,0:0:0:0:
28,192,205986,1,0,0:0:0:70:se_maoudamashii_instruments_drum1_tom3.wav
142,192,206370,1,0,0:0:0:0:
199,192,206755,1,0,0:0:0:0:
28,192,206755,1,0,0:0:0:70:se_maoudamashii_instruments_drum1_tom3.wav
312,192,207139,1,0,0:0:0:0:
142,192,207139,1,0,0:0:0:0:
426,192,207524,1,0,0:0:0:0:
28,192,207524,1,0,0:0:0:70:se_maoudamashii_instruments_drum1_tom3.wav
142,192,207909,1,0,0:0:0:0:
256,192,208293,1,0,0:0:0:0:
28,192,208293,1,0,0:0:0:70:se_maoudamashii_instruments_drum1_tom3.wav
369,192,208678,1,0,0:0:0:0:
142,192,208678,1,0,0:0:0:0:
483,192,209062,1,0,0:0:0:0:
28,192,209062,1,0,0:0:0:70:se_maoudamashii_instruments_drum1_tom3.wav
142,192,209447,1,0,0:0:0:0:
426,192,209703,1,0,0:0:0:0:
312,192,209832,1,0,0:0:0:0:
28,192,209832,1,0,0:0:0:70:se_maoudamashii_instruments_drum1_tom3.wav
369,192,210216,1,0,0:0:0:0:
142,192,210216,1,0,0:0:0:0:
256,192,210601,1,0,0:0:0:0:
28,192,210601,1,0,0:0:0:70:se_maoudamashii_instruments_drum1_tom3.wav
28,192,210986,1,0,0:0:0:70:se_maoudamashii_instruments_drum1_tom3.wav
426,192,211242,1,0,0:0:0:0:
142,192,211370,1,0,0:0:0:70:se_maoudamashii_instruments_drum1_tom2.wav
28,192,212139,1,0,0:0:0:70:se_maoudamashii_instruments_drum1_tom3.wav
28,192,212524,1,0,0:0:0:70:se_maoudamashii_instruments_drum1_tom3.wav
85,192,212909,1,0,0:0:0:0:
369,192,212909,1,0,0:0:0:70:se_maoudamashii_instruments_drum1_tom2.wav
199,192,213293,1,0,0:0:0:0:
312,192,213678,1,0,0:0:0:0:
28,192,213678,1,0,0:0:0:70:se_maoudamashii_instruments_drum1_tom3.wav
426,192,214062,1,0,0:0:0:0:
28,192,214062,1,0,0:0:0:70:se_maoudamashii_instruments_drum1_tom3.wav
142,192,214447,1,0,0:0:0:0:
369,192,214447,1,0,0:0:0:0:
256,192,214832,1,0,0:0:0:0:
369,192,215216,1,0,0:0:0:0:
28,192,215216,1,0,0:0:0:70:se_maoudamashii_instruments_drum1_tom3.wav
483,192,215601,1,0,0:0:0:0:
28,192,215601,1,0,0:0:0:70:se_maoudamashii_instruments_drum1_tom3.wav
426,192,215986,1,0,0:0:0:0:
142,192,215986,1,0,0:0:0:70:se_maoudamashii_instruments_drum1_tom2.wav
369,192,216242,1,0,0:0:0:0:
28,192,216242,1,0,0:0:0:70:se_maoudamashii_instruments_drum1_tom3.wav
312,192,216370,1,0,0:0:0:0:
142,192,216370,1,0,0:0:0:70:se_maoudamashii_instruments_drum1_tom2.wav
256,192,216627,1,0,0:0:0:0:
28,192,216627,1,0,0:0:0:70:se_maoudamashii_instruments_drum1_tom3.wav
199,192,216755,1,0,0:0:0:0:
142,192,216755,1,0,0:0:0:70:se_maoudamashii_instruments_drum1_tom2.wav
369,192,217524,1,2,0:0:0:0:
142,192,217524,1,0,0:0:0:70:se_maoudamashii_instruments_drum1_tom2.wav
312,192,218293,1,0,0:0:0:0:
28,192,218293,1,0,0:0:0:70:se_maoudamashii_instruments_drum1_tom3.wav
28,192,218934,1,0,0:0:0:70:se_maoudamashii_instruments_drum1_tom3.wav
369,192,219062,1,0,0:0:0:70:se_maoudamashii_instruments_drum1_tom2.wav
142,192,219447,1,0,0:0:0:70:se_maoudamashii_instruments_drum1_tom2.wav
483,192,219832,1,4,0:0:0:0:
369,192,219832,1,0,0:0:0:70:se_maoudamashii_instruments_drum1_tom2.wav
28,192,219832,1,0,0:0:0:70:se_maoudamashii_instruments_drum1_tom3.wav
483,192,220216,1,0,0:0:0:0:
28,192,220216,1,0,0:0:0:70:se_maoudamashii_instruments_drum1_tom3.wav
369,192,220601,1,0,0:0:0:0:
85,192,220601,1,8,0:0:0:0:
256,192,220986,1,0,0:0:0:0:
312,192,221370,1,0,0:0:0:0:
28,192,221370,1,0,0:0:0:70:se_maoudamashii_instruments_drum1_tom3.wav
199,192,221755,1,0,0:0:0:0:
28,192,221755,1,0,0:0:0:70:se_maoudamashii_instruments_drum1_tom3.wav
256,192,222139,1,0,0:0:0:0:
85,192,222139,1,8,0:0:0:0:
142,192,222524,1,0,0:0:0:0:
28,192,222909,1,0,0:0:0:70:se_maoudamashii_instruments_drum1_tom3.wav
369,192,222909,1,0,0:0:0:0:
28,192,223293,1,0,0:0:0:70:se_maoudamashii_instruments_drum1_tom3.wav
483,192,223293,1,0,0:0:0:0:
85,192,223678,1,8,0:0:0:0:
369,192,223678,1,0,0:0:0:0:
256,192,224062,1,0,0:0:0:0:
28,192,224447,1,0,0:0:0:70:se_maoudamashii_instruments_drum1_tom3.wav
312,192,224447,1,0,0:0:0:0:
28,192,224832,1,0,0:0:0:70:se_maoudamashii_instruments_drum1_tom3.wav
199,192,224832,1,0,0:0:0:0:
85,192,225216,1,8,0:0:0:0:
256,192,225216,1,0,0:0:0:0:
142,192,225601,1,0,0:0:0:0:
28,192,225986,1,0,0:0:0:70:se_maoudamashii_instruments_drum1_tom3.wav
369,192,225986,1,0,0:0:0:0:
28,192,226370,1,0,0:0:0:70:se_maoudamashii_instruments_drum1_tom3.wav
483,192,226370,1,0,0:0:0:0:
85,192,226755,1,8,0:0:0:0:
369,192,226755,1,0,0:0:0:0:
256,192,227139,1,0,0:0:0:0:
28,192,227524,1,0,0:0:0:70:se_maoudamashii_instruments_drum1_tom3.wav
312,192,227524,1,0,0:0:0:0:
28,192,227909,1,0,0:0:0:70:se_maoudamashii_instruments_drum1_tom3.wav
199,192,227909,1,0,0:0:0:0:
85,192,228293,1,8,0:0:0:0:
256,192,228293,1,0,0:0:0:0:
142,192,228678,1,0,0:0:0:0:
369,192,229062,1,0,0:0:0:0:
28,192,229062,1,0,0:0:0:70:se_maoudamashii_instruments_drum1_tom3.wav
483,192,229447,1,0,0:0:0:0:
28,192,229447,1,0,0:0:0:70:se_maoudamashii_instruments_drum1_tom3.wav
369,192,229832,1,0,0:0:0:0:
85,192,229832,1,8,0:0:0:0:
256,192,230216,1,0,0:0:0:0:
312,192,230601,1,0,0:0:0:0:
28,192,230601,1,0,0:0:0:70:se_maoudamashii_instruments_drum1_tom3.wav
199,192,230986,1,0,0:0:0:0:
28,192,230986,1,0,0:0:0:70:se_maoudamashii_instruments_drum1_tom3.wav
256,192,231370,1,0,0:0:0:0:
85,192,231370,1,8,0:0:0:0:
142,192,231755,1,0,0:0:0:0:
28,192,232139,1,0,0:0:0:70:se_maoudamashii_instruments_drum1_tom3.wav
369,192,232139,1,0,0:0:0:0:
28,192,232524,1,0,0:0:0:70:se_maoudamashii_instruments_drum1_tom3.wav
483,192,232524,1,0,0:0:0:0:
85,192,232909,1,8,0:0:0:0:
369,192,232909,1,0,0:0:0:0:
256,192,233293,1,0,0:0:0:0:
28,192,233678,1,0,0:0:0:70:se_maoudamashii_instruments_drum1_tom3.wav
312,192,233678,1,0,0:0:0:0:
28,192,234062,1,0,0:0:0:70:se_maoudamashii_instruments_drum1_tom3.wav
199,192,234062,1,0,0:0:0:0:
85,192,234447,1,8,0:0:0:0:
256,192,234447,1,0,0:0:0:0:
142,192,234832,1,0,0:0:0:0:
369,192,235216,1,0,0:0:0:0:
28,192,235216,1,0,0:0:0:70:se_maoudamashii_instruments_drum1_tom3.wav
142,192,235473,1,0,0:0:0:70:se_maoudamashii_instruments_drum1_tom2.wav
483,192,235601,1,0,0:0:0:0:
28,192,235601,1,0,0:0:0:70:se_maoudamashii_instruments_drum1_tom3.wav
369,192,235986,1,0,0:0:0:0:
85,192,235986,1,8,0:0:0:0:
256,192,236370,1,0,0:0:0:0:
312,192,236755,1,0,0:0:0:0:
28,192,236755,1,0,0:0:0:70:se_maoudamashii_instruments_drum1_tom3.wav
199,192,237139,1,0,0:0:0:0:
28,192,237139,1,0,0:0:0:70:se_maoudamashii_instruments_drum1_tom3.wav
256,192,237524,1,0,0:0:0:0:
85,192,237524,1,8,0:0:0:0:
256,192,237780,1,0,0:0:0:0:
142,192,237909,1,0,0:0:0:0:
369,192,237909,1,2,0:0:0:0:
483,192,238037,1,2,0:0:0:0:
426,192,238165,1,2,0:0:0:0:
28,192,238293,1,0,0:0:0:70:se_maoudamashii_instruments_drum1_tom3.wav
369,192,238293,1,2,0:0:0:0:
142,192,238550,1,0,0:0:0:70:se_maoudamashii_instruments_drum1_tom2.wav
28,192,238678,1,0,0:0:0:70:se_maoudamashii_instruments_drum1_tom3.wav
483,192,238678,1,0,0:0:0:0:
85,192,239062,1,8,0:0:0:0:
369,192,239062,1,0,0:0:0:0:
256,192,239447,1,0,0:0:0:0:
28,192,239703,1,0,0:0:0:70:se_maoudamashii_instruments_drum1_tom3.wav
28,192,239832,1,0,0:0:0:70:se_maoudamashii_instruments_drum1_tom3.wav
312,192,239832,1,0,0:0:0:0:
28,192,240216,1,0,0:0:0:70:se_maoudamashii_instruments_drum1_tom3.wav
199,192,240216,1,0,0:0:0:0:
28,192,240473,1,0,0:0:0:70:se_maoudamashii_instruments_drum1_tom3.wav
85,192,240601,1,8,0:0:0:0:
256,192,240601,1,0,0:0:0:0:
142,192,240986,1,0,0:0:0:0:
369,192,241370,1,0,0:0:0:0:
28,192,241370,1,0,0:0:0:70:se_maoudamashii_instruments_drum1_tom3.wav
142,192,241627,1,0,0:0:0:70:se_maoudamashii_instruments_drum1_tom2.wav
483,192,241755,1,0,0:0:0:0:
28,192,241755,1,0,0:0:0:70:se_maoudamashii_instruments_drum1_tom3.wav
369,192,242139,1,0,0:0:0:0:
85,192,242139,1,8,0:0:0:0:
28,192,242396,1,0,0:0:0:70:se_maoudamashii_instruments_drum1_tom3.wav
256,192,242524,1,0,0:0:0:0:
28,192,242524,1,0,0:0:0:70:se_maoudamashii_instruments_drum1_tom3.wav
312,192,242909,1,0,0:0:0:0:
28,192,242909,1,0,0:0:0:70:se_maoudamashii_instruments_drum1_tom3.wav
28,192,243165,1,0,0:0:0:70:se_maoudamashii_instruments_drum1_tom3.wav
199,192,243293,1,0,0:0:0:0:
28,192,243293,1,0,0:0:0:70:se_maoudamashii_instruments_drum1_tom3.wav
256,192,243678,1,0,0:0:0:0:
85,192,243678,1,8,0:0:0:0:
28,192,243678,1,0,0:0:0:70:se_maoudamashii_instruments_drum1_tom3.wav
28,192,243934,1,0,0:0:0:70:se_maoudamashii_instruments_drum1_tom3.wav
142,192,244062,1,0,0:0:0:70:se_maoudamashii_instruments_drum1_tom2.wav
28,192,244062,1,0,0:0:0:70:se_maoudamashii_instruments_drum1_tom3.wav
28,192,244447,1,0,0:0:0:70:se_maoudamashii_instruments_drum1_tom3.wav
369,192,244447,1,2,0:0:0:0:
28,192,244832,1,0,0:0:0:70:se_maoudamashii_instruments_drum1_tom3.wav
483,192,244832,1,2,0:0:0:0:
85,192,245216,1,8,0:0:0:0:
369,192,245216,1,2,0:0:0:0:
256,192,245601,1,2,0:0:0:0:
28,192,245986,1,0,0:0:0:70:se_maoudamashii_instruments_drum1_tom3.wav
312,192,245986,1,0,0:0:0:0:
28,192,246370,1,0,0:0:0:70:se_maoudamashii_instruments_drum1_tom3.wav
199,192,246370,1,0,0:0:0:0:
85,192,246755,1,8,0:0:0:0:
256,192,246755,1,0,0:0:0:0:
142,192,247139,1,0,0:0:0:0:
369,192,247524,1,2,0:0:0:0:
28,192,247524,1,0,0:0:0:70:se_maoudamashii_instruments_drum1_tom3.wav
483,192,247909,1,2,0:0:0:0:
28,192,247909,1,0,0:0:0:70:se_maoudamashii_instruments_drum1_tom3.wav
369,192,248293,1,2,0:0:0:0:
85,192,248293,1,8,0:0:0:0:
256,192,248678,1,2,0:0:0:0:
312,192,249062,1,0,0:0:0:0:
28,192,249062,1,0,0:0:0:70:se_maoudamashii_instruments_drum1_tom3.wav
199,192,249447,1,0,0:0:0:0:
28,192,249447,1,0,0:0:0:70:se_maoudamashii_instruments_drum1_tom3.wav
85,192,249703,1,0,0:0:0:70:drum-hitclap2-2.wav
256,192,249832,1,0,0:0:0:0:
369,192,249832,1,0,0:0:0:0:
142,192,250216,1,0,0:0:0:70:drum-hitclap3-2.wav
369,192,250216,1,0,0:0:0:0:
28,192,250601,1,0,0:0:0:70:se_maoudamashii_instruments_drum1_tom3.wav
369,192,250601,1,2,0:0:0:0:
28,192,250986,1,0,0:0:0:70:se_maoudamashii_instruments_drum1_tom3.wav
483,192,250986,1,2,0:0:0:0:
85,192,251370,1,8,0:0:0:0:
369,192,251370,1,2,0:0:0:0:
256,192,251755,1,2,0:0:0:0:
28,192,252139,1,0,0:0:0:70:se_maoudamashii_instruments_drum1_tom3.wav
312,192,252139,1,0,0:0:0:0:
28,192,252524,1,0,0:0:0:70:se_maoudamashii_instruments_drum1_tom3.wav
199,192,252524,1,0,0:0:0:0:
256,192,252909,1,0,0:0:0:0:
85,192,252909,1,8,0:0:0:0:
142,192,253293,1,0,0:0:0:0:
369,192,253678,1,2,0:0:0:0:
28,192,253678,1,0,0:0:0:70:se_maoudamashii_instruments_drum1_tom3.wav
483,192,254062,1,2,0:0:0:0:
28,192,254062,1,0,0:0:0:70:se_maoudamashii_instruments_drum1_tom3.wav
369,192,254447,1,2,0:0:0:0:
85,192,254447,1,8,0:0:0:0:
256,192,254832,1,2,0:0:0:0:
312,192,255216,1,0,0:0:0:0:
28,192,255216,1,0,0:0:0:70:se_maoudamashii_instruments_drum1_tom3.wav
199,192,255601,1,0,0:0:0:0:
28,192,255601,1,0,0:0:0:70:se_maoudamashii_instruments_drum1_tom3.wav
85,192,255857,1,0,0:0:0:70:drum-hitclap2-2.wav
256,192,255986,1,2,0:0:0:0:
142,192,256370,1,0,0:0:0:70:drum-hitclap3-2.wav
