osu file format v14

[General]
AudioFilename: audio.mp3
AudioLeadIn: 0
PreviewTime: 32145
Countdown: 0
SampleSet: Normal
StackLeniency: 0.4
Mode: 0
LetterboxInBreaks: 0
WidescreenStoryboard: 0

[Editor]
Bookmarks: 47645,65645
DistanceSpacing: 0.6
BeatDivisor: 8
GridSize: 4
TimelineZoom: 1.8

[Metadata]
Title:Enter The Woods
TitleUnicode:Enter The Woods
Artist:Megaraptor
ArtistUnicode:Megaraptor
Creator:Mikojel
Version:FIGHT
Source:
Tags:
BeatmapID:1878624
BeatmapSetID:899340

[Difficulty]
HPDrainRate:5
CircleSize:4
OverallDifficulty:9
ApproachRate:9.9
SliderMultiplier:2.5
SliderTickRate:1

[Events]
//Background and Video events
0,0,"cropped-1920-1080-703151.jpg",0,0
//Break Periods
//Storyboard Layer 0 (Background)
//Storyboard Layer 1 (Fail)
//Storyboard Layer 2 (Pass)
//Storyboard Layer 3 (Foreground)
//Storyboard Sound Samples

[TimingPoints]
32145,500,4,1,0,50,1,0
55895,-133.333333333333,4,1,0,50,0,0
56145,-100,4,1,0,50,0,0
59645,-133.333333333333,4,1,0,50,0,0
60145,-100,4,1,0,50,0,0
62895,-100,4,1,0,30,0,0
63395,-100,4,1,0,45,0,0
63895,-100,4,1,0,60,0,0
66145,-66.6666666666667,4,1,0,50,0,1
82145,-57.1428571428571,4,1,0,50,0,1
98145,-100,4,1,0,50,0,0

[HitObjects]
108,84,47645,5,4,0:0:0:0:
112,88,47895,1,4,0:0:0:0:
265,216,48145,2,0,P|251:155|208:112,2,125
113,249,48895,1,0,0:0:0:0:
113,249,49020,1,0,0:0:0:0:
113,249,49145,1,0,0:0:0:0:
270,355,49645,6,0,P|223:351|182:329,1,93.75
350,220,50145,6,0,P|404:249|465:242,2,125
436,78,50895,1,0,0:0:0:0:
436,78,51020,1,0,0:0:0:0:
436,78,51145,1,0,0:0:0:0:
309,162,51645,2,0,P|266:117|205:111,1,125
181,125,51957,1,0,0:0:0:0:
158,145,52019,1,0,0:0:0:0:
147,174,52082,1,0,0:0:0:0:
151,205,52145,6,0,P|192:248|258:242,2,125
67,94,52895,1,0,0:0:0:0:
67,94,53020,1,0,0:0:0:0:
67,94,53145,1,0,0:0:0:0:
154,22,53645,6,0,P|173:45|201:59,1,62.5
354,227,54145,6,0,P|297:204|266:150,2,125,4|0|0,0:0|0:0|0:0,0:0:0:0:
175,175,54895,1,0,0:0:0:0:
175,175,55020,1,0,0:0:0:0:
175,175,55145,1,0,0:0:0:0:
122,252,55395,5,0,0:0:0:0:
122,252,55520,1,0,0:0:0:0:
122,252,55645,1,0,0:0:0:0:
216,259,55895,5,0,0:0:0:0:
225,238,55957,1,0,0:0:0:0:
224,215,56020,1,0,0:0:0:0:
214,194,56082,1,0,0:0:0:0:
194,179,56145,6,0,P|147:141|152:81,2,125,4|0|0,0:0|0:0|0:0,0:0:0:0:
394,157,56895,1,0,0:0:0:0:
394,157,57020,1,0,0:0:0:0:
394,157,57145,1,0,0:0:0:0:
256,25,57645,1,0,0:0:0:0:
340,225,58145,6,0,P|345:286|393:323,2,125
214,302,58895,1,0,0:0:0:0:
214,302,59020,1,0,0:0:0:0:
214,302,59145,1,0,0:0:0:0:
267,225,59645,5,0,0:0:0:0:
267,225,59895,5,0,0:0:0:0:
246,213,59957,1,0,0:0:0:0:
223,208,60020,1,0,0:0:0:0:
200,208,60082,1,0,0:0:0:0:
176,213,60145,6,0,P|115:223|62:192,2,125
231,69,60895,1,0,0:0:0:0:
231,69,61020,1,0,0:0:0:0:
231,69,61145,1,0,0:0:0:0:
256,180,61645,2,0,P|273:154|273:123,1,62.5
309,318,62145,6,0,P|297:258|330:206,2,125,4|0|0,0:0|0:0|0:0,0:0:0:0:
408,288,62895,5,8,0:0:0:0:
408,269,63020,1,8,0:0:0:0:
424,278,63145,1,8,0:0:0:0:
320,212,63395,5,8,0:0:0:0:
283,149,63520,1,8,0:0:0:0:
352,147,63645,1,8,0:0:0:0:
171,207,63895,5,8,0:0:0:0:
74,151,64020,1,8,0:0:0:0:
163,97,64145,1,4,0:0:0:0:
381,71,65645,5,2,0:0:0:0:
232,330,66145,5,0,0:0:0:0:
210,82,66270,1,0,0:0:0:0:
296,210,66395,1,0,0:0:0:0:
112,165,66520,1,0,0:0:0:0:
364,92,66645,1,0,0:0:0:0:
352,320,66770,1,0,0:0:0:0:
284,128,66895,1,0,0:0:0:0:
474,185,67020,1,0,0:0:0:0:
232,248,67145,5,0,0:0:0:0:
476,296,67270,1,0,0:0:0:0:
364,92,67395,1,0,0:0:0:0:
272,321,67520,1,0,0:0:0:0:
213,83,67645,1,0,0:0:0:0:
364,202,67770,1,0,0:0:0:0:
94,169,67895,1,0,0:0:0:0:
133,365,68020,1,0,0:0:0:0:
294,52,68145,5,0,0:0:0:0:
365,311,68270,1,0,0:0:0:0:
178,158,68395,1,0,0:0:0:0:
429,110,68520,1,0,0:0:0:0:
144,1,68645,1,0,0:0:0:0:
322,194,68770,1,0,0:0:0:0:
22,220,68895,1,0,0:0:0:0:
226,65,69020,1,0,0:0:0:0:
164,261,69145,5,0,0:0:0:0:
2,47,69270,1,0,0:0:0:0:
326,90,69395,1,0,0:0:0:0:
72,157,69520,1,0,0:0:0:0:
231,0,69645,1,0,0:0:0:0:
310,250,69770,1,0,0:0:0:0:
138,63,69895,1,0,0:0:0:0:
176,275,70020,1,0,0:0:0:0:
326,90,70145,5,0,0:0:0:0:
390,300,70270,1,0,0:0:0:0:
234,165,70395,1,0,0:0:0:0:
489,159,70520,1,0,0:0:0:0:
302,329,70645,1,0,0:0:0:0:
395,150,70770,1,0,0:0:0:0:
480,361,70895,1,0,0:0:0:0:
298,209,71020,1,0,0:0:0:0:
493,48,71145,5,0,0:0:0:0:
432,246,71270,1,0,0:0:0:0:
331,35,71395,1,0,0:0:0:0:
181,211,71520,1,0,0:0:0:0:
55,10,71645,1,0,0:0:0:0:
293,105,71770,1,0,0:0:0:0:
11,174,71895,1,0,0:0:0:0:
179,8,72020,1,0,0:0:0:0:
136,312,72145,5,0,0:0:0:0:
197,90,72270,1,0,0:0:0:0:
247,359,72395,1,0,0:0:0:0:
82,140,72520,1,0,0:0:0:0:
219,186,72645,1,0,0:0:0:0:
16,350,72770,1,0,0:0:0:0:
261,274,72895,1,0,0:0:0:0:
40,244,73020,5,0,0:0:0:0:
342,321,73145,1,0,0:0:0:0:
99,312,73270,2,0,P|163:325|214:289,1,93.7500035762788
153,104,73520,5,0,0:0:0:0:
202,350,73645,1,0,0:0:0:0:
75,161,73770,2,0,P|91:217|130:242,1,93.7500035762788
273,90,74020,1,0,0:0:0:0:
182,195,74145,5,0,0:0:0:0:
407,237,74270,1,0,0:0:0:0:
187,102,74395,1,0,0:0:0:0:
289,320,74520,1,0,0:0:0:0:
321,148,74645,1,0,0:0:0:0:
512,285,74770,1,0,0:0:0:0:
280,229,74895,1,0,0:0:0:0:
494,91,75020,1,0,0:0:0:0:
439,347,75145,5,0,0:0:0:0:
385,105,75270,1,0,0:0:0:0:
512,285,75395,1,0,0:0:0:0:
274,178,75520,1,0,0:0:0:0:
257,381,75645,1,0,0:0:0:0:
400,236,75770,1,0,0:0:0:0:
135,223,75895,1,0,0:0:0:0:
324,293,76020,1,0,0:0:0:0:
202,57,76145,5,0,0:0:0:0:
211,306,76270,1,0,0:0:0:0:
339,82,76395,1,0,0:0:0:0:
163,157,76520,1,0,0:0:0:0:
452,178,76645,1,0,0:0:0:0:
273,2,76770,1,0,0:0:0:0:
328,168,76895,1,0,0:0:0:0:
503,5,77020,1,0,0:0:0:0:
194,50,77145,5,0,0:0:0:0:
242,223,77270,1,0,0:0:0:0:
49,116,77395,1,0,0:0:0:0:
326,62,77520,1,0,0:0:0:0:
103,287,77645,1,0,0:0:0:0:
92,48,77770,1,0,0:0:0:0:
229,301,77895,1,0,0:0:0:0:
3,223,78020,1,0,0:0:0:0:
232,130,78145,5,0,0:0:0:0:
353,368,78270,1,0,0:0:0:0:
144,216,78395,1,0,0:0:0:0:
391,150,78520,1,0,0:0:0:0:
209,358,78645,1,0,0:0:0:0:
315,75,78770,1,0,0:0:0:0:
413,312,78895,1,0,0:0:0:0:
232,130,79020,1,0,0:0:0:0:
42,301,79145,5,0,0:0:0:0:
85,81,79270,1,0,0:0:0:0:
222,223,79395,1,0,0:0:0:0:
3,140,79520,1,0,0:0:0:0:
209,25,79645,1,0,0:0:0:0:
128,187,79770,1,0,0:0:0:0:
74,0,79895,1,0,0:0:0:0:
267,156,80020,1,0,0:0:0:0:
3,54,80145,5,0,0:0:0:0:
87,284,80270,1,0,0:0:0:0:
128,92,80395,1,0,0:0:0:0:
6,185,80520,1,0,0:0:0:0:
222,156,80645,1,0,0:0:0:0:
199,345,80770,1,0,0:0:0:0:
89,173,80895,1,0,0:0:0:0:
317,81,81020,1,0,0:0:0:0:
46,328,81145,5,0,0:0:0:0:
79,46,81270,1,0,0:0:0:0:
240,264,81395,1,0,0:0:0:0:
4,226,81520,1,0,0:0:0:0:
190,66,81645,5,0,0:0:0:0:
130,264,81770,1,0,0:0:0:0:
46,120,81895,1,0,0:0:0:0:
236,178,82020,1,0,0:0:0:0:
118,174,82145,5,0,0:0:0:0:
360,26,82270,1,0,0:0:0:0:
329,283,82395,1,0,0:0:0:0:
240,19,82520,1,0,0:0:0:0:
452,110,82645,1,0,0:0:0:0:
217,242,82770,1,0,0:0:0:0:
369,98,82895,1,0,0:0:0:0:
432,351,83020,1,0,0:0:0:0:
285,142,83145,5,0,0:0:0:0:
512,297,83270,1,0,0:0:0:0:
173,332,83395,1,0,0:0:0:0:
441,123,83520,1,0,0:0:0:0:
341,364,83645,1,0,0:0:0:0:
204,116,83770,1,0,0:0:0:0:
398,294,83895,1,0,0:0:0:0:
79,231,84020,1,0,0:0:0:0:
297,44,84145,5,0,0:0:0:0:
259,326,84270,1,0,0:0:0:0:
26,33,84395,1,0,0:0:0:0:
338,161,84520,1,0,0:0:0:0:
30,176,84645,1,0,0:0:0:0:
234,32,84770,1,0,0:0:0:0:
158,340,84895,1,0,0:0:0:0:
90,78,85020,1,0,0:0:0:0:
338,271,85145,5,0,0:0:0:0:
385,7,85270,1,0,0:0:0:0:
62,252,85395,1,0,0:0:0:0:
499,145,85520,1,0,0:0:0:0:
154,26,85645,1,0,0:0:0:0:
330,344,85770,1,0,0:0:0:0:
335,75,85895,1,0,0:0:0:0:
144,316,86020,1,0,0:0:0:0:
380,225,86145,5,0,0:0:0:0:
114,114,86270,1,0,0:0:0:0:
255,300,86395,1,0,0:0:0:0:
238,34,86520,1,0,0:0:0:0:
90,273,86645,1,0,0:0:0:0:
18,59,86770,1,0,0:0:0:0:
330,157,86895,1,0,0:0:0:0:
35,203,87020,1,0,0:0:0:0:
337,55,87145,5,0,0:0:0:0:
384,284,87270,1,0,0:0:0:0:
189,114,87395,1,0,0:0:0:0:
500,99,87520,1,0,0:0:0:0:
298,285,87645,1,0,0:0:0:0:
434,29,87770,1,0,0:0:0:0:
511,252,87895,1,0,0:0:0:0:
280,63,88020,1,0,0:0:0:0:
204,369,88145,5,0,0:0:0:0:
3,170,88270,1,0,0:0:0:0:
261,166,88395,1,0,0:0:0:0:
62,364,88520,1,0,0:0:0:0:
74,94,88645,1,0,0:0:0:0:
268,270,88770,1,0,0:0:0:0:
58,253,88895,1,0,0:0:0:0:
256,83,89020,1,0,0:0:0:0:
216,351,89145,5,0,0:0:0:0:
158,64,89270,1,0,0:0:0:0:
90,228,89395,2,0,P|100:282|136:322,1,109.375001043081
352,158,89645,5,0,0:0:0:0:
50,171,89770,1,0,0:0:0:0:
230,265,89895,2,0,P|284:264|324:229,1,109.375001043081
117,64,90145,5,0,0:0:0:0:
352,158,90270,1,0,0:0:0:0:
94,244,90395,1,0,0:0:0:0:
278,49,90520,1,0,0:0:0:0:
364,285,90645,1,0,0:0:0:0:
199,165,90770,1,0,0:0:0:0:
472,72,90895,1,0,0:0:0:0:
277,248,91020,1,0,0:0:0:0:
381,30,91145,5,0,0:0:0:0:
458,298,91270,1,0,0:0:0:0:
239,63,91395,1,0,0:0:0:0:
468,152,91520,1,0,0:0:0:0:
203,300,91645,1,0,0:0:0:0:
329,96,91770,1,0,0:0:0:0:
335,354,91895,1,0,0:0:0:0:
90,201,92020,1,0,0:0:0:0:
445,226,92145,5,0,0:0:0:0:
74,338,92270,1,0,0:0:0:0:
253,37,92395,1,0,0:0:0:0:
245,351,92520,1,0,0:0:0:0:
93,91,92645,1,0,0:0:0:0:
320,222,92770,1,0,0:0:0:0:
14,266,92895,1,0,0:0:0:0:
253,106,93020,1,0,0:0:0:0:
383,361,93145,5,0,0:0:0:0:
89,202,93270,1,0,0:0:0:0:
505,160,93395,1,0,0:0:0:0:
151,338,93520,1,0,0:0:0:0:
334,29,93645,1,0,0:0:0:0:
448,293,93770,1,0,0:0:0:0:
492,21,93895,1,0,0:0:0:0:
294,242,94020,1,0,0:0:0:0:
138,36,94145,5,0,0:0:0:0:
77,312,94270,1,0,0:0:0:0:
282,146,94395,1,0,0:0:0:0:
1,82,94520,1,0,0:0:0:0:
228,325,94645,1,0,0:0:0:0:
206,60,94770,1,0,0:0:0:0:
21,230,94895,1,0,0:0:0:0:
282,146,95020,1,0,0:0:0:0:
82,109,95145,5,0,0:0:0:0:
152,357,95270,1,0,0:0:0:0:
213,145,95395,1,0,0:0:0:0:
45,328,95520,1,0,0:0:0:0:
274,258,95645,1,0,0:0:0:0:
91,204,95770,1,0,0:0:0:0:
231,333,95895,1,0,0:0:0:0:
213,145,96020,1,0,0:0:0:0:
431,328,96145,5,0,0:0:0:0:
189,248,96270,1,0,0:0:0:0:
458,205,96395,1,0,0:0:0:0:
231,333,96520,1,0,0:0:0:0:
345,129,96645,1,0,0:0:0:0:
354,369,96770,1,0,0:0:0:0:
240,143,96895,1,0,0:0:0:0:
469,304,97020,1,0,0:0:0:0:
463,50,97145,6,0,L|437:111,1,54.6875005215406
275,312,97270,2,0,L|291:242,1,54.6875005215406
230,56,97395,2,0,L|283:101,1,54.6875005215406
489,197,97520,2,0,L|430:198,1,54.6875005215406
167,253,97645,6,0,L|132:184,1,54.6875005215406
53,25,97770,2,0,L|37:99,1,54.6875005215406
0,226,97895,2,0,L|56:191,3,54.6875005215406
