osu file format v14

[General]
AudioFilename: audio.mp3
AudioLeadIn: 0
PreviewTime: 58243
Countdown: 0
SampleSet: Normal
StackLeniency: 1
Mode: 1
LetterboxInBreaks: 0
WidescreenStoryboard: 0

[Editor]
Bookmarks: 10243,50664,60769,80980,101190,121401,139085
DistanceSpacing: 0.7
BeatDivisor: 6
GridSize: 32
TimelineZoom: 2.599999

[Metadata]
Title:The Cyber Grind
TitleUnicode:The Cyber Grind
Artist:meganeko
ArtistUnicode:meganeko
Creator:DEtermination21
Version:INFINITE HYPERDEATH
Source:ULTRAKILL
Tags:Instrumental Video game electronic INFINITE HYPERDEATH vgm Rock Metal amen breakcore soundtrack OST Heaven Pierce Her Arsi Hakita Patala new blood interactive featured artist fa
BeatmapID:3479773
BeatmapSetID:1703070

[Difficulty]
HPDrainRate:5
CircleSize:7
OverallDifficulty:6
ApproachRate:10
SliderMultiplier:1.4
SliderTickRate:1

[Events]
//Background and Video events
0,0,"Background.png",0,0
//Break Periods
//Storyboard Layer 0 (Background)
//Storyboard Layer 1 (Fail)
//Storyboard Layer 2 (Pass)
//Storyboard Layer 3 (Foreground)
//Storyboard Layer 4 (Overlay)
//Storyboard Sound Samples

[TimingPoints]
138,315.789473684211,4,1,0,60,1,0
138,-222.22221,4,1,0,60,0,0
452,-218.20947,4,1,0,60,0,0
610,-216.2241,4,1,0,60,0,0
926,-212.30739,4,1,0,60,0,0
1242,-208.46161,4,1,0,60,0,0
1400,-206.56491,4,1,0,60,0,0
1715,-202.83493,4,1,0,60,0,0
2031,-199.16072,4,1,0,60,0,0
2347,-195.55312,4,1,0,60,0,0
2663,-192.01083,4,1,0,60,0,0
2821,-190.26381,4,1,0,60,0,0
2979,-188.53273,4,1,0,60,0,0
3137,-186.81737,4,1,0,60,0,0
3452,-183.44394,4,1,0,60,0,0
3768,-180.121,4,1,0,60,0,0
3926,-178.48218,4,1,0,60,0,0
4084,-176.85825,4,1,0,60,0,0
4242,-175.24913,4,1,0,60,0,0
4558,-172.07463,4,1,0,60,0,0
4873,-168.96742,4,1,0,60,0,0
5189,-165.90672,4,1,0,60,0,0
5347,-164.39723,4,1,0,60,0,0
5505,-162.90147,4,1,0,60,0,0
5663,-161.41931,4,1,0,60,0,0
5821,-159.95065,4,1,0,60,0,0
5979,-158.49533,4,1,0,60,0,0
6294,-155.63333,4,1,0,60,0,0
6453,-154.20837,4,1,0,60,0,0
6610,-152.81418,4,1,0,60,0,0
6768,-151.4238,4,1,0,60,0,0
6926,-150.04607,4,1,0,60,0,0
7084,-148.68086,4,1,0,60,0,0
7400,-145.98766,4,1,0,60,0,0
7558,-144.65938,4,1,0,60,0,0
7715,-143.3515,4,1,0,60,0,0
7873,-142.04723,4,1,0,60,0,0
8031,-140.75482,4,1,0,60,0,0
8189,-139.47415,4,1,0,60,0,0
8347,-138.20515,4,1,0,60,0,0
8505,-136.9477,4,1,0,60,0,0
8663,-135.70169,4,1,0,60,0,0
8821,-134.46701,4,1,0,60,0,0
8979,-133.24356,4,1,0,60,0,0
9137,-132.03127,4,1,0,60,0,0
9294,-130.83754,4,1,0,60,0,0
9452,-129.64711,4,1,0,60,0,0
9610,-128.46753,4,1,0,60,0,0
9768,-127.29867,4,1,0,60,0,0
9926,-126.14045,4,1,0,60,0,0
10084,-124.992775,4,1,0,60,0,0
10242,-83.3333333333333,4,1,0,100,0,0
10401,-95.2380952380952,4,1,0,100,0,0
15768,-95.2381,4,1,0,100,0,0
16005,-98.4016,4,1,0,100,0,0
16084,-99.47928,4,1,0,100,0,0
16137,-100.208885,4,1,0,100,0,0
16189,-100.92994,4,1,0,100,0,0
16242,-101.67017,4,1,0,100,0,0
16321,-102.78365,4,1,0,100,0,0
16400,-103.90934,4,1,0,100,0,0
16558,-106.1978,4,1,0,100,0,0
16637,-107.36086,4,1,0,100,0,0
16715,-108.521706,4,1,0,100,0,0
16873,-110.91174,4,1,0,100,0,0
17031,-113.35443,4,1,0,100,0,0
17110,-114.59587,4,1,0,100,0,0
17189,-115.85092,4,1,0,100,0,0
17347,-118.40238,4,1,0,100,0,0
17505,-121.01003,4,1,0,100,0,0
17663,-123.67513,4,1,0,100,0,0
17742,-125.029594,4,1,0,100,0,0
17821,-83.3333333333333,4,1,0,100,0,0
19085,-108.695652173913,4,1,0,100,0,0
19242,-113.63636,4,1,0,100,0,0
19321,-111.19113,4,1,0,100,0,0
19400,-108.79854,4,1,0,100,0,0
19479,-106.457405,4,1,0,100,0,0
19558,-104.16667,4,1,0,100,0,0
19715,-108.66698,4,1,0,100,0,0
19794,-106.42521,4,1,0,100,0,0
19873,-104.2297,4,1,0,100,0,0
19952,-102.079475,4,1,0,100,0,0
20031,-89.2857142857143,4,1,0,100,0,0
20348,-86.2068965517241,4,1,0,100,0,0
20506,-105.263157894737,4,1,0,100,0,0
25242,-105.26316,4,1,0,100,0,0
25400,-104.27009,4,1,0,100,0,0
25479,-103.77707,4,1,0,100,0,0
25558,-103.28639,4,1,0,100,0,0
25637,-102.79802,4,1,0,100,0,0
25715,-102.3181,4,1,0,100,0,0
25794,-101.83432,4,1,0,100,0,0
25873,-101.35281,4,1,0,100,0,0
26031,-100.39663,4,1,0,100,0,0
26110,-99.92193,4,1,0,100,0,0
26189,-99.44948,4,1,0,100,0,0
26268,-98.979256,4,1,0,100,0,0
26347,-98.51126,4,1,0,100,0,0
26505,-97.58189,4,1,0,100,0,0
26584,-97.12048,4,1,0,100,0,0
26663,-96.66127,4,1,0,100,0,0
26742,-96.20423,4,1,0,100,0,0
26821,-95.74936,4,1,0,100,0,0
26900,-95.29663,4,1,0,100,0,0
26979,-94.84605,4,1,0,100,0,0
27137,-93.95125,4,1,0,100,0,0
27215,-93.512634,4,1,0,100,0,0
27294,-93.07047,4,1,0,100,0,0
27373,-92.63042,4,1,0,100,0,0
27452,-92.19244,4,1,0,100,0,0
27531,-91.75652,4,1,0,100,0,0
27610,-91.32268,4,1,0,100,0,0
27768,-90.46112,4,1,0,100,0,0
27926,-89.607704,4,1,0,100,0,0
28005,-89.184006,4,1,0,100,0,0
28084,-88.76232,4,1,0,100,0,0
28163,-88.34263,4,1,0,100,0,0
28242,-87.92493,4,1,0,100,0,0
28321,-87.509186,4,1,0,100,0,0
28400,-87.09542,4,1,0,100,0,0
28558,-86.27376,4,1,0,100,0,0
28637,-85.86583,4,1,0,100,0,0
28715,-85.46496,4,1,0,100,0,0
28873,-62.511375,4,1,0,100,0,0
29031,-69.4444444444444,4,1,0,100,0,0
29110,-68.9655172413793,4,1,0,100,0,0
29189,-66.21355,4,1,0,100,0,0
29426,-72.992700729927,4,1,0,100,0,0
29505,-70.134964,4,1,0,100,0,0
29663,-72.18192,4,1,0,100,0,0
29821,-74.28863,4,1,0,100,0,0
30058,-83.3333333333333,4,1,0,100,0,0
30137,-78.688286,4,1,0,100,0,0
30294,-80.97014,4,1,0,100,0,0
30452,-83.33333,4,1,0,100,0,0
30611,-90.99272,4,1,0,100,0,0
34084,-90.99272,4,1,0,100,0,0
34163,-90.53461,4,1,0,100,0,0
34242,-90.0788,4,1,0,100,0,0
34321,-89.62527,4,1,0,100,0,0
34479,-88.72508,4,1,0,100,0,0
34558,-88.27839,4,1,0,100,0,0
34715,-87.39731,4,1,0,100,0,0
34794,-86.95729,4,1,0,100,0,0
34873,-86.5195,4,1,0,100,0,0
34952,-86.08391,4,1,0,100,0,0
35031,-85.6505,4,1,0,100,0,0
35189,-84.79023,4,1,0,100,0,0
35268,-84.36334,4,1,0,100,0,0
35347,-83.9386,4,1,0,100,0,0
35426,-83.516,4,1,0,100,0,0
35505,-83.09553,4,1,0,100,0,0
35584,-82.67717,4,1,0,100,0,0
35742,-81.84677,4,1,0,100,0,0
35821,-81.4347,4,1,0,100,0,0
35979,-80.61676,4,1,0,100,0,0
36058,-80.2109,4,1,0,100,0,0
36215,-79.41034,4,1,0,100,0,0
36294,-79.01054,4,1,0,100,0,0
36452,-78.216965,4,1,0,100,0,0
36531,-77.82316,4,1,0,100,0,0
36610,-77.43135,4,1,0,100,0,0
36689,-77.04151,4,1,0,100,0,0
36768,-76.65363,4,1,0,100,0,0
36926,-75.88373,4,1,0,100,0,0
37005,-75.501686,4,1,0,100,0,0
37084,-75.12157,4,1,0,100,0,0
37163,-74.74335,4,1,0,100,0,0
37242,-74.36704,4,1,0,100,0,0
37321,-73.99263,4,1,0,100,0,0
37479,-73.24945,4,1,0,100,0,0
37558,-72.88068,4,1,0,100,0,0
37715,-72.153275,4,1,0,100,0,0
37768,-71.909355,4,1,0,100,0,0
37821,-71.666275,4,1,0,100,0,0
37873,-71.428566,4,1,0,100,0,0
38031,-83.34862,4,1,0,100,0,0
38110,-84.56492,4,1,0,100,0,0
38189,-85.79896,4,1,0,100,0,0
38268,-87.05102,4,1,0,100,0,0
38347,-88.32135,4,1,0,100,0,0
38505,-90.91788,4,1,0,100,0,0
38584,-92.244644,4,1,0,100,0,0
38663,-93.59076,4,1,0,100,0,0
38821,-96.3422,4,1,0,100,0,0
38979,-99.17454,4,1,0,100,0,0
39058,-100.62178,4,1,0,100,0,0
39137,-102.09016,4,1,0,100,0,0
39215,-103.56094,4,1,0,100,0,0
39295,-105.09148,4,1,0,100,0,0
39452,-108.161194,4,1,0,100,0,0
39531,-109.739586,4,1,0,100,0,0
39610,-111.341,4,1,0,100,0,0
39663,-112.428444,4,1,0,100,0,0
39715,-113.50569,4,1,0,100,0,0
39768,-114.61428,4,1,0,100,0,0
39926,-117.98381,4,1,0,100,0,0
40084,-121.452385,4,1,0,100,0,0
40242,-125.022934,4,1,0,100,0,0
40559,-90.9090909090909,4,1,0,100,0,0
40795,-111.111111111111,4,1,0,100,0,0
49400,-111.11111,4,1,0,100,0,0
49558,-108.35653,4,1,0,100,0,0
49637,-107.00496,4,1,0,100,0,0
49715,-105.687035,4,1,0,100,0,0
49873,-103.06692,4,1,0,100,0,0
49952,-101.78132,4,1,0,100,0,0
50031,-100.51176,4,1,0,100,0,0
50110,-99.25804,4,1,0,100,0,0
50189,-98.01995,4,1,0,100,0,0
50268,-96.79731,4,1,0,100,0,0
50347,-95.58992,4,1,0,100,0,0
50426,-94.39758,4,1,0,100,0,0
50505,-93.22013,4,1,0,100,0,0
50584,-92.05736,4,1,0,100,0,0
50663,-90.90909,4,1,0,100,0,0
50822,-105.263157894737,4,1,0,100,0,0
55242,-105.26316,4,1,0,100,0,0
55400,-103.44352,4,1,0,100,0,0
55479,-102.54553,4,1,0,100,0,0
55558,-101.65534,4,1,0,100,0,0
55637,-100.77289,4,1,0,100,0,0
55715,-99.90911,4,1,0,100,0,0
55873,-98.18202,4,1,0,100,0,0
55952,-97.3297,4,1,0,100,0,0
56031,-96.484795,4,1,0,100,0,0
56189,-94.8169,4,1,0,100,0,0
56268,-93.993805,4,1,0,100,0,0
56347,-93.17785,4,1,0,100,0,0
56426,-92.36898,4,1,0,100,0,0
56505,-91.56713,4,1,0,100,0,0
56663,-89.98425,4,1,0,100,0,0
56742,-89.2031,4,1,0,100,0,0
56821,-88.42874,4,1,0,100,0,0
56900,-87.6611,4,1,0,100,0,0
56979,-86.90011,4,1,0,100,0,0
57137,-85.39791,4,1,0,100,0,0
57215,-84.665924,4,1,0,100,0,0
57294,-83.93093,4,1,0,100,0,0
57452,-82.48006,4,1,0,100,0,0
57531,-81.76406,4,1,0,100,0,0
57610,-81.05427,4,1,0,100,0,0
57689,-80.35065,4,1,0,100,0,0
57768,-79.65313,4,1,0,100,0,0
57926,-78.27621,4,1,0,100,0,0
58005,-77.59669,4,1,0,100,0,0
58084,-76.94198,4,1,0,100,0,0
58242,-79.98925,4,1,0,100,0,0
58321,-81.55785,4,1,0,100,0,0
58400,-83.1572,4,1,0,100,0,0
58479,-84.78793,4,1,0,100,0,0
58558,-86.45064,4,1,0,100,0,0
58637,-88.14594,4,1,0,100,0,0
58715,-89.8524,4,1,0,100,0,0
58794,-91.614426,4,1,0,100,0,0
58873,-93.41098,4,1,0,100,0,0
58952,-95.24278,4,1,0,100,0,0
59031,-97.110504,4,1,0,100,0,0
59110,-99.014854,4,1,0,100,0,0
59189,-100.95656,4,1,0,100,0,0
59268,-102.93632,4,1,0,100,0,0
59347,-104.9549,4,1,0,100,0,0
59426,-107.01309,4,1,0,100,0,0
59505,-109.11163,4,1,0,100,0,0
59584,-111.25133,4,1,0,100,0,0
59663,-113.43297,4,1,0,100,0,0
59742,-115.65741,4,1,0,100,0,0
59821,-117.92547,4,1,0,100,0,0
59900,-120.23799,4,1,0,100,0,0
59979,-122.59589,4,1,0,100,0,0
60058,-125,4,1,0,100,0,0
60138,-71.4285714285714,4,1,0,100,0,0
60769,-60.6060606060606,4,1,0,100,0,1
61006,-76.9230769230769,4,1,0,100,0,1
61085,-75.187969924812,4,1,0,100,0,1
61243,-60.6060606060606,4,1,0,100,0,1
61401,-64.5161290322581,4,1,0,100,0,1
61638,-76.9230769230769,4,1,0,100,0,1
61716,-75.187969924812,4,1,0,100,0,1
61874,-60.6060606060606,4,1,0,100,0,1
62032,-64.5161290322581,4,1,0,100,0,1
62268,-76.92308,4,1,0,100,0,1
62347,-78.36422,4,1,0,100,0,1
62400,-79.34617,4,1,0,100,0,1
62452,-80.32155,4,1,0,100,0,1
62505,-81.32802,4,1,0,100,0,1
62584,-82.85169,4,1,0,100,0,1
62663,-84.40391,4,1,0,100,0,1
62742,-85.985214,4,1,0,100,0,1
62821,-87.59614,4,1,0,100,0,1
62873,-88.67292,4,1,0,100,0,1
62926,-89.78405,4,1,0,100,0,1
62979,-90.90909,4,1,0,100,0,1
63216,-68.9655172413793,4,1,0,100,0,1
63276,-60.6060606060606,4,1,0,100,0,1
63513,-76.9230769230769,4,1,0,100,0,1
63592,-75.187969924812,4,1,0,100,0,1
63690,-73.5294117647059,4,1,0,100,0,1
63750,-60.6060606060606,4,1,0,100,0,1
63908,-64.5161290322581,4,1,0,100,0,1
64164,-76.9230769230769,4,1,0,100,0,1
64243,-75.187969924812,4,1,0,100,0,1
64322,-73.5294117647059,4,1,0,100,0,1
64400,-60.6060606060606,4,1,0,100,0,1
64558,-71.428566,4,1,0,100,0,1
64794,-75.66773,4,1,0,100,0,1
64873,-77.14225,4,1,0,100,0,1
65031,-80.17806,4,1,0,100,0,1
65110,-81.74048,4,1,0,100,0,1
65189,-83.30629,4,1,0,100,0,1
65268,-81.197655,4,1,0,100,0,1
65426,-77.13916,4,1,0,100,0,1
65505,-75.18662,4,1,0,100,0,1
65663,-71.428566,4,1,0,100,0,1
65802,-60.6060606060606,4,1,0,100,0,1
65822,-60.6060606060606,4,1,0,100,0,1
66039,-76.9230769230769,4,1,0,100,0,1
66118,-75.187969924812,4,1,0,100,0,1
66276,-60.6060606060606,4,1,0,100,0,1
66434,-64.5161290322581,4,1,0,100,0,1
66671,-76.9230769230769,4,1,0,100,0,1
66749,-75.187969924812,4,1,0,100,0,1
66907,-60.6060606060606,4,1,0,100,0,1
67065,-64.5161290322581,4,1,0,100,0,1
67321,-76.92308,4,1,0,100,0,1
67400,-78.36627,4,1,0,100,0,1
67453,-79.34964,4,1,0,100,0,1
67505,-80.32644,4,1,0,100,0,1
67558,-81.334404,4,1,0,100,0,1
67637,-82.86036,4,1,0,100,0,1
67716,-84.41494,4,1,0,100,0,1
67795,-85.998695,4,1,0,100,0,1
67874,-87.61217,4,1,0,100,0,1
67926,-88.690674,4,1,0,100,0,1
67979,-89.8036,4,1,0,100,0,1
68032,-90.93048,4,1,0,100,0,1
68348,-100,4,1,0,100,0,0
68426,-97.49572,4,1,0,100,0,0
68505,-95.05417,4,1,0,100,0,0
68584,-92.673744,4,1,0,100,0,0
68663,-90.35295,4,1,0,100,0,0
68821,-85.88425,4,1,0,100,0,0
68900,-83.73347,4,1,0,100,0,0
68979,-81.63655,4,1,0,100,0,0
69058,-79.592155,4,1,0,100,0,0
69137,-77.598946,4,1,0,100,0,0
69216,-75.187969924812,4,1,0,100,0,0
69294,-73.78471,4,1,0,100,0,0
69373,-71.93695,4,1,0,100,0,0
69452,-70.13545,4,1,0,100,0,0
69531,-68.37907,4,1,0,100,0,0
69610,-50.00761,4,1,0,100,0,0
69847,-58.1395348837209,4,1,0,100,0,0
69926,-52.471397,4,1,0,100,0,0
70084,-53.748444,4,1,0,100,0,0
70242,-55.05657,4,1,0,100,0,0
70479,-65.359477124183,4,1,0,100,0,0
70558,-57.769108,4,1,0,100,0,0
70715,-64.1025641025641,4,1,0,100,0,0
70874,-60.60606,4,1,0,100,0,1
71092,-76.9230769230769,4,1,0,100,0,1
71171,-75.187969924812,4,1,0,100,0,1
71329,-60.6060606060606,4,1,0,100,0,1
71487,-64.5161290322581,4,1,0,100,0,1
71724,-76.9230769230769,4,1,0,100,0,1
71802,-75.187969924812,4,1,0,100,0,1
71960,-60.6060606060606,4,1,0,100,0,1
72118,-64.5161290322581,4,1,0,100,0,1
72354,-76.92308,4,1,0,100,0,1
72433,-78.36422,4,1,0,100,0,1
72486,-79.34617,4,1,0,100,0,1
72538,-80.32155,4,1,0,100,0,1
72591,-81.32802,4,1,0,100,0,1
72670,-82.85169,4,1,0,100,0,1
72749,-84.40391,4,1,0,100,0,1
72828,-85.985214,4,1,0,100,0,1
72907,-87.59614,4,1,0,100,0,1
72959,-88.67292,4,1,0,100,0,1
73012,-89.78405,4,1,0,100,0,1
73065,-90.90909,4,1,0,100,0,1
73302,-68.9655172413793,4,1,0,100,0,1
73362,-60.6060606060606,4,1,0,100,0,1
73599,-76.9230769230769,4,1,0,100,0,1
73678,-75.187969924812,4,1,0,100,0,1
73776,-73.5294117647059,4,1,0,100,0,1
73836,-60.6060606060606,4,1,0,100,0,1
73994,-64.5161290322581,4,1,0,100,0,1
74250,-76.9230769230769,4,1,0,100,0,1
74329,-75.187969924812,4,1,0,100,0,1
74408,-73.5294117647059,4,1,0,100,0,1
74486,-60.6060606060606,4,1,0,100,0,1
74644,-71.428566,4,1,0,100,0,1
74880,-75.66773,4,1,0,100,0,1
74959,-77.14225,4,1,0,100,0,1
75117,-80.17806,4,1,0,100,0,1
75196,-81.74048,4,1,0,100,0,1
75275,-83.30629,4,1,0,100,0,1
75354,-81.197655,4,1,0,100,0,1
75512,-77.13916,4,1,0,100,0,1
75591,-75.18662,4,1,0,100,0,1
75749,-71.428566,4,1,0,100,0,1
75888,-60.6060606060606,4,1,0,100,0,1
75908,-60.6060606060606,4,1,0,100,0,1
76125,-76.9230769230769,4,1,0,100,0,1
76204,-75.187969924812,4,1,0,100,0,1
76362,-60.6060606060606,4,1,0,100,0,1
76520,-64.5161290322581,4,1,0,100,0,1
76757,-76.9230769230769,4,1,0,100,0,1
76835,-75.187969924812,4,1,0,100,0,1
76993,-60.6060606060606,4,1,0,100,0,1
77151,-64.5161290322581,4,1,0,100,0,1
77407,-76.92308,4,1,0,100,0,1
77486,-78.36627,4,1,0,100,0,1
77539,-79.34964,4,1,0,100,0,1
77591,-80.32644,4,1,0,100,0,1
77644,-81.334404,4,1,0,100,0,1
77723,-82.86036,4,1,0,100,0,1
77802,-84.41494,4,1,0,100,0,1
77881,-85.998695,4,1,0,100,0,1
77960,-87.61217,4,1,0,100,0,1
78012,-88.690674,4,1,0,100,0,1
78065,-89.8036,4,1,0,100,0,1
78118,-90.93048,4,1,0,100,0,1
78453,-100,4,1,0,100,0,0
78512,-97.49572,4,1,0,100,0,0
78591,-95.05417,4,1,0,100,0,0
78670,-92.673744,4,1,0,100,0,0
78749,-90.35295,4,1,0,100,0,0
78907,-85.88425,4,1,0,100,0,0
78986,-83.73347,4,1,0,100,0,0
79065,-81.63655,4,1,0,100,0,0
79144,-79.592155,4,1,0,100,0,0
79223,-77.598946,4,1,0,100,0,0
79322,-75.187969924812,4,1,0,100,0,0
79380,-73.78471,4,1,0,100,0,0
79459,-71.93695,4,1,0,100,0,0
79538,-70.13545,4,1,0,100,0,0
79617,-68.37907,4,1,0,100,0,0
79696,-50.00761,4,1,0,100,0,0
79933,-58.1395348837209,4,1,0,100,0,0
80012,-52.471397,4,1,0,100,0,0
80170,-53.748444,4,1,0,100,0,0
80328,-55.05657,4,1,0,100,0,0
80565,-65.359477124183,4,1,0,100,0,0
80644,-57.769108,4,1,0,100,0,0
80801,-64.1025641025641,4,1,0,100,0,0
80979,-71.435005,4,1,0,100,0,0
81137,-72.46107,4,1,0,100,0,0
81215,-72.97304,4,1,0,100,0,0
81294,-73.49523,4,1,0,100,0,0
81452,-74.550896,4,1,0,100,0,0
81531,-75.0844,4,1,0,100,0,0
81610,-75.62171,4,1,0,100,0,0
81689,-76.16287,4,1,0,100,0,0
81768,-76.70791,4,1,0,100,0,0
81926,-77.80971,4,1,0,100,0,0
82084,-78.92734,4,1,0,100,0,0
82163,-79.49215,4,1,0,100,0,0
82242,-80.06102,4,1,0,100,0,0
82400,-81.21098,4,1,0,100,0,0
82558,-82.37746,4,1,0,100,0,0
82637,-82.96697,4,1,0,100,0,0
82715,-83.553154,4,1,0,100,0,0
82873,-84.75328,4,1,0,100,0,0
83031,-85.970634,4,1,0,100,0,0
83110,-86.58586,4,1,0,100,0,0
83189,-87.20549,4,1,0,100,0,0
83347,-88.45807,4,1,0,100,0,0
83505,-89.728645,4,1,0,100,0,0
83663,-91.01747,4,1,0,100,0,0
83742,-91.66881,4,1,0,100,0,0
83821,-92.32481,4,1,0,100,0,0
83979,-93.650925,4,1,0,100,0,0
84058,-94.321106,4,1,0,100,0,0
84137,-94.99609,4,1,0,100,0,0
84215,-95.66727,4,1,0,100,0,0
84294,-96.351875,4,1,0,100,0,0
84452,-97.73583,4,1,0,100,0,0
84610,-99.13967,4,1,0,100,0,0
84689,-99.84913,4,1,0,100,0,0
84768,-100.56367,4,1,0,100,0,0
84926,-102.008125,4,1,0,100,0,0
85084,-103.47332,4,1,0,100,0,0
85163,-104.213806,4,1,0,100,0,0
85242,-104.95958,4,1,0,100,0,0
85400,-106.46718,4,1,0,100,0,0
85558,-107.99643,4,1,0,100,0,0
85637,-108.76927,4,1,0,100,0,0
85715,-109.53775,4,1,0,100,0,0
85873,-111.11111,4,1,0,100,0,0
86032,-95.2380952380952,4,1,0,100,0,0
86190,-111.11111,4,1,0,100,0,0
88400,-111.1111,4,1,0,100,0,0
88558,-109.72462,4,1,0,100,0,0
88715,-108.36406,4,1,0,100,0,0
88794,-107.68583,4,1,0,100,0,0
88873,-107.01185,4,1,0,100,0,0
89031,-105.67652,4,1,0,100,0,0
89189,-104.35787,4,1,0,100,0,0
89347,-103.05565,4,1,0,100,0,0
89426,-102.41067,4,1,0,100,0,0
89505,-101.76969,4,1,0,100,0,0
89663,-100.49978,4,1,0,100,0,0
89821,-99.24571,4,1,0,100,0,0
89979,-98.00729,4,1,0,100,0,0
90058,-97.393906,4,1,0,100,0,0
90137,-96.784325,4,1,0,100,0,0
90294,-95.58421,4,1,0,100,0,0
90452,-94.391495,4,1,0,100,0,0
90531,-93.80071,4,1,0,100,0,0
90610,-93.213646,4,1,0,100,0,0
90689,-92.63025,4,1,0,100,0,0
90768,-92.05049,4,1,0,100,0,0
90847,-91.47438,4,1,0,100,0,0
90926,-90.901855,4,1,0,100,0,0
91084,-74.0740740740741,4,1,0,100,0,0
91400,-100,4,1,0,100,0,0
91715,-98.48591,4,1,0,100,0,0
92031,-96.990036,4,1,0,100,0,0
92347,-95.516884,4,1,0,100,0,0
92663,-94.06611,4,1,0,100,0,0
92979,-92.63737,4,1,0,100,0,0
93294,-91.23475,4,1,0,100,0,0
93610,-68.4931506849315,4,1,0,100,0,0
93926,-88.48433,4,1,0,100,0,0
94242,-87.140366,4,1,0,100,0,0
94558,-85.81682,4,1,0,100,0,0
94873,-84.51747,4,1,0,100,0,0
95189,-83.23376,4,1,0,100,0,0
95505,-81.96955,4,1,0,100,0,0
95821,-80.72454,4,1,0,100,0,0
95979,-80.109146,4,1,0,100,0,0
96137,-59.5238095238095,4,1,0,100,0,0
96452,-78.29476,4,1,0,100,0,0
96768,-77.10556,4,1,0,100,0,0
96926,-76.51775,4,1,0,100,0,0
97084,-75.93444,4,1,0,100,0,0
97242,-75.35556,4,1,0,100,0,0
97400,-74.78109,4,1,0,100,0,0
97715,-73.648834,4,1,0,100,0,0
98031,-72.5302,4,1,0,100,0,0
98189,-71.97727,4,1,0,100,0,0
98347,-55.5555555555556,4,1,0,100,0,0
98664,-62.5,4,1,0,100,0,0
98979,-66.666664,4,1,0,100,0,0
99137,-68.41408,4,1,0,100,0,0
99215,-69.293526,4,1,0,100,0,0
99294,-70.19579,4,1,0,100,0,0
99452,-72.035706,4,1,0,100,0,0
99505,-72.663635,4,1,0,100,0,0
99558,-73.297035,4,1,0,100,0,0
99610,-73.923836,4,1,0,100,0,0
99689,-74.88639,4,1,0,100,0,0
99768,-75.86147,4,1,0,100,0,0
99926,-77.849884,4,1,0,100,0,0
100031,-79.20005,4,1,0,100,0,0
100084,-79.890434,4,1,0,100,0,0
100137,-80.58682,4,1,0,100,0,0
100242,-81.98445,4,1,0,100,0,0
100347,-83.40632,4,1,0,100,0,0
100400,-84.133354,4,1,0,100,0,0
100452,-84.85284,4,1,0,100,0,0
100558,-86.338585,4,1,0,100,0,0
100663,-87.835976,4,1,0,100,0,0
100715,-88.58713,4,1,0,100,0,0
100768,-89.35932,4,1,0,100,0,0
100873,-80,4,1,0,100,0,0
101190,-111.111111111111,4,1,0,100,0,0
110031,-111.1425,4,1,0,100,0,0
110189,-116.21499,4,1,0,100,0,0
110347,-121.51899,4,1,0,100,0,0
110505,-127.06506,4,1,0,100,0,0
110663,-132.86426,4,1,0,100,0,0
110821,-138.92812,4,1,0,100,0,0
110980,-90.9090909090909,4,1,0,100,0,0
111138,-96.1538461538461,4,1,0,100,0,0
111295,-102.040816326531,4,1,0,100,0,0
111453,-105.263157894737,4,1,0,100,0,0
120137,-119.04762,4,1,0,100,0,0
120215,-117.77263,4,1,0,100,0,0
120294,-116.49522,4,1,0,100,0,0
120452,-113.9818,4,1,0,100,0,0
120610,-111.522606,4,1,0,100,0,0
120689,-110.31298,4,1,0,100,0,0
120768,-109.11648,4,1,0,100,0,0
120926,-106.76226,4,1,0,100,0,0
121005,-105.60426,4,1,0,100,0,0
121084,-104.45883,4,1,0,100,0,0
121163,-103.32582,4,1,0,100,0,0
121242,-102.20509,4,1,0,100,0,0
121400,-99.999985,4,1,0,100,0,0
126138,-76.9230769230769,4,1,0,100,0,0
126453,-99.999985,4,1,0,100,0,0
131190,-76.9230769230769,4,1,0,100,0,0
131506,-83.333336,4,1,0,100,0,1
131584,-84.73685,4,1,0,100,0,1
131663,-86.16399,4,1,0,100,0,1
131742,-87.61517,4,1,0,100,0,1
131821,-89.09081,4,1,0,100,0,1
131979,-92.117035,4,1,0,100,0,1
132058,-93.66848,4,1,0,100,0,1
132137,-95.246056,4,1,0,100,0,1
132215,-96.829735,4,1,0,100,0,1
132294,-98.46054,4,1,0,100,0,1
132373,-100.118835,4,1,0,100,0,1
132452,-101.80505,4,1,0,100,0,1
132531,-103.51967,4,1,0,100,0,1
132610,-105.26316,4,1,0,100,0,1
132768,-105.26316,4,1,0,100,0,1
132847,-103.51967,4,1,0,100,0,1
132926,-101.805046,4,1,0,100,0,1
133005,-100.118835,4,1,0,100,0,1
133084,-98.46054,4,1,0,100,0,1
133163,-96.829735,4,1,0,100,0,1
133242,-95.22593,4,1,0,100,0,1
133321,-93.64868,4,1,0,100,0,1
133400,-92.097565,4,1,0,100,0,1
133479,-90.572136,4,1,0,100,0,1
133558,-89.071976,4,1,0,100,0,1
133637,-87.59666,4,1,0,100,0,1
133715,-86.16399,4,1,0,100,0,1
133794,-84.73685,4,1,0,100,0,1
133873,-83.333336,4,1,0,100,0,1
134031,-83.333336,4,1,0,100,0,1
134110,-84.55998,4,1,0,100,0,1
134189,-85.80468,4,1,0,100,0,1
134268,-87.06772,4,1,0,100,0,1
134347,-88.34933,4,1,0,100,0,1
134426,-89.64981,4,1,0,100,0,1
134505,-90.96944,4,1,0,100,0,1
134663,-93.667244,4,1,0,100,0,1
134742,-95.046,4,1,0,100,0,1
134821,-96.44506,4,1,0,100,0,1
134900,-97.864716,4,1,0,100,0,1
134979,-99.30526,4,1,0,100,0,1
135058,-100.76701,4,1,0,100,0,1
135137,-102.25026,4,1,0,100,0,1
135215,-103.73618,4,1,0,100,0,1
135294,-105.26316,4,1,0,100,0,1
135452,-105.26316,4,1,0,100,0,1
135531,-103.23372,4,1,0,100,0,1
135610,-101.243416,4,1,0,100,0,1
135689,-99.29148,4,1,0,100,0,1
135768,-97.37718,4,1,0,100,0,1
135847,-95.499794,4,1,0,100,0,1
135926,-93.658585,4,1,0,100,0,1
136005,-91.852875,4,1,0,100,0,1
136084,-90.08199,4,1,0,100,0,1
136163,-88.345245,4,1,0,100,0,1
136242,-86.64198,4,1,0,100,0,1
136321,-84.97156,4,1,0,100,0,1
136400,-83.333336,4,1,0,100,0,1
136558,-83.333336,4,1,0,100,0,1
136637,-84.55998,4,1,0,100,0,1
136715,-85.78882,4,1,0,100,0,1
136794,-87.051605,4,1,0,100,0,1
136873,-88.332985,4,1,0,100,0,1
136952,-89.633224,4,1,0,100,0,1
137031,-90.952614,4,1,0,100,0,1
137189,-93.64992,4,1,0,100,0,1
137268,-95.02843,4,1,0,100,0,1
137347,-96.42722,4,1,0,100,0,1
137426,-97.84661,4,1,0,100,0,1
137505,-99.28689,4,1,0,100,0,1
137584,-100.74837,4,1,0,100,0,1
137663,-102.23136,4,1,0,100,0,1
137742,-103.73618,4,1,0,100,0,1
137821,-105.26316,4,1,0,100,0,1
137979,-105.26316,4,1,0,100,0,1
138058,-102.829506,4,1,0,100,0,1
138137,-100.452126,4,1,0,100,0,1
138215,-98.15877,4,1,0,100,0,1
138294,-95.88938,4,1,0,100,0,1
138373,-93.67244,4,1,0,100,0,1
138452,-91.506775,4,1,0,100,0,1
138531,-89.391174,4,1,0,100,0,1
138610,-87.32448,4,1,0,100,0,1
138689,-85.30557,4,1,0,100,0,1
138769,-74.0740740740741,4,1,0,100,0,0
139085,-111.111111111111,4,1,0,100,0,0
140348,-50,4,1,0,100,0,0
141295,-71.4285714285714,4,1,0,100,0,0
141610,-100,4,1,0,100,0,0
141689,-100.28365,4,1,0,100,0,0
141768,-100.5681,4,1,0,100,0,0
141847,-100.85335,4,1,0,100,0,0
141926,-101.13943,4,1,0,100,0,0
142084,-101.714005,4,1,0,100,0,0
142163,-102.00251,4,1,0,100,0,0
142242,-102.29184,4,1,0,100,0,0
142321,-102.58198,4,1,0,100,0,0
142400,-102.872955,4,1,0,100,0,0
142558,-103.457375,4,1,0,100,0,0
142637,-103.75083,4,1,0,100,0,0
142715,-104.04139,4,1,0,100,0,0
142873,-104.632454,4,1,0,100,0,0
142952,-104.92924,4,1,0,100,0,0
143031,-105.22686,4,1,0,100,0,0
143110,-105.52534,4,1,0,100,0,0
143189,-105.82467,4,1,0,100,0,0
143347,-106.42584,4,1,0,100,0,0
143426,-106.72772,4,1,0,100,0,0
143505,-107.03045,4,1,0,100,0,0
143584,-107.33404,4,1,0,100,0,0
143663,-107.63849,4,1,0,100,0,0
143821,-108.249985,4,1,0,100,0,0
143979,-108.86496,4,1,0,100,0,0
144058,-109.173744,4,1,0,100,0,0
144137,-109.48341,4,1,0,100,0,0
144294,-110.10144,4,1,0,100,0,0
144373,-110.413734,4,1,0,100,0,0
144531,-111.04099,4,1,0,100,0,0
144610,-111.355965,4,1,0,100,0,0
144689,-111.67182,4,1,0,100,0,0
144768,-111.98858,4,1,0,100,0,0
144847,-112.30624,4,1,0,100,0,0
145005,-112.944244,4,1,0,100,0,0
145084,-113.26461,4,1,0,100,0,0
145163,-113.58588,4,1,0,100,0,0
145242,-113.90806,4,1,0,100,0,0
145400,-114.55518,4,1,0,100,0,0
145558,-115.20597,4,1,0,100,0,0
145637,-115.53274,4,1,0,100,0,0
145715,-115.85629,4,1,0,100,0,0
145794,-116.18492,4,1,0,100,0,0
145873,-116.51447,4,1,0,100,0,0
146031,-117.1764,4,1,0,100,0,0
146110,-117.50875,4,1,0,100,0,0
146189,-117.842064,4,1,0,100,0,0
146268,-118.17632,4,1,0,100,0,0
146347,-118.51152,4,1,0,100,0,0
146505,-119.18478,4,1,0,100,0,0
146584,-119.52286,4,1,0,100,0,0
146663,-119.86188,4,1,0,100,0,0
146821,-120.54282,4,1,0,100,0,0
146900,-120.884735,4,1,0,100,0,0
146979,-121.227615,4,1,0,100,0,0
147058,-121.57148,4,1,0,100,0,0
147137,-121.91631,4,1,0,100,0,0
147294,-122.60452,4,1,0,100,0,0
147373,-122.952286,4,1,0,100,0,0
147452,-123.30104,4,1,0,100,0,0
147531,-123.65078,4,1,0,100,0,0
147610,-124.00151,4,1,0,100,0,0
147768,-124.70596,4,1,0,100,0,0
147847,-125.0597,4,1,0,100,0,0
147926,-125.41442,4,1,0,100,0,0
148084,-126.12689,4,1,0,100,0,0
148163,-126.48465,4,1,0,100,0,0
148242,-126.84343,4,1,0,100,0,0
148321,-127.20322,4,1,0,100,0,0
148400,-127.56401,4,1,0,100,0,0
148558,-128.28871,4,1,0,100,0,0
148637,-128.6526,4,1,0,100,0,0
148715,-129.0129,4,1,0,100,0,0
148794,-129.37883,4,1,0,100,0,0
148873,-129.74582,4,1,0,100,0,0
149031,-130.4829,4,1,0,100,0,0
149110,-130.85301,4,1,0,100,0,0
149189,-131.22418,4,1,0,100,0,0
149347,-131.96965,4,1,0,100,0,0
149426,-132.344,4,1,0,100,0,0
149584,-133.09584,4,1,0,100,0,0
149663,-133.47336,4,1,0,100,0,0
149821,-134.23161,4,1,0,100,0,0
149900,-134.61235,4,1,0,100,0,0
149979,-134.99419,4,1,0,100,0,0
150137,-135.76108,4,1,0,100,0,0
150294,-136.52745,4,1,0,100,0,0
150373,-136.9147,4,1,0,100,0,0
150452,-137.30305,4,1,0,100,0,0
150610,-138.08308,4,1,0,100,0,0
150689,-138.47475,4,1,0,100,0,0
150847,-139.26143,4,1,0,100,0,0
150926,-139.65645,4,1,0,100,0,0
151084,-140.44983,4,1,0,100,0,0
151163,-140.8482,4,1,0,100,0,0
151321,-141.64835,4,1,0,100,0,0
151400,-142.05014,4,1,0,100,0,0
151558,-142.85713,4,1,0,100,0,0
151716,-117.647058823529,4,1,0,100,0,0
151873,-128.20511,4,1,0,100,0,0
151952,-127.75318,4,1,0,100,0,0
152031,-127.30283,4,1,0,100,0,0
152110,-126.85408,4,1,0,100,0,0
152189,-126.406906,4,1,0,100,0,0
152426,-125.07482,4,1,0,100,0,0
152505,-124.63392,4,1,0,100,0,0
152584,-124.194565,4,1,0,100,0,0
152663,-123.756775,4,1,0,100,0,0
152742,-123.320526,4,1,0,100,0,0
152900,-122.45261,4,1,0,100,0,0
152979,-122.02096,4,1,0,100,0,0
153137,-121.16219,4,1,0,100,0,0
153215,-120.74049,4,1,0,100,0,0
153294,-120.31485,4,1,0,100,0,0
153373,-119.89074,4,1,0,100,0,0
153452,-119.46811,4,1,0,100,0,0
153768,-117.79245,4,1,0,100,0,0
153926,-116.96344,4,1,0,100,0,0
154084,-116.14028,4,1,0,100,0,0
154163,-115.73087,4,1,0,100,0,0
154242,-115.32291,4,1,0,100,0,0
154558,-113.70539,4,1,0,100,0,0
154637,-113.304565,4,1,0,100,0,0
154715,-112.9102,4,1,0,100,0,0
154952,-111.720345,4,1,0,100,0,0
155031,-111.32652,4,1,0,100,0,0
155110,-110.93408,4,1,0,100,0,0
155189,-110.54302,4,1,0,100,0,0
155268,-110.15334,4,1,0,100,0,0
155426,-109.378105,4,1,0,100,0,0
155505,-108.992546,4,1,0,100,0,0
155663,-108.22548,4,1,0,100,0,0
155742,-107.84397,4,1,0,100,0,0
155821,-107.463806,4,1,0,100,0,0
155900,-107.08499,4,1,0,100,0,0
155979,-106.707504,4,1,0,100,0,0
156294,-105.215515,4,1,0,100,0,0
156452,-104.47503,4,1,0,100,0,0
156610,-103.73976,4,1,0,100,0,0
156689,-103.37407,4,1,0,100,0,0
156768,-103.009674,4,1,0,100,0,0
157005,-101.92414,4,1,0,100,0,0
157084,-101.56485,4,1,0,100,0,0
157242,-100.85005,4,1,0,100,0,0
157321,-100.49455,4,1,0,100,0,0
157400,-100.14028,4,1,0,100,0,0
157479,-99.78729,4,1,0,100,0,0
157637,-99.08501,4,1,0,100,0,0
157715,-98.74013,4,1,0,100,0,0
157873,-98.04522,4,1,0,100,0,0
157952,-97.6996,4,1,0,100,0,0
158031,-97.3552,4,1,0,100,0,0
158268,-96.32927,4,1,0,100,0,0
158347,-95.9897,4,1,0,100,0,0
158505,-95.31413,4,1,0,100,0,0
158584,-94.97815,4,1,0,100,0,0
158663,-94.64333,4,1,0,100,0,0
158742,-94.30971,4,1,0,100,0,0
158900,-93.64597,4,1,0,100,0,0
158979,-93.315865,4,1,0,100,0,0
159137,-92.65913,4,1,0,100,0,0
159294,-92.01112,4,1,0,100,0,0
159373,-91.68678,4,1,0,100,0,0
159452,-91.36358,4,1,0,100,0,0
159531,-91.041504,4,1,0,100,0,0
159610,-90.720566,4,1,0,100,0,0
159689,-90.40077,4,1,0,100,0,0
159768,-90.08211,4,1,0,100,0,0
159847,-89.76456,4,1,0,100,0,0
159926,-89.44813,4,1,0,100,0,0
160005,-89.13281,4,1,0,100,0,0
160084,-88.81861,4,1,0,100,0,0
160163,-88.505516,4,1,0,100,0,0
160242,-88.19352,4,1,0,100,0,0
160321,-87.88263,4,1,0,100,0,0
160400,-87.57284,4,1,0,100,0,0
160479,-87.26413,4,1,0,100,0,0
160558,-76.94489,4,1,0,100,0,0
160637,-78.68823,4,1,0,100,0,0
160715,-80.44824,4,1,0,100,0,0
160794,-82.270966,4,1,0,100,0,0
160873,-84.13498,4,1,0,100,0,0
160952,-86.041214,4,1,0,100,0,0
161031,-87.990654,4,1,0,100,0,0
161110,-89.98425,4,1,0,100,0,0
161189,-92.023026,4,1,0,100,0,0
161268,-94.10799,4,1,0,100,0,0
161347,-96.24018,4,1,0,100,0,0
161426,-98.4207,4,1,0,100,0,0
161505,-100.650604,4,1,0,100,0,0
161558,-102.17488,4,1,0,100,0,0
161610,-103.69282,4,1,0,100,0,0
161663,-105.26316,4,1,0,100,0,0
161822,-83.3333333333333,4,1,0,100,0,1
161979,-90.90909,4,1,0,100,0,1
162058,-91.541145,4,1,0,100,0,1
162137,-92.177605,4,1,0,100,0,1
162294,-93.45563,4,1,0,100,0,1
162373,-94.1054,4,1,0,100,0,1
162452,-94.759674,4,1,0,100,0,1
162531,-95.41852,4,1,0,100,0,1
162610,-96.081924,4,1,0,100,0,1
162768,-97.42263,4,1,0,100,0,1
162926,-98.782036,4,1,0,100,0,1
163005,-99.46884,4,1,0,100,0,1
163084,-100.16042,4,1,0,100,0,1
163242,-101.55802,4,1,0,100,0,1
163321,-102.26412,4,1,0,100,0,1
163400,-102.975136,4,1,0,100,0,1
163558,-104.41202,4,1,0,100,0,1
163637,-105.13796,4,1,0,100,0,1
163715,-105.859665,4,1,0,100,0,1
163794,-106.59567,4,1,0,100,0,1
163873,-107.33681,4,1,0,100,0,1
163952,-108.083084,4,1,0,100,0,1
164031,-108.83456,4,1,0,100,0,1
164189,-100.02467,4,1,0,100,0,1
164268,-100.7372,4,1,0,100,0,1
164347,-101.45479,4,1,0,100,0,1
164505,-102.90533,4,1,0,100,0,1
164584,-103.63837,4,1,0,100,0,1
164663,-104.37661,4,1,0,100,0,1
164821,-105.86894,4,1,0,100,0,1
164900,-106.62309,4,1,0,100,0,1
164979,-107.38261,4,1,0,100,0,1
165058,-108.14752,4,1,0,100,0,1
165137,-108.9179,4,1,0,100,0,1
165294,-110.465225,4,1,0,100,0,1
165452,-112.04461,4,1,0,100,0,1
165531,-112.84274,4,1,0,100,0,1
165610,-113.64655,4,1,0,100,0,1
165846,-108.30919,4,1,0,100,0,1
165925,-106.589554,4,1,0,100,0,1
166083,-103.23175,4,1,0,100,0,1
166162,-101.59274,4,1,0,100,0,1
166241,-99.97975,4,1,0,100,0,1
166478,-102.018776,4,1,0,100,0,1
166557,-103.775665,4,1,0,100,0,1
166715,-107.380775,4,1,0,100,0,1
166873,-111.09845,4,1,0,100,0,1
167031,-109.118744,4,1,0,100,0,1
167110,-108.14215,4,1,0,100,0,1
167189,-107.17432,4,1,0,100,0,1
167347,-105.26453,4,1,0,100,0,1
167426,-104.322426,4,1,0,100,0,1
167505,-103.38878,4,1,0,100,0,1
167584,-102.463455,4,1,0,100,0,1
167663,-101.54644,4,1,0,100,0,1
167821,-99.73693,4,1,0,100,0,1
167979,-97.95969,4,1,0,100,0,1
168058,-97.082954,4,1,0,100,0,1
168137,-96.21409,4,1,0,100,0,1
168294,-94.51037,4,1,0,100,0,1
168373,-93.66453,4,1,0,100,0,1
168452,-92.82624,4,1,0,100,0,1
168610,-91.17213,4,1,0,100,0,1
168689,-90.35616,4,1,0,100,0,1
168847,-88.74607,4,1,0,100,0,1
168926,-87.95181,4,1,0,100,0,1
169005,-87.16466,4,1,0,100,0,1
169084,-86.38457,4,1,0,100,0,1
169242,-84.84523,4,1,0,100,0,1
169321,-84.085884,4,1,0,100,0,1
169400,-83.333336,4,1,0,100,0,1
169558,-84.289116,4,1,0,100,0,1
169637,-84.77111,4,1,0,100,0,1
169715,-85.24971,4,1,0,100,0,1
169873,-86.22748,4,1,0,100,0,1
169952,-86.72055,4,1,0,100,0,1
170031,-87.216446,4,1,0,100,0,1
170110,-87.71518,4,1,0,100,0,1
170189,-88.21677,4,1,0,100,0,1
170347,-89.22856,4,1,0,100,0,1
170505,-90.25195,4,1,0,100,0,1
170584,-90.76805,4,1,0,100,0,1
170663,-91.2871,4,1,0,100,0,1
170821,-92.33411,4,1,0,100,0,1
170900,-92.86209,4,1,0,100,0,1
170979,-93.393105,4,1,0,100,0,1
171137,-94.46427,4,1,0,100,0,1
171215,-94.9976,4,1,0,100,0,1
171294,-95.540825,4,1,0,100,0,1
171373,-96.08716,4,1,0,100,0,1
171452,-96.63661,4,1,0,100,0,1
171531,-97.189224,4,1,0,100,0,1
171610,-97.74498,4,1,0,100,0,1
171768,-98.86606,4,1,0,100,0,1
171847,-99.43142,4,1,0,100,0,1
171926,-100.00377,4,1,0,100,0,1
172163,-100.90119,4,1,0,100,0,1
172242,-101.2021,4,1,0,100,0,1
172400,-101.80665,4,1,0,100,0,1
172479,-102.11026,4,1,0,100,0,1
172558,-102.414795,4,1,0,100,0,1
172637,-102.72023,4,1,0,100,0,1
172715,-103.0227,4,1,0,100,0,1
172873,-103.638115,4,1,0,100,0,1
173031,-104.25721,4,1,0,100,0,1
173110,-104.56814,4,1,0,100,0,1
173189,-104.88,4,1,0,100,0,1
173347,-105.50651,4,1,0,100,0,1
173426,-105.82117,4,1,0,100,0,1
173505,-106.136765,4,1,0,100,0,1
173663,-106.77078,4,1,0,100,0,1
173742,-107.0892,4,1,0,100,0,1
173821,-107.408585,4,1,0,100,0,1
173900,-107.72892,4,1,0,100,0,1
173979,-108.0502,4,1,0,100,0,1
174137,-108.69565,4,1,0,100,0,1
174294,-100,4,1,0,100,0,1
174373,-100.842026,4,1,0,100,0,1
174452,-101.69113,4,1,0,100,0,1
174610,-103.41086,4,1,0,100,0,1
174689,-104.28159,4,1,0,100,0,1
174768,-105.15967,4,1,0,100,0,1
174926,-106.93805,4,1,0,100,0,1
175005,-107.83849,4,1,0,100,0,1
175084,-108.74651,4,1,0,100,0,1
175163,-109.66218,4,1,0,100,0,1
175242,-110.58555,4,1,0,100,0,1
175400,-112.45569,4,1,0,100,0,1
175479,-113.402596,4,1,0,100,0,1
175558,-114.35746,4,1,0,100,0,1
175637,-115.32037,4,1,0,100,0,1
175715,-116.25136,4,1,0,100,0,1
175951,-109.89483,4,1,0,100,0,1
176030,-107.84562,4,1,0,100,0,1
176188,-103.861115,4,1,0,100,0,1
176267,-101.92441,4,1,0,100,0,1
176346,-100.02383,4,1,0,100,0,1
176583,-102.018814,4,1,0,100,0,1
176662,-103.77124,4,1,0,100,0,1
176820,-107.3669,4,1,0,100,0,1
176979,-111.10033,4,1,0,100,0,1
177137,-109.41056,4,1,0,100,0,1
177216,-108.57533,4,1,0,100,0,1
177295,-107.74648,4,1,0,100,0,1
177453,-106.10774,4,1,0,100,0,1
177532,-105.29772,4,1,0,100,0,1
177611,-104.49391,4,1,0,100,0,1
177690,-103.69622,4,1,0,100,0,1
177769,-102.904625,4,1,0,100,0,1
177927,-101.3395,4,1,0,100,0,1
178085,-99.798195,4,1,0,100,0,1
178164,-99.036354,4,1,0,100,0,1
178242,-98.28987,4,1,0,100,0,1
178400,-96.79493,4,1,0,100,0,1
178479,-96.05603,4,1,0,100,0,1
178558,-95.322754,4,1,0,100,0,1
178716,-93.87295,4,1,0,100,0,1
178795,-93.156334,4,1,0,100,0,1
178953,-91.739494,4,1,0,100,0,1
179032,-91.03916,4,1,0,100,0,1
179111,-90.34419,4,1,0,100,0,1
179190,-89.654526,4,1,0,100,0,1
179348,-88.29093,4,1,0,100,0,1
179427,-87.61693,4,1,0,100,0,1
179505,-86.96761,4,1,0,100,0,1
179664,-88.750046,4,1,0,100,0,1
179743,-89.64919,4,1,0,100,0,1
179821,-90.545906,4,1,0,100,0,1
179979,-92.389885,4,1,0,100,0,1
180058,-93.32591,4,1,0,100,0,1
180137,-94.271416,4,1,0,100,0,1
180216,-95.22651,4,1,0,100,0,1
180295,-96.19127,4,1,0,100,0,1
180453,-98.15022,4,1,0,100,0,1
180611,-100.14907,4,1,0,100,0,1
180690,-101.16371,4,1,0,100,0,1
180768,-102.17558,4,1,0,100,0,1
180926,-104.25641,4,1,0,100,0,1
181005,-105.31265,4,1,0,100,0,1
181084,-106.379616,4,1,0,100,0,1
181242,-108.54604,4,1,0,100,0,1
181321,-109.64575,4,1,0,100,0,1
181400,-110.7566,4,1,0,100,0,1
181479,-111.87871,4,1,0,100,0,1
181558,-113.01218,4,1,0,100,0,1
181715,-115.29897,4,1,0,100,0,1
181768,-116.08135,4,1,0,100,0,1
181821,-116.86904,4,1,0,100,0,1
181873,-117.64706,4,1,0,100,0,1
182031,-100,4,1,0,100,0,1
182268,-100.80742,4,1,0,100,0,1
182347,-101.07802,4,1,0,100,0,1
182505,-101.621376,4,1,0,100,0,1
182584,-101.89415,4,1,0,100,0,1
182663,-102.167656,4,1,0,100,0,1
182742,-102.441895,4,1,0,100,0,1
182820,-102.71337,4,1,0,100,0,1
182978,-103.265526,4,1,0,100,0,1
183136,-103.82065,4,1,0,100,0,1
183215,-104.09932,4,1,0,100,0,1
183294,-104.378746,4,1,0,100,0,1
183452,-104.93985,4,1,0,100,0,1
183531,-105.22153,4,1,0,100,0,1
183610,-105.50396,4,1,0,100,0,1
183768,-106.07111,4,1,0,100,0,1
183847,-106.355835,4,1,0,100,0,1
183926,-106.64132,4,1,0,100,0,1
184005,-106.92757,4,1,0,100,0,1
184084,-107.21458,4,1,0,100,0,1
184242,-107.790924,4,1,0,100,0,1
184399,-108.36669,4,1,0,100,0,1
184478,-108.65758,4,1,0,100,0,1
184557,-108.94923,4,1,0,100,0,1
184715,-109.5349,4,1,0,100,0,1
184794,-109.82892,4,1,0,100,0,1
184873,-110.123726,4,1,0,100,0,1
185031,-110.71569,4,1,0,100,0,1
185110,-111.012886,4,1,0,100,0,1
185189,-111.31086,4,1,0,100,0,1
185268,-111.60965,4,1,0,100,0,1
185347,-111.90923,4,1,0,100,0,1
185505,-112.51082,4,1,0,100,0,1
185584,-112.81281,4,1,0,100,0,1
185663,-113.11563,4,1,0,100,0,1
185742,-113.41926,4,1,0,100,0,1
185802,-113.64655,4,1,0,100,0,1
186038,-108.30919,4,1,0,100,0,1
186117,-106.589554,4,1,0,100,0,1
186275,-103.23175,4,1,0,100,0,1
186354,-101.59274,4,1,0,100,0,1
186433,-99.97975,4,1,0,100,0,1
186670,-102.018776,4,1,0,100,0,1
186749,-103.775665,4,1,0,100,0,1
186907,-107.380775,4,1,0,100,0,1
187065,-111.09845,4,1,0,100,0,1
187084,-110.88482,4,1,0,100,0,1
187242,-109.21159,4,1,0,100,0,1
187321,-108.38449,4,1,0,100,0,1
187400,-107.56362,4,1,0,100,0,1
187558,-105.94051,4,1,0,100,0,1
187637,-105.13817,4,1,0,100,0,1
187716,-104.34189,4,1,0,100,0,1
187795,-103.55167,4,1,0,100,0,1
187874,-102.76741,4,1,0,100,0,1
188032,-101.21667,4,1,0,100,0,1
188190,-99.68933,4,1,0,100,0,1
188269,-98.934326,4,1,0,100,0,1
188347,-98.19449,4,1,0,100,0,1
188505,-96.71277,4,1,0,100,0,1
188584,-95.9803,4,1,0,100,0,1
188663,-95.25339,4,1,0,100,0,1
188821,-93.81604,4,1,0,100,0,1
188900,-93.10551,4,1,0,100,0,1
189058,-91.700584,4,1,0,100,0,1
189137,-91.006065,4,1,0,100,0,1
189216,-90.31684,4,1,0,100,0,1
189295,-89.63281,4,1,0,100,0,1
189453,-88.28027,4,1,0,100,0,1
189532,-87.61168,4,1,0,100,0,1
189610,-86.96572,4,1,0,100,0,1
189769,-88.44179,4,1,0,100,0,1
189848,-89.18446,4,1,0,100,0,1
189926,-89.923874,4,1,0,100,0,1
190084,-91.44046,4,1,0,100,0,1
190163,-92.20832,4,1,0,100,0,1
190242,-92.982635,4,1,0,100,0,1
190321,-93.76345,4,1,0,100,0,1
190400,-94.55083,4,1,0,100,0,1
190558,-96.145454,4,1,0,100,0,1
190715,-97.75663,4,1,0,100,0,1
190794,-98.577545,4,1,0,100,0,1
190873,-99.40534,4,1,0,100,0,1
191031,-101.08185,4,1,0,100,0,1
191110,-101.930664,4,1,0,100,0,1
191188,-102.77574,4,1,0,100,0,1
191346,-104.50909,4,1,0,100,0,1
191425,-105.3867,4,1,0,100,0,1
191504,-106.27167,4,1,0,100,0,1
191583,-107.16408,4,1,0,100,0,1
191662,-108.06398,4,1,0,100,0,1
191820,-109.88651,4,1,0,100,0,1
191978,-111.73979,4,1,0,100,0,1
192057,-112.67812,4,1,0,100,0,1
192138,-86.9565217391304,4,1,0,100,0,0
192373,-100,4,1,0,100,0,0
192452,-100.67875,4,1,0,100,0,0
192610,-102.05008,4,1,0,100,0,0
192689,-102.74275,4,1,0,100,0,0
192768,-103.44011,4,1,0,100,0,0
192847,-104.1422,4,1,0,100,0,0
192926,-104.84906,4,1,0,100,0,0
193084,-106.277214,4,1,0,100,0,0
193242,-107.72481,4,1,0,100,0,0
193321,-108.45599,4,1,0,100,0,0
193400,-109.19212,4,1,0,100,0,0
193558,-110.67943,4,1,0,100,0,0
193637,-111.43066,4,1,0,100,0,0
193715,-112.17738,4,1,0,100,0,0
193873,-113.705345,4,1,0,100,0,0
193952,-114.47712,4,1,0,100,0,0
194031,-115.25412,4,1,0,100,0,0
194110,-116.036415,4,1,0,100,0,0
194189,-116.824,4,1,0,100,0,0
194347,-118.41527,4,1,0,100,0,0
194505,-120.02819,4,1,0,100,0,0
194584,-120.842865,4,1,0,100,0,0
194663,-121.66309,4,1,0,100,0,0
194742,-122.48887,4,1,0,100,0,0
194821,-123.32025,4,1,0,100,0,0
194900,-124.15728,4,1,0,100,0,0
194979,-124.989296,4,1,0,100,0,0
195137,-123.3103,4,1,0,100,0,0
195215,-122.489784,4,1,0,100,0,0
195294,-121.66429,4,1,0,100,0,0
195373,-120.844376,4,1,0,100,0,0
195452,-120.029976,4,1,0,100,0,0
195610,-118.41761,4,1,0,100,0,0
195768,-116.82691,4,1,0,100,0,0
195847,-116.03957,4,1,0,100,0,0
195926,-115.25757,4,1,0,100,0,0
196084,-113.709305,4,1,0,100,0,0
196163,-112.943,4,1,0,100,0,0
196242,-112.18185,4,1,0,100,0,0
196400,-110.67492,4,1,0,100,0,0
196479,-109.92905,4,1,0,100,0,0
196558,-109.18821,4,1,0,100,0,0
196637,-108.45238,4,1,0,100,0,0
196715,-107.730705,4,1,0,100,0,0
196873,-106.283554,4,1,0,100,0,0
196952,-105.56729,4,1,0,100,0,0
197031,-104.85584,4,1,0,100,0,0
197189,-103.44731,4,1,0,100,0,0
197347,-102.0577,4,1,0,100,0,0
197426,-101.36991,4,1,0,100,0,0
197505,-100.68676,4,1,0,100,0,0
197663,-99.33422,4,1,0,100,0,0
197742,-98.664795,4,1,0,100,0,0
197821,-97.99988,4,1,0,100,0,0
197900,-97.33943,4,1,0,100,0,0
197979,-96.68344,4,1,0,100,0,0
198137,-95.38468,4,1,0,100,0,0
198294,-94.111435,4,1,0,100,0,0
198373,-93.477196,4,1,0,100,0,0
198452,-92.847244,4,1,0,100,0,0
198610,-91.60002,4,1,0,100,0,0
198689,-90.9827,4,1,0,100,0,0
198768,-90.36955,4,1,0,100,0,0
198926,-89.155624,4,1,0,100,0,0
199005,-88.55479,4,1,0,100,0,0
199084,-87.95799,4,1,0,100,0,0
199163,-87.36523,4,1,0,100,0,0
199242,-86.77644,4,1,0,100,0,0
199321,-86.191635,4,1,0,100,0,0
199400,-85.61077,4,1,0,100,0,0
199479,-85.03382,4,1,0,100,0,0
199558,-84.46077,4,1,0,100,0,0
199637,-83.89156,4,1,0,100,0,0
199715,-71.4285714285714,4,1,0,100,0,0
199873,-84.46221,4,1,0,100,0,0
200031,-85.59915,4,1,0,100,0,0
200189,-80,4,1,0,100,0,0
200346,-87.91169,4,1,0,100,0,0
200426,-88.50889,4,1,0,100,0,0
200504,-81.9672131147541,4,1,0,100,0,0
200662,-90.29436,4,1,0,100,0,0
200820,-91.509796,4,1,0,100,0,0
200960,-78.125,4,1,0,100,0,0
201065,-79.20005,4,1,0,100,0,0
201118,-79.890434,4,1,0,100,0,0
201171,-80.58682,4,1,0,100,0,0
201276,-81.98445,4,1,0,100,0,0
201381,-83.40632,4,1,0,100,0,0
201434,-84.133354,4,1,0,100,0,0
201486,-84.85284,4,1,0,100,0,0
201592,-86.338585,4,1,0,100,0,0
201697,-87.835976,4,1,0,100,0,0
201749,-88.58713,4,1,0,100,0,0
201802,-89.35932,4,1,0,100,0,0
201907,-80,4,1,0,100,0,0
202223,-111.111111111111,4,1,0,100,0,0
211064,-111.1425,4,1,0,100,0,0
211222,-116.21499,4,1,0,100,0,0
211380,-121.51899,4,1,0,100,0,0
211538,-127.06506,4,1,0,100,0,0
211696,-132.86426,4,1,0,100,0,0
211854,-138.92812,4,1,0,100,0,0
212013,-90.9090909090909,4,1,0,100,0,0
212171,-96.1538461538461,4,1,0,100,0,0
212328,-102.040816326531,4,1,0,100,0,0
212486,-105.263157894737,4,1,0,100,0,0
220873,-105.26316,4,1,0,100,0,0
220952,-104.28692,4,1,0,100,0,0
221031,-103.31973,4,1,0,100,0,0
221110,-102.36153,4,1,0,100,0,0
221189,-101.41221,4,1,0,100,0,0
221268,-100.47167,4,1,0,100,0,0
221347,-99.53987,4,1,0,100,0,0
221505,-97.70212,4,1,0,100,0,0
221584,-96.79601,4,1,0,100,0,0
221663,-95.89829,4,1,0,100,0,0
221742,-95.00892,4,1,0,100,0,0
221821,-94.12778,4,1,0,100,0,0
221900,-93.254814,4,1,0,100,0,0
221979,-92.389946,4,1,0,100,0,0
222058,-91.5331,4,1,0,100,0,0
222117,-90.9090909090909,4,1,0,100,0,0
222433,-99.999985,4,1,0,100,0,0
227190,-76.9230769230769,4,1,0,100,0,0
227505,-99.999985,4,1,0,100,0,0
232223,-76.9230769230769,4,1,0,100,0,0
232559,-83.3333333333333,4,1,0,100,0,1
232617,-84.73685,4,1,0,100,0,1
232696,-86.16399,4,1,0,100,0,1
232775,-87.61517,4,1,0,100,0,1
232854,-89.09081,4,1,0,100,0,1
233012,-92.117035,4,1,0,100,0,1
233091,-93.66848,4,1,0,100,0,1
233170,-95.246056,4,1,0,100,0,1
233248,-96.829735,4,1,0,100,0,1
233327,-98.46054,4,1,0,100,0,1
233406,-100.118835,4,1,0,100,0,1
233485,-101.80505,4,1,0,100,0,1
233564,-103.51967,4,1,0,100,0,1
233643,-105.26316,4,1,0,100,0,1
233801,-105.26316,4,1,0,100,0,1
233880,-103.51967,4,1,0,100,0,1
233959,-101.805046,4,1,0,100,0,1
234038,-100.118835,4,1,0,100,0,1
234117,-98.46054,4,1,0,100,0,1
234196,-96.829735,4,1,0,100,0,1
234275,-95.22593,4,1,0,100,0,1
234354,-93.64868,4,1,0,100,0,1
234433,-92.097565,4,1,0,100,0,1
234512,-90.572136,4,1,0,100,0,1
234591,-89.071976,4,1,0,100,0,1
234670,-87.59666,4,1,0,100,0,1
234748,-86.16399,4,1,0,100,0,1
234827,-84.73685,4,1,0,100,0,1
234906,-83.333336,4,1,0,100,0,1
235064,-83.333336,4,1,0,100,0,1
235143,-84.55998,4,1,0,100,0,1
235222,-85.80468,4,1,0,100,0,1
235301,-87.06772,4,1,0,100,0,1
235380,-88.34933,4,1,0,100,0,1
235459,-89.64981,4,1,0,100,0,1
235538,-90.96944,4,1,0,100,0,1
235696,-93.667244,4,1,0,100,0,1
235775,-95.046,4,1,0,100,0,1
235854,-96.44506,4,1,0,100,0,1
235933,-97.864716,4,1,0,100,0,1
236012,-99.30526,4,1,0,100,0,1
236091,-100.76701,4,1,0,100,0,1
236170,-102.25026,4,1,0,100,0,1
236248,-103.73618,4,1,0,100,0,1
236327,-105.26316,4,1,0,100,0,1
236485,-105.26316,4,1,0,100,0,1
236564,-103.23372,4,1,0,100,0,1
236643,-101.243416,4,1,0,100,0,1
236722,-99.29148,4,1,0,100,0,1
236801,-97.37718,4,1,0,100,0,1
236880,-95.499794,4,1,0,100,0,1
236959,-93.658585,4,1,0,100,0,1
237038,-91.852875,4,1,0,100,0,1
237117,-90.08199,4,1,0,100,0,1
237196,-88.345245,4,1,0,100,0,1
237275,-86.64198,4,1,0,100,0,1
237354,-84.97156,4,1,0,100,0,1
237433,-83.333336,4,1,0,100,0,1
237591,-83.333336,4,1,0,100,0,1
237670,-84.55998,4,1,0,100,0,1
237748,-85.78882,4,1,0,100,0,1
237827,-87.051605,4,1,0,100,0,1
237906,-88.332985,4,1,0,100,0,1
237985,-89.633224,4,1,0,100,0,1
238064,-90.952614,4,1,0,100,0,1
238222,-93.64992,4,1,0,100,0,1
238301,-95.02843,4,1,0,100,0,1
238380,-96.42722,4,1,0,100,0,1
238459,-97.84661,4,1,0,100,0,1
238538,-99.28689,4,1,0,100,0,1
238617,-100.74837,4,1,0,100,0,1
238696,-102.23136,4,1,0,100,0,1
238775,-103.73618,4,1,0,100,0,1
238854,-105.26316,4,1,0,100,0,1
239012,-105.26316,4,1,0,100,0,1
239032,-104.72577,4,1,0,100,0,1
239111,-102.72862,4,1,0,100,0,1
239190,-100.769554,4,1,0,100,0,1
239268,-98.871956,4,1,0,100,0,1
239347,-96.986435,4,1,0,100,0,1
239426,-95.13687,4,1,0,100,0,1
239505,-93.322586,4,1,0,100,0,1
239584,-91.5429,4,1,0,100,0,1
239663,-89.79716,4,1,0,100,0,1
239742,-88.0847,4,1,0,100,0,1
239821,-86.40491,4,1,0,100,0,1
239873,-85.316734,4,1,0,100,0,1
239926,-84.221725,4,1,0,100,0,1
239979,-83.1408,4,1,0,100,0,1
240031,-82.093735,4,1,0,100,0,1
240084,-81.0401,4,1,0,100,0,1
240138,-79.99999,4,1,0,100,0,0
240294,-81.63084,4,1,0,100,0,0
240452,-71.4285714285714,4,1,0,100,0,0
240610,-85.0148,4,1,0,100,0,0
240768,-86.75905,4,1,0,100,0,0
240926,-75.187969924812,4,1,0,100,0,0
241084,-90.3556,4,1,0,100,0,0
241242,-92.20941,4,1,0,100,0,0
241400,-79.3650793650794,4,1,0,100,0,0
241558,-96.0319,4,1,0,100,0,0
241715,-97.98957,4,1,0,100,0,0
241873,-83.3333333333333,4,1,0,100,0,0
242031,-79.99999,4,1,0,100,0,0
242110,-80.470985,4,1,0,100,0,0
242189,-80.94475,4,1,0,100,0,0
242268,-81.42131,4,1,0,100,0,0
242347,-81.90066,4,1,0,100,0,0
242426,-82.38285,4,1,0,100,0,0
242505,-82.86787,4,1,0,100,0,0
242584,-83.35574,4,1,0,100,0,0
242663,-83.84649,4,1,0,100,0,0
242821,-84.83667,4,1,0,100,0,0
242979,-85.83854,4,1,0,100,0,0
243137,-86.85224,4,1,0,100,0,0
243215,-87.35709,4,1,0,100,0,0
243294,-87.87139,4,1,0,100,0,0
243373,-88.388725,4,1,0,100,0,0
243452,-88.909096,4,1,0,100,0,0
243610,-89.959076,4,1,0,100,0,0
243689,-90.48869,4,1,0,100,0,0
243768,-91.02143,4,1,0,100,0,0
243847,-91.55731,4,1,0,100,0,0
243926,-92.09635,4,1,0,100,0,0
244084,-93.18396,4,1,0,100,0,0
244163,-93.73257,4,1,0,100,0,0
244242,-94.28441,4,1,0,100,0,0
244400,-95.39784,4,1,0,100,0,0
244479,-95.959496,4,1,0,100,0,0
244558,-96.52444,4,1,0,100,0,0
244637,-97.09273,4,1,0,100,0,0
244715,-97.65709,4,1,0,100,0,0
244873,-98.81037,4,1,0,100,0,0
244952,-99.392105,4,1,0,100,0,0
245031,-99.97726,4,1,0,100,0,0
245110,-100.565865,4,1,0,100,0,0
245189,-101.157936,4,1,0,100,0,0
245347,-102.352554,4,1,0,100,0,0
245426,-102.95515,4,1,0,100,0,0
245505,-103.56127,4,1,0,100,0,0
245663,-104.78429,4,1,0,100,0,0
245742,-105.401184,4,1,0,100,0,0
245821,-106.02173,4,1,0,100,0,0
245900,-106.64591,4,1,0,100,0,0
245979,-107.27377,4,1,0,100,0,0
246137,-108.54062,4,1,0,100,0,0
246215,-109.17153,4,1,0,100,0,0
246294,-109.81426,4,1,0,100,0,0
246347,-110.24759,4,1,0,100,0,0
246400,-110.68262,4,1,0,100,0,0
246452,-111.1294,4,1,0,100,0,0
246610,-114.05921,4,1,0,100,0,0
246768,-117.06627,4,1,0,100,0,0
246926,-120.152596,4,1,0,100,0,0
247084,-123.32029,4,1,0,100,0,0
247242,-126.57151,4,1,0,100,0,0
247400,-129.90843,4,1,0,100,0,0
247558,-133.33333,4,1,0,100,0,0
247716,-100,4,1,0,100,0,1
257348,-96.1538461538461,4,1,0,100,0,1
257427,-93.4579439252336,4,1,0,100,0,1
257506,-90.9090909090909,4,1,0,100,0,1
257585,-88.4955752212389,4,1,0,100,0,1
257664,-86.2068965517241,4,1,0,100,0,1
257743,-84.0336134453781,4,1,0,100,0,1
257822,-76.9230769230769,4,1,0,100,0,1
257980,-90.9090909090909,4,1,0,100,0,1
265400,-90.90909,4,1,0,100,0,1
265558,-84.7457627118644,4,1,0,100,0,1
265637,-86.9565217391304,4,1,0,100,0,1
265715,-89.2857142857143,4,1,0,100,0,1
265794,-91.743119266055,4,1,0,100,0,1
265873,-94.3396226415094,4,1,0,100,0,1
266031,-89.2857142857143,4,1,0,100,0,1
266110,-91.743119266055,4,1,0,100,0,1
266189,-94.3396226415094,4,1,0,100,0,1
266268,-97.0873786407767,4,1,0,100,0,1
266347,-100,4,1,0,100,0,1
266505,-94.3396226415094,4,1,0,100,0,1
266584,-97.0873786407767,4,1,0,100,0,1
266663,-100,4,1,0,100,0,1
266821,-97.0873786407767,4,1,0,100,0,1
266900,-100,4,1,0,100,0,1
266979,-103.092783505155,4,1,0,100,0,1
267137,-100,4,1,0,100,0,1
267215,-103.092783505155,4,1,0,100,0,1
267294,-106.382978723404,4,1,0,100,0,1
267373,-109.89010989011,4,1,0,100,0,1
267452,-113.636363636364,4,1,0,100,0,1
267611,-104.166666666667,4,1,0,100,0,0
267769,-118.343195266272,4,1,0,100,0,0
267848,-116.279069767442,4,1,0,100,0,0
267927,-83.3333333333333,4,1,0,100,0,0
268085,-95.2380952380952,4,1,0,100,0,0
273434,-95.2381,4,1,0,100,0,0
273671,-98.4016,4,1,0,100,0,0
273750,-99.47928,4,1,0,100,0,0
273803,-100.208885,4,1,0,100,0,0
273855,-100.92994,4,1,0,100,0,0
273908,-101.67017,4,1,0,100,0,0
273987,-102.78365,4,1,0,100,0,0
274066,-103.90934,4,1,0,100,0,0
274224,-106.1978,4,1,0,100,0,0
274303,-107.36086,4,1,0,100,0,0
274381,-108.521706,4,1,0,100,0,0
274539,-110.91174,4,1,0,100,0,0
274697,-113.35443,4,1,0,100,0,0
274776,-114.59587,4,1,0,100,0,0
274855,-115.85092,4,1,0,100,0,0
275013,-118.40238,4,1,0,100,0,0
275171,-121.01003,4,1,0,100,0,0
275329,-123.67513,4,1,0,100,0,0
275408,-125.029594,4,1,0,100,0,0
275487,-83.3333333333333,4,1,0,100,0,0
276751,-108.695652173913,4,1,0,100,0,0
276908,-113.63636,4,1,0,100,0,0
276987,-111.19113,4,1,0,100,0,0
277066,-108.79854,4,1,0,100,0,0
277145,-106.457405,4,1,0,100,0,0
277224,-104.16667,4,1,0,100,0,0
277381,-108.66698,4,1,0,100,0,0
277460,-106.42521,4,1,0,100,0,0
277539,-104.2297,4,1,0,100,0,0
277618,-102.079475,4,1,0,100,0,0
277697,-62.5,4,1,0,100,0,0
278014,-55.5555555555556,4,1,0,100,0,0

[HitObjects]
256,192,138,5,8,0:0:0:0:
256,192,453,1,0,0:0:0:0:
256,192,611,1,8,0:0:0:0:
256,192,927,1,0,0:0:0:0:
256,192,1243,1,8,0:0:0:0:
256,192,1716,1,0,0:0:0:0:
256,192,2032,1,8,0:0:0:0:
256,192,2348,1,0,0:0:0:0:
256,192,2664,1,8,0:0:0:0:
256,192,2822,1,0,0:0:0:0:
256,192,2980,1,0,0:0:0:0:
256,192,3138,1,8,0:0:0:0:
256,192,3453,1,0,0:0:0:0:
256,192,3769,1,8,0:0:0:0:
256,192,4085,1,8,0:0:0:0:
256,192,4243,1,0,0:0:0:0:
256,192,4559,1,8,0:0:0:0:
256,192,4874,1,8,0:0:0:0:
256,192,5190,1,8,0:0:0:0:
256,192,5348,1,0,0:0:0:0:
256,192,5506,1,0,0:0:0:0:
256,192,5664,1,8,0:0:0:0:
256,192,5822,1,8,0:0:0:0:
256,192,5980,1,0,0:0:0:0:
256,192,6295,1,8,0:0:0:0:
256,192,6611,1,0,0:0:0:0:
256,192,6769,1,8,0:0:0:0:
256,192,6927,1,8,0:0:0:0:
256,192,7085,1,0,0:0:0:0:
256,192,7401,1,8,0:0:0:0:
256,192,7559,1,0,0:0:0:0:
256,192,7716,1,8,0:0:0:0:
256,192,7874,1,8,0:0:0:0:
256,192,8032,1,0,0:0:0:0:
256,192,8190,1,0,0:0:0:0:
256,192,8348,1,8,0:0:0:0:
256,192,8506,1,8,0:0:0:0:
256,192,8664,1,0,0:0:0:0:
256,192,8822,1,8,0:0:0:0:
256,192,9138,1,8,0:0:0:0:
256,192,9295,1,0,0:0:0:0:
256,192,9453,1,8,0:0:0:0:
256,192,9611,1,8,0:0:0:0:
256,192,9769,1,0,0:0:0:0:
256,192,9927,1,8,0:0:0:0:
256,192,10085,1,0,0:0:0:0:
256,192,10243,1,12,0:0:0:0:
256,192,10401,1,0,0:0:0:0:
256,192,10480,1,8,0:0:0:0:
256,192,10559,1,0,0:0:0:0:
256,192,10638,1,0,0:0:0:0:
256,192,10716,1,8,0:0:0:0:
256,192,10874,1,8,0:0:0:0:
256,192,10953,1,8,0:0:0:0:
256,192,11032,1,0,0:0:0:0:
256,192,11190,1,0,0:0:0:0:
256,192,11269,1,8,0:0:0:0:
256,192,11348,1,8,0:0:0:0:
256,192,11506,1,8,0:0:0:0:
256,192,11585,1,8,0:0:0:0:
256,192,11664,1,0,0:0:0:0:
256,192,11743,1,0,0:0:0:0:
256,192,11822,1,8,0:0:0:0:
256,192,11980,1,8,0:0:0:0:
256,192,12059,1,8,0:0:0:0:
256,192,12138,1,8,0:0:0:0:
256,192,12295,1,0,0:0:0:0:
256,192,12453,1,8,0:0:0:0:
256,192,12532,1,0,0:0:0:0:
256,192,12611,1,8,0:0:0:0:
256,192,12664,1,8,0:0:0:0:
256,192,12716,1,8,0:0:0:0:
256,192,12769,1,0,0:0:0:0:
256,192,12927,1,0,0:0:0:0:
256,192,12980,1,0,0:0:0:0:
256,192,13032,1,0,0:0:0:0:
256,192,13085,1,8,0:0:0:0:
256,192,13243,1,0,0:0:0:0:
256,192,13322,1,0,0:0:0:0:
256,192,13401,1,8,0:0:0:0:
256,192,13559,1,8,0:0:0:0:
256,192,13638,1,8,0:0:0:0:
256,192,13716,1,0,0:0:0:0:
256,192,13795,1,8,0:0:0:0:
256,192,13874,1,8,0:0:0:0:
256,192,14032,1,0,0:0:0:0:
256,192,14111,1,8,0:0:0:0:
256,192,14190,1,0,0:0:0:0:
256,192,14348,1,8,0:0:0:0:
256,192,14506,1,8,0:0:0:0:
256,192,14585,1,0,0:0:0:0:
256,192,14664,1,8,0:0:0:0:
256,192,14822,1,0,0:0:0:0:
256,192,14901,1,0,0:0:0:0:
256,192,14980,1,8,0:0:0:0:
256,192,15059,1,8,0:0:0:0:
256,192,15138,1,8,0:0:0:0:
256,192,15216,1,0,0:0:0:0:
256,192,15295,1,8,0:0:0:0:
256,192,15453,1,0,0:0:0:0:
256,192,15532,1,8,0:0:0:0:
256,192,15611,1,8,0:0:0:0:
256,192,15690,1,0,0:0:0:0:
256,192,15769,1,8,0:0:0:0:
256,192,16006,1,8,0:0:0:0:
256,192,16085,1,0,0:0:0:0:
256,192,16138,1,0,0:0:0:0:
256,192,16190,1,0,0:0:0:0:
256,192,16243,1,8,0:0:0:0:
256,192,16322,1,0,0:0:0:0:
256,192,16401,1,8,0:0:0:0:
256,192,16559,1,8,0:0:0:0:
256,192,16638,1,8,0:0:0:0:
256,192,16716,1,0,0:0:0:0:
256,192,16874,1,8,0:0:0:0:
256,192,17032,1,0,0:0:0:0:
256,192,17111,1,8,0:0:0:0:
256,192,17190,1,0,0:0:0:0:
256,192,17348,1,0,0:0:0:0:
256,192,17506,1,8,0:0:0:0:
256,192,17664,1,0,0:0:0:0:
256,192,17743,1,0,0:0:0:0:
256,192,17822,1,12,0:0:0:0:
257,192,19085,1,8,0:0:0:0:
257,192,19243,1,0,0:0:0:0:
257,192,19322,1,8,0:0:0:0:
257,192,19401,1,0,0:0:0:0:
257,192,19480,1,8,0:0:0:0:
257,192,19559,1,8,0:0:0:0:
257,192,19716,1,8,0:0:0:0:
257,192,19795,1,8,0:0:0:0:
257,192,19874,1,0,0:0:0:0:
257,192,19953,1,0,0:0:0:0:
257,192,20032,1,12,0:0:0:0:
257,192,20348,1,4,0:0:0:0:
256,192,20506,1,0,0:0:0:0:
256,192,20585,1,8,0:0:0:0:
256,192,20664,1,8,0:0:0:0:
256,192,20743,1,0,0:0:0:0:
256,192,20822,1,8,0:0:0:0:
256,192,20980,1,0,0:0:0:0:
257,192,21059,1,8,0:0:0:0:
257,192,21138,1,0,0:0:0:0:
257,192,21216,1,0,0:0:0:0:
257,192,21295,1,8,0:0:0:0:
256,192,21453,1,8,0:0:0:0:
256,192,21532,1,0,0:0:0:0:
256,192,21611,1,8,0:0:0:0:
256,192,21769,1,0,0:0:0:0:
256,192,21848,1,0,0:0:0:0:
257,192,21927,1,8,0:0:0:0:
257,192,22006,1,0,0:0:0:0:
257,192,22085,1,8,0:0:0:0:
256,192,22243,1,8,0:0:0:0:
256,192,22322,1,8,0:0:0:0:
256,192,22401,1,0,0:0:0:0:
256,192,22480,1,0,0:0:0:0:
256,192,22559,1,8,0:0:0:0:
256,192,22716,1,0,0:0:0:0:
256,192,22795,1,0,0:0:0:0:
256,192,22874,1,8,0:0:0:0:
256,192,23032,1,0,0:0:0:0:
256,192,23111,1,8,0:0:0:0:
256,192,23190,1,8,0:0:0:0:
256,192,23269,1,0,0:0:0:0:
256,192,23348,1,8,0:0:0:0:
256,192,23506,1,8,0:0:0:0:
256,192,23585,1,8,0:0:0:0:
256,192,23664,1,0,0:0:0:0:
256,192,23743,1,0,0:0:0:0:
256,192,23822,1,8,0:0:0:0:
256,192,23980,1,8,0:0:0:0:
256,192,24059,1,0,0:0:0:0:
256,192,24138,1,8,0:0:0:0:
256,192,24295,1,0,0:0:0:0:
256,192,24374,1,8,0:0:0:0:
256,192,24453,1,0,0:0:0:0:
256,192,24532,1,0,0:0:0:0:
256,192,24611,1,8,0:0:0:0:
256,192,24769,1,8,0:0:0:0:
256,192,24848,1,8,0:0:0:0:
256,192,24927,1,0,0:0:0:0:
256,192,25006,1,0,0:0:0:0:
256,192,25085,1,8,0:0:0:0:
256,192,25243,1,0,0:0:0:0:
256,192,25401,1,8,0:0:0:0:
256,192,25480,1,0,0:0:0:0:
256,192,25559,1,8,0:0:0:0:
256,192,25638,1,8,0:0:0:0:
256,192,25716,1,0,0:0:0:0:
256,192,25795,1,0,0:0:0:0:
256,192,25874,1,8,0:0:0:0:
256,192,26032,1,0,0:0:0:0:
256,192,26111,1,0,0:0:0:0:
256,192,26190,1,8,0:0:0:0:
256,192,26269,1,0,0:0:0:0:
256,192,26348,1,8,0:0:0:0:
256,192,26506,1,8,0:0:0:0:
256,192,26585,1,8,0:0:0:0:
256,192,26664,1,0,0:0:0:0:
256,192,26743,1,8,0:0:0:0:
256,192,26822,1,0,0:0:0:0:
256,192,26901,1,0,0:0:0:0:
256,192,26980,1,8,0:0:0:0:
256,192,27138,1,8,0:0:0:0:
256,192,27216,1,8,0:0:0:0:
256,192,27295,1,0,0:0:0:0:
256,192,27374,1,8,0:0:0:0:
256,192,27453,1,0,0:0:0:0:
256,192,27532,1,0,0:0:0:0:
256,192,27611,1,8,0:0:0:0:
256,192,27769,1,0,0:0:0:0:
256,192,27927,1,8,0:0:0:0:
256,192,28006,1,0,0:0:0:0:
256,192,28085,1,8,0:0:0:0:
256,192,28164,1,8,0:0:0:0:
256,192,28243,1,0,0:0:0:0:
256,192,28322,1,0,0:0:0:0:
256,192,28401,1,8,0:0:0:0:
256,192,28559,1,8,0:0:0:0:
256,192,28638,1,8,0:0:0:0:
256,192,28716,1,0,0:0:0:0:
256,192,28874,1,12,0:0:0:0:
256,192,29032,1,0,0:0:0:0:
256,192,29111,1,0,0:0:0:0:
307,103,29190,1,12,0:0:0:0:
316,114,29427,1,4,0:0:0:0:
326,94,29664,1,12,0:0:0:0:
256,192,29822,1,4,0:0:0:0:
256,192,30059,1,12,0:0:0:0:
256,192,30295,1,4,0:0:0:0:
256,192,30453,1,4,0:0:0:0:
256,192,30611,1,0,0:0:0:0:
256,192,30690,1,0,0:0:0:0:
256,192,30769,1,8,0:0:0:0:
256,192,30848,1,0,0:0:0:0:
256,192,30927,1,8,0:0:0:0:
256,192,31085,1,8,0:0:0:0:
256,192,31164,1,8,0:0:0:0:
256,192,31243,1,0,0:0:0:0:
256,192,31322,1,0,0:0:0:0:
256,192,31401,1,0,0:0:0:0:
256,192,31559,1,0,0:0:0:0:
256,192,31638,1,0,0:0:0:0:
256,192,31716,1,8,0:0:0:0:
256,192,31795,1,0,0:0:0:0:
256,192,31874,1,8,0:0:0:0:
256,192,31953,1,8,0:0:0:0:
256,192,32032,1,0,0:0:0:0:
256,192,32190,1,0,0:0:0:0:
256,192,32269,1,0,0:0:0:0:
256,192,32348,1,8,0:0:0:0:
256,192,32427,1,8,0:0:0:0:
256,192,32506,1,0,0:0:0:0:
256,192,32664,1,8,0:0:0:0:
256,192,32743,1,0,0:0:0:0:
256,192,32822,1,8,0:0:0:0:
256,192,32901,1,8,0:0:0:0:
256,192,32980,1,0,0:0:0:0:
256,192,33138,1,0,0:0:0:0:
256,192,33216,1,0,0:0:0:0:
256,192,33295,1,8,0:0:0:0:
256,192,33453,1,0,0:0:0:0:
256,192,33532,1,8,0:0:0:0:
256,192,33611,1,8,0:0:0:0:
256,192,33690,1,0,0:0:0:0:
256,192,33769,1,8,0:0:0:0:
256,192,33927,1,8,0:0:0:0:
256,192,34085,1,0,0:0:0:0:
256,192,34164,1,0,0:0:0:0:
256,192,34243,1,8,0:0:0:0:
256,192,34322,1,8,0:0:0:0:
256,192,34480,1,0,0:0:0:0:
256,192,34559,1,8,0:0:0:0:
256,192,34716,1,8,0:0:0:0:
256,192,34795,1,8,0:0:0:0:
256,192,34874,1,0,0:0:0:0:
256,192,34953,1,8,0:0:0:0:
256,192,35032,1,0,0:0:0:0:
256,192,35190,1,8,0:0:0:0:
256,192,35269,1,8,0:0:0:0:
256,192,35348,1,0,0:0:0:0:
256,192,35427,1,0,0:0:0:0:
256,192,35506,1,8,0:0:0:0:
256,192,35585,1,8,0:0:0:0:
256,192,35743,1,0,0:0:0:0:
256,192,35822,1,8,0:0:0:0:
256,192,35980,1,8,0:0:0:0:
256,192,36059,1,8,0:0:0:0:
256,192,36216,1,0,0:0:0:0:
256,192,36295,1,8,0:0:0:0:
256,192,36453,1,8,0:0:0:0:
256,192,36532,1,8,0:0:0:0:
256,192,36611,1,8,0:0:0:0:
256,192,36690,1,0,0:0:0:0:
256,192,36769,1,8,0:0:0:0:
256,192,36927,1,8,0:0:0:0:
256,192,37006,1,8,0:0:0:0:
256,192,37085,1,0,0:0:0:0:
256,192,37164,1,0,0:0:0:0:
256,192,37243,1,8,0:0:0:0:
256,192,37322,1,0,0:0:0:0:
256,192,37480,1,8,0:0:0:0:
256,192,37559,1,8,0:0:0:0:
256,192,37716,1,8,0:0:0:0:
256,192,37769,1,8,0:0:0:0:
256,192,37822,1,8,0:0:0:0:
256,192,37874,1,8,0:0:0:0:
256,192,38032,1,0,0:0:0:0:
256,192,38111,1,0,0:0:0:0:
256,192,38190,1,0,0:0:0:0:
256,192,38269,1,0,0:0:0:0:
256,192,38348,1,8,0:0:0:0:
256,192,38506,1,0,0:0:0:0:
256,192,38585,1,0,0:0:0:0:
256,192,38664,1,0,0:0:0:0:
256,192,38822,1,8,0:0:0:0:
256,192,38980,1,0,0:0:0:0:
256,192,39059,1,0,0:0:0:0:
256,192,39138,1,8,0:0:0:0:
256,192,39216,1,8,0:0:0:0:
256,192,39453,1,0,0:0:0:0:
256,192,39532,1,0,0:0:0:0:
256,192,39611,1,8,0:0:0:0:
256,192,39664,1,8,0:0:0:0:
256,192,39716,1,8,0:0:0:0:
256,192,39769,1,0,0:0:0:0:
256,192,39927,1,8,0:0:0:0:
256,192,40085,1,8,0:0:0:0:
256,192,40243,1,0,0:0:0:0:
256,192,40559,1,4,0:0:0:0:
256,192,40795,1,8,0:0:0:0:
256,192,40874,1,0,0:0:0:0:
256,192,41032,1,8,0:0:0:0:
256,192,41190,1,0,0:0:0:0:
256,192,41269,1,8,0:0:0:0:
256,192,41427,1,8,0:0:0:0:
256,192,41506,1,0,0:0:0:0:
256,192,41664,1,8,0:0:0:0:
256,192,41822,1,0,0:0:0:0:
256,192,42059,1,8,0:0:0:0:
256,192,42138,1,0,0:0:0:0:
256,192,42295,1,0,0:0:0:0:
256,192,42453,1,0,0:0:0:0:
256,192,42532,1,8,0:0:0:0:
256,192,42690,1,8,0:0:0:0:
256,192,42769,1,0,0:0:0:0:
256,192,42927,1,0,0:0:0:0:
256,192,43006,1,8,0:0:0:0:
256,192,43085,1,0,0:0:0:0:
256,192,43243,1,8,0:0:0:0:
256,192,43322,1,8,0:0:0:0:
256,192,43401,1,0,0:0:0:0:
256,192,43559,1,8,0:0:0:0:
256,192,43638,1,8,0:0:0:0:
256,192,43716,1,0,0:0:0:0:
256,192,43795,1,8,0:0:0:0:
256,192,43953,1,8,0:0:0:0:
256,192,44032,1,0,0:0:0:0:
256,192,44190,1,0,0:0:0:0:
256,192,44348,1,8,0:0:0:0:
256,192,44427,1,0,0:0:0:0:
256,192,44506,1,0,0:0:0:0:
256,192,44664,1,8,0:0:0:0:
256,192,44822,1,8,0:0:0:0:
256,192,44901,1,8,0:0:0:0:
256,192,44980,1,0,0:0:0:0:
256,192,45059,1,8,0:0:0:0:
256,192,45138,1,0,0:0:0:0:
256,192,45295,1,0,0:0:0:0:
256,192,45453,1,0,0:0:0:0:
256,192,45532,1,8,0:0:0:0:
256,192,45611,1,0,0:0:0:0:
256,192,45848,1,8,0:0:0:0:
256,192,45927,1,0,0:0:0:0:
256,192,46085,1,8,0:0:0:0:
256,192,46164,1,8,0:0:0:0:
256,192,46243,1,0,0:0:0:0:
256,192,46322,1,8,0:0:0:0:
256,192,46480,1,8,0:0:0:0:
256,192,46559,1,0,0:0:0:0:
256,192,46716,1,0,0:0:0:0:
256,192,46874,1,0,0:0:0:0:
256,192,47111,1,8,0:0:0:0:
256,192,47190,1,0,0:0:0:0:
256,192,47348,1,8,0:0:0:0:
256,192,47427,1,8,0:0:0:0:
256,192,47506,1,0,0:0:0:0:
256,192,47585,1,8,0:0:0:0:
256,192,47743,1,8,0:0:0:0:
256,192,47822,1,0,0:0:0:0:
256,192,47980,1,0,0:0:0:0:
256,192,48138,1,8,0:0:0:0:
256,192,48295,1,0,0:0:0:0:
256,192,48374,1,0,0:0:0:0:
256,192,48453,1,8,0:0:0:0:
256,192,48611,1,0,0:0:0:0:
256,192,48769,1,8,0:0:0:0:
256,192,48848,1,8,0:0:0:0:
256,192,48927,1,0,0:0:0:0:
256,192,49085,1,8,0:0:0:0:
256,192,49243,1,0,0:0:0:0:
256,192,49401,1,8,0:0:0:0:
256,192,49559,1,0,0:0:0:0:
256,192,49638,1,0,0:0:0:0:
256,192,49716,1,8,0:0:0:0:
256,192,49874,1,0,0:0:0:0:
256,192,49953,1,8,0:0:0:0:
256,192,50032,1,0,0:0:0:0:
256,192,50111,1,8,0:0:0:0:
256,192,50190,1,0,0:0:0:0:
256,192,50269,1,0,0:0:0:0:
256,192,50348,1,8,0:0:0:0:
256,192,50427,1,0,0:0:0:0:
256,192,50506,1,8,0:0:0:0:
256,192,50585,1,8,0:0:0:0:
256,192,50664,1,0,0:0:0:0:
256,192,50822,1,0,0:0:0:0:
256,192,50901,1,0,0:0:0:0:
256,192,50980,1,8,0:0:0:0:
256,192,51138,1,8,0:0:0:0:
256,192,51216,1,8,0:0:0:0:
256,192,51295,1,0,0:0:0:0:
256,192,51374,1,8,0:0:0:0:
256,192,51453,1,0,0:0:0:0:
256,192,51611,1,8,0:0:0:0:
256,192,51769,1,0,0:0:0:0:
256,192,51848,1,0,0:0:0:0:
256,192,51927,1,0,0:0:0:0:
256,192,52085,1,8,0:0:0:0:
256,192,52164,1,0,0:0:0:0:
256,192,52243,1,8,0:0:0:0:
256,192,52401,1,8,0:0:0:0:
256,192,52480,1,0,0:0:0:0:
256,192,52559,1,8,0:0:0:0:
256,192,52638,1,8,0:0:0:0:
256,192,52716,1,0,0:0:0:0:
256,192,52874,1,8,0:0:0:0:
256,192,52953,1,0,0:0:0:0:
256,192,53032,1,0,0:0:0:0:
256,192,53111,1,8,0:0:0:0:
256,192,53190,1,0,0:0:0:0:
256,192,53348,1,0,0:0:0:0:
256,192,53427,1,0,0:0:0:0:
256,192,53506,1,8,0:0:0:0:
256,192,53664,1,8,0:0:0:0:
256,192,53743,1,0,0:0:0:0:
256,192,53822,1,0,0:0:0:0:
256,192,53901,1,8,0:0:0:0:
256,192,53980,1,0,0:0:0:0:
256,192,54138,1,8,0:0:0:0:
256,192,54216,1,0,0:0:0:0:
256,192,54295,1,8,0:0:0:0:
256,192,54374,1,8,0:0:0:0:
256,192,54453,1,8,0:0:0:0:
256,192,54611,1,0,0:0:0:0:
256,192,54690,1,0,0:0:0:0:
256,192,54769,1,8,0:0:0:0:
256,192,54927,1,8,0:0:0:0:
256,192,55006,1,8,0:0:0:0:
256,192,55085,1,0,0:0:0:0:
256,192,55164,1,0,0:0:0:0:
256,192,55243,1,8,0:0:0:0:
256,192,55401,1,8,0:0:0:0:
256,192,55480,1,0,0:0:0:0:
256,192,55559,1,8,0:0:0:0:
256,192,55638,1,8,0:0:0:0:
256,192,55716,1,8,0:0:0:0:
256,192,55874,1,0,0:0:0:0:
256,192,55953,1,0,0:0:0:0:
256,192,56032,1,8,0:0:0:0:
256,192,56190,1,0,0:0:0:0:
256,192,56269,1,0,0:0:0:0:
256,192,56348,1,8,0:0:0:0:
256,192,56427,1,8,0:0:0:0:
256,192,56506,1,0,0:0:0:0:
256,192,56664,1,8,0:0:0:0:
256,192,56743,1,0,0:0:0:0:
256,192,56822,1,8,0:0:0:0:
256,192,56901,1,0,0:0:0:0:
256,192,56980,1,8,0:0:0:0:
256,192,57138,1,0,0:0:0:0:
256,192,57216,1,0,0:0:0:0:
256,192,57295,1,8,0:0:0:0:
256,192,57453,1,0,0:0:0:0:
256,192,57532,1,0,0:0:0:0:
256,192,57611,1,8,0:0:0:0:
256,192,57690,1,8,0:0:0:0:
256,192,57769,1,0,0:0:0:0:
256,192,57927,1,8,0:0:0:0:
256,192,58006,1,0,0:0:0:0:
256,192,58085,1,8,0:0:0:0:
256,192,58243,1,8,0:0:0:0:
256,192,58322,1,8,0:0:0:0:
256,192,58401,1,0,0:0:0:0:
256,192,58480,1,0,0:0:0:0:
256,192,58559,1,8,0:0:0:0:
256,192,58638,1,0,0:0:0:0:
256,192,58716,1,8,0:0:0:0:
256,192,58795,1,8,0:0:0:0:
256,192,58874,1,0,0:0:0:0:
256,192,58953,1,8,0:0:0:0:
256,192,59032,1,0,0:0:0:0:
256,192,59111,1,0,0:0:0:0:
256,192,59190,1,8,0:0:0:0:
256,192,59269,1,8,0:0:0:0:
256,192,59348,1,0,0:0:0:0:
256,192,59427,1,0,0:0:0:0:
256,192,59506,1,8,0:0:0:0:
256,192,59585,1,8,0:0:0:0:
256,192,59664,1,8,0:0:0:0:
256,192,59743,1,0,0:0:0:0:
256,192,59822,1,8,0:0:0:0:
256,192,59901,1,8,0:0:0:0:
256,192,59980,1,0,0:0:0:0:
256,192,60059,1,0,0:0:0:0:
256,192,60138,1,12,0:0:0:0:
256,192,60769,1,4,0:0:0:0:
256,192,61006,1,0,0:0:0:0:
256,192,61085,1,8,0:0:0:0:
256,192,61243,1,4,0:0:0:0:
256,192,61401,1,4,0:0:0:0:
256,192,61638,1,0,0:0:0:0:
256,192,61716,1,8,0:0:0:0:
256,192,61874,1,4,0:0:0:0:
256,192,62032,1,4,0:0:0:0:
256,192,62269,1,0,0:0:0:0:
256,192,62348,1,8,0:0:0:0:
256,192,62401,1,8,0:0:0:0:
256,192,62453,1,8,0:0:0:0:
256,192,62506,1,0,0:0:0:0:
256,192,62585,1,0,0:0:0:0:
256,192,62664,1,8,0:0:0:0:
256,192,62743,1,0,0:0:0:0:
256,192,62822,1,8,0:0:0:0:
256,192,62874,1,8,0:0:0:0:
256,192,62927,1,8,0:0:0:0:
256,192,62980,1,0,0:0:0:0:
256,192,63295,1,4,0:0:0:0:
256,192,63532,1,0,0:0:0:0:
256,192,63611,1,8,0:0:0:0:
256,192,63690,1,8,0:0:0:0:
256,192,63769,1,4,0:0:0:0:
256,192,63927,1,4,0:0:0:0:
256,192,64164,1,0,0:0:0:0:
256,192,64243,1,8,0:0:0:0:
256,192,64322,1,8,0:0:0:0:
256,192,64401,1,4,0:0:0:0:
256,192,64559,1,8,0:0:0:0:
256,192,64795,1,0,0:0:0:0:
256,192,64874,1,8,0:0:0:0:
256,192,65032,1,0,0:0:0:0:
256,192,65111,1,0,0:0:0:0:
256,192,65190,1,8,0:0:0:0:
256,192,65427,1,0,0:0:0:0:
256,192,65506,1,8,0:0:0:0:
256,192,65664,1,8,0:0:0:0:
256,192,65822,1,4,0:0:0:0:
256,192,66059,1,0,0:0:0:0:
256,192,66138,1,8,0:0:0:0:
256,192,66296,1,4,0:0:0:0:
256,192,66454,1,4,0:0:0:0:
256,192,66691,1,0,0:0:0:0:
256,192,66769,1,8,0:0:0:0:
256,192,66927,1,4,0:0:0:0:
256,192,67085,1,4,0:0:0:0:
256,192,67322,1,0,0:0:0:0:
256,192,67401,1,8,0:0:0:0:
256,192,67454,1,8,0:0:0:0:
256,192,67506,1,8,0:0:0:0:
256,192,67559,1,0,0:0:0:0:
256,192,67638,1,0,0:0:0:0:
256,192,67717,1,8,0:0:0:0:
256,192,67796,1,0,0:0:0:0:
256,192,67875,1,8,0:0:0:0:
256,192,67927,1,8,0:0:0:0:
256,192,67980,1,8,0:0:0:0:
256,192,68033,1,0,0:0:0:0:
256,192,68348,1,8,0:0:0:0:
256,192,68427,1,0,0:0:0:0:
256,192,68506,1,0,0:0:0:0:
256,192,68585,1,8,0:0:0:0:
256,192,68664,1,0,0:0:0:0:
256,192,68822,1,8,0:0:0:0:
256,192,68901,1,8,0:0:0:0:
256,192,68980,1,0,0:0:0:0:
256,192,69059,1,8,0:0:0:0:
256,192,69138,1,0,0:0:0:0:
256,192,69216,1,0,0:0:0:0:
256,192,69295,1,8,0:0:0:0:
256,192,69374,1,8,0:0:0:0:
256,192,69453,1,0,0:0:0:0:
256,192,69532,1,0,0:0:0:0:
256,192,69611,1,12,0:0:0:0:
256,192,69848,1,0,0:0:0:0:
256,192,69927,1,12,0:0:0:0:
256,192,70085,1,12,0:0:0:0:
256,192,70243,1,4,0:0:0:0:
256,192,70480,1,0,0:0:0:0:
256,192,70559,1,12,0:0:0:0:
256,192,70716,1,4,0:0:0:0:
256,192,70874,1,4,0:0:0:0:
256,192,71111,1,0,0:0:0:0:
256,192,71190,1,8,0:0:0:0:
256,192,71348,1,4,0:0:0:0:
256,192,71506,1,4,0:0:0:0:
256,192,71743,1,0,0:0:0:0:
256,192,71821,1,8,0:0:0:0:
256,192,71979,1,4,0:0:0:0:
256,192,72137,1,4,0:0:0:0:
256,192,72374,1,0,0:0:0:0:
256,192,72453,1,8,0:0:0:0:
256,192,72506,1,8,0:0:0:0:
256,192,72558,1,8,0:0:0:0:
256,192,72611,1,0,0:0:0:0:
256,192,72690,1,0,0:0:0:0:
256,192,72769,1,8,0:0:0:0:
256,192,72848,1,0,0:0:0:0:
256,192,72927,1,8,0:0:0:0:
256,192,72979,1,8,0:0:0:0:
256,192,73032,1,8,0:0:0:0:
256,192,73085,1,0,0:0:0:0:
256,192,73400,1,4,0:0:0:0:
256,192,73637,1,0,0:0:0:0:
256,192,73716,1,8,0:0:0:0:
256,192,73795,1,8,0:0:0:0:
256,192,73874,1,4,0:0:0:0:
256,192,74032,1,4,0:0:0:0:
256,192,74269,1,0,0:0:0:0:
256,192,74348,1,8,0:0:0:0:
256,192,74427,1,8,0:0:0:0:
256,192,74506,1,4,0:0:0:0:
256,192,74664,1,8,0:0:0:0:
256,192,74900,1,0,0:0:0:0:
256,192,74979,1,8,0:0:0:0:
256,192,75137,1,0,0:0:0:0:
256,192,75216,1,0,0:0:0:0:
256,192,75295,1,8,0:0:0:0:
256,192,75532,1,0,0:0:0:0:
256,192,75611,1,8,0:0:0:0:
256,192,75769,1,8,0:0:0:0:
256,192,75927,1,4,0:0:0:0:
256,192,76164,1,0,0:0:0:0:
256,192,76243,1,8,0:0:0:0:
256,192,76401,1,4,0:0:0:0:
256,192,76559,1,4,0:0:0:0:
256,192,76796,1,0,0:0:0:0:
256,192,76874,1,8,0:0:0:0:
256,192,77032,1,4,0:0:0:0:
256,192,77190,1,4,0:0:0:0:
256,192,77427,1,0,0:0:0:0:
256,192,77506,1,8,0:0:0:0:
256,192,77559,1,8,0:0:0:0:
256,192,77611,1,8,0:0:0:0:
256,192,77664,1,0,0:0:0:0:
256,192,77743,1,0,0:0:0:0:
256,192,77822,1,8,0:0:0:0:
256,192,77901,1,0,0:0:0:0:
256,192,77980,1,8,0:0:0:0:
256,192,78032,1,8,0:0:0:0:
256,192,78085,1,8,0:0:0:0:
256,192,78138,1,0,0:0:0:0:
256,192,78453,1,8,0:0:0:0:
256,192,78532,1,0,0:0:0:0:
256,192,78611,1,0,0:0:0:0:
256,192,78690,1,8,0:0:0:0:
256,192,78769,1,0,0:0:0:0:
256,192,78927,1,8,0:0:0:0:
256,192,79006,1,8,0:0:0:0:
256,192,79085,1,0,0:0:0:0:
256,192,79164,1,8,0:0:0:0:
256,192,79243,1,0,0:0:0:0:
256,192,79322,1,0,0:0:0:0:
256,192,79400,1,8,0:0:0:0:
256,192,79479,1,8,0:0:0:0:
256,192,79558,1,0,0:0:0:0:
256,192,79637,1,0,0:0:0:0:
256,192,79716,1,12,0:0:0:0:
256,192,79953,1,0,0:0:0:0:
256,192,80032,1,12,0:0:0:0:
256,192,80190,1,12,0:0:0:0:
256,192,80348,1,4,0:0:0:0:
256,192,80585,1,0,0:0:0:0:
256,192,80664,1,12,0:0:0:0:
256,192,80821,1,4,0:0:0:0:
256,192,80980,1,8,0:0:0:0:
256,192,81138,1,0,0:0:0:0:
256,192,81216,1,0,0:0:0:0:
256,192,81295,1,8,0:0:0:0:
256,192,81453,1,8,0:0:0:0:
256,192,81532,1,0,0:0:0:0:
256,192,81611,1,8,0:0:0:0:
256,192,81690,1,8,0:0:0:0:
256,192,81769,1,0,0:0:0:0:
256,192,81927,1,8,0:0:0:0:
256,192,82085,1,8,0:0:0:0:
256,192,82164,1,8,0:0:0:0:
256,192,82243,1,0,0:0:0:0:
256,192,82401,1,0,0:0:0:0:
256,192,82559,1,8,0:0:0:0:
256,192,82638,1,8,0:0:0:0:
256,192,82716,1,0,0:0:0:0:
256,192,82874,1,8,0:0:0:0:
256,192,83032,1,0,0:0:0:0:
256,192,83111,1,0,0:0:0:0:
256,192,83190,1,8,0:0:0:0:
256,192,83348,1,0,0:0:0:0:
256,192,83506,1,0,0:0:0:0:
256,192,83664,1,0,0:0:0:0:
256,192,83743,1,0,0:0:0:0:
256,192,83822,1,8,0:0:0:0:
256,192,83980,1,8,0:0:0:0:
256,192,84059,1,0,0:0:0:0:
256,192,84138,1,8,0:0:0:0:
256,192,84216,1,8,0:0:0:0:
256,192,84295,1,0,0:0:0:0:
256,192,84453,1,8,0:0:0:0:
256,192,84611,1,8,0:0:0:0:
256,192,84690,1,8,0:0:0:0:
256,192,84769,1,8,0:0:0:0:
256,192,84927,1,0,0:0:0:0:
256,192,85085,1,8,0:0:0:0:
256,192,85164,1,8,0:0:0:0:
256,192,85243,1,0,0:0:0:0:
256,192,85401,1,0,0:0:0:0:
256,192,85559,1,8,0:0:0:0:
256,192,85638,1,0,0:0:0:0:
256,192,85716,1,8,0:0:0:0:
256,192,85874,1,0,0:0:0:0:
256,192,86032,1,12,0:0:0:0:
256,192,86190,1,0,0:0:0:0:
256,192,86269,1,0,0:0:0:0:
256,192,86348,1,8,0:0:0:0:
256,192,86506,1,0,0:0:0:0:
256,192,86585,1,0,0:0:0:0:
256,192,86664,1,8,0:0:0:0:
256,192,86743,1,8,0:0:0:0:
256,192,86822,1,0,0:0:0:0:
256,192,86980,1,8,0:0:0:0:
256,192,87138,1,0,0:0:0:0:
256,192,87216,1,8,0:0:0:0:
256,192,87295,1,8,0:0:0:0:
256,192,87453,1,0,0:0:0:0:
256,192,87611,1,8,0:0:0:0:
256,192,87690,1,8,0:0:0:0:
256,192,87769,1,0,0:0:0:0:
256,192,87848,1,0,0:0:0:0:
256,192,87927,1,8,0:0:0:0:
256,192,88085,1,8,0:0:0:0:
256,192,88164,1,8,0:0:0:0:
256,192,88243,1,0,0:0:0:0:
256,192,88401,1,0,0:0:0:0:
256,192,88559,1,8,0:0:0:0:
256,192,88716,1,8,0:0:0:0:
256,192,88795,1,8,0:0:0:0:
256,192,88874,1,0,0:0:0:0:
256,192,89032,1,8,0:0:0:0:
256,192,89190,1,0,0:0:0:0:
256,192,89348,1,0,0:0:0:0:
256,192,89427,1,0,0:0:0:0:
256,192,89506,1,8,0:0:0:0:
256,192,89664,1,0,0:0:0:0:
256,192,89822,1,8,0:0:0:0:
256,192,89980,1,0,0:0:0:0:
256,192,90059,1,0,0:0:0:0:
256,192,90138,1,8,0:0:0:0:
256,192,90295,1,0,0:0:0:0:
256,192,90453,1,8,0:0:0:0:
256,192,90532,1,8,0:0:0:0:
256,192,90611,1,0,0:0:0:0:
256,192,90690,1,0,0:0:0:0:
256,192,90769,1,8,0:0:0:0:
256,192,90848,1,0,0:0:0:0:
256,192,90927,1,8,0:0:0:0:
256,192,91085,1,12,0:0:0:0:
256,192,91401,1,0,0:0:0:0:
256,192,91716,1,0,0:0:0:0:
256,192,92032,1,0,0:0:0:0:
256,192,92348,1,0,0:0:0:0:
256,192,92664,1,0,0:0:0:0:
256,192,92980,1,0,0:0:0:0:
256,192,93295,1,0,0:0:0:0:
256,192,93611,1,12,0:0:0:0:
256,192,93927,1,0,0:0:0:0:
256,192,94243,1,0,0:0:0:0:
256,192,94559,1,0,0:0:0:0:
256,192,94874,1,0,0:0:0:0:
256,192,95190,1,0,0:0:0:0:
256,192,95506,1,0,0:0:0:0:
256,192,95822,1,0,0:0:0:0:
256,192,95980,1,0,0:0:0:0:
256,192,96138,1,12,0:0:0:0:
256,192,96453,1,0,0:0:0:0:
256,192,96769,1,0,0:0:0:0:
256,192,96927,1,0,0:0:0:0:
256,192,97085,1,0,0:0:0:0:
256,192,97243,1,0,0:0:0:0:
256,192,97401,1,0,0:0:0:0:
256,192,97716,1,0,0:0:0:0:
256,192,98032,1,0,0:0:0:0:
256,192,98190,1,0,0:0:0:0:
256,192,98348,1,12,0:0:0:0:
256,192,98664,1,12,0:0:0:0:
256,192,98980,1,8,0:0:0:0:
256,192,99138,1,0,0:0:0:0:
256,192,99216,1,8,0:0:0:0:
256,192,99295,1,0,0:0:0:0:
256,192,99453,1,8,0:0:0:0:
256,192,99506,1,8,0:0:0:0:
256,192,99559,1,8,0:0:0:0:
256,192,99611,1,0,0:0:0:0:
256,192,99690,1,8,0:0:0:0:
256,192,99769,1,0,0:0:0:0:
256,192,99927,1,8,0:0:0:0:
256,192,100032,1,0,0:0:0:0:
256,192,100085,1,0,0:0:0:0:
256,192,100138,1,0,0:0:0:0:
256,192,100243,1,8,0:0:0:0:
256,192,100348,1,0,0:0:0:0:
256,192,100401,1,0,0:0:0:0:
256,192,100453,1,0,0:0:0:0:
256,192,100559,1,8,0:0:0:0:
256,192,100664,1,8,0:0:0:0:
256,192,100716,1,0,0:0:0:0:
256,192,100769,1,0,0:0:0:0:
256,192,100874,1,12,0:0:0:0:
256,192,101190,1,8,0:0:0:0:
256,192,101506,1,8,0:0:0:0:
256,192,101664,1,0,0:0:0:0:
256,192,101743,1,0,0:0:0:0:
256,192,101822,1,8,0:0:0:0:
256,192,101980,1,0,0:0:0:0:
256,192,102059,1,0,0:0:0:0:
256,192,102138,1,8,0:0:0:0:
256,192,102216,1,0,0:0:0:0:
256,192,102295,1,8,0:0:0:0:
256,192,102611,1,0,0:0:0:0:
256,192,102769,1,8,0:0:0:0:
256,192,102848,1,8,0:0:0:0:
256,192,102927,1,0,0:0:0:0:
256,192,103085,1,8,0:0:0:0:
256,192,103164,1,8,0:0:0:0:
256,192,103243,1,8,0:0:0:0:
256,192,103322,1,8,0:0:0:0:
256,192,103401,1,0,0:0:0:0:
256,192,103559,1,8,0:0:0:0:
256,192,103874,1,0,0:0:0:0:
256,192,104032,1,8,0:0:0:0:
256,192,104111,1,0,0:0:0:0:
256,192,104190,1,8,0:0:0:0:
256,192,104348,1,0,0:0:0:0:
256,192,104506,1,8,0:0:0:0:
256,192,104822,1,8,0:0:0:0:
256,192,104980,1,0,0:0:0:0:
256,192,105138,1,8,0:0:0:0:
256,192,105216,1,0,0:0:0:0:
256,192,105295,1,0,0:0:0:0:
256,192,105453,1,0,0:0:0:0:
256,192,105611,1,8,0:0:0:0:
256,192,105690,1,0,0:0:0:0:
256,192,105769,1,8,0:0:0:0:
256,192,105848,1,8,0:0:0:0:
256,192,105927,1,0,0:0:0:0:
256,192,106006,1,0,0:0:0:0:
256,192,106085,1,8,0:0:0:0:
256,192,106243,1,0,0:0:0:0:
256,192,106559,1,8,0:0:0:0:
256,192,106716,1,0,0:0:0:0:
256,192,106795,1,0,0:0:0:0:
256,192,106874,1,8,0:0:0:0:
256,192,106953,1,8,0:0:0:0:
256,192,107032,1,0,0:0:0:0:
256,192,107190,1,8,0:0:0:0:
256,192,107348,1,8,0:0:0:0:
256,192,107664,1,8,0:0:0:0:
256,192,107743,1,8,0:0:0:0:
256,192,107822,1,0,0:0:0:0:
256,192,107980,1,0,0:0:0:0:
256,192,108138,1,8,0:0:0:0:
256,192,108216,1,8,0:0:0:0:
256,192,108295,1,8,0:0:0:0:
256,192,108374,1,8,0:0:0:0:
256,192,108453,1,0,0:0:0:0:
256,192,108611,1,8,0:0:0:0:
256,192,108927,1,8,0:0:0:0:
256,192,109006,1,8,0:0:0:0:
256,192,109085,1,0,0:0:0:0:
256,192,109243,1,8,0:0:0:0:
256,192,109559,1,0,0:0:0:0:
256,192,109716,1,8,0:0:0:0:
256,192,109795,1,8,0:0:0:0:
256,192,109874,1,0,0:0:0:0:
256,192,109953,1,0,0:0:0:0:
256,192,110032,1,8,0:0:0:0:
256,192,110190,1,8,0:0:0:0:
256,192,110348,1,0,0:0:0:0:
256,192,110506,1,0,0:0:0:0:
256,192,110664,1,8,0:0:0:0:
256,192,110822,1,0,0:0:0:0:
256,192,110980,1,12,0:0:0:0:
256,192,111138,1,12,0:0:0:0:
256,192,111295,1,4,0:0:0:0:
256,192,111453,1,0,0:0:0:0:
256,192,111611,1,8,0:0:0:0:
256,192,111769,1,8,0:0:0:0:
256,192,111848,1,8,0:0:0:0:
256,192,111927,1,8,0:0:0:0:
256,192,112085,1,0,0:0:0:0:
256,192,112243,1,8,0:0:0:0:
256,192,112322,1,8,0:0:0:0:
256,192,112401,1,0,0:0:0:0:
256,192,112559,1,8,0:0:0:0:
256,192,112716,1,0,0:0:0:0:
256,192,112874,1,8,0:0:0:0:
256,192,112953,1,8,0:0:0:0:
256,192,113032,1,0,0:0:0:0:
256,192,113111,1,0,0:0:0:0:
256,192,113190,1,8,0:0:0:0:
256,192,113348,1,0,0:0:0:0:
256,192,113506,1,8,0:0:0:0:
256,192,113585,1,8,0:0:0:0:
256,192,113664,1,8,0:0:0:0:
256,192,113822,1,0,0:0:0:0:
256,192,113980,1,8,0:0:0:0:
256,192,114138,1,0,0:0:0:0:
256,192,114295,1,8,0:0:0:0:
256,192,114374,1,8,0:0:0:0:
256,192,114453,1,0,0:0:0:0:
256,192,114611,1,0,0:0:0:0:
256,192,114769,1,8,0:0:0:0:
256,192,114848,1,8,0:0:0:0:
256,192,114927,1,8,0:0:0:0:
256,192,115085,1,0,0:0:0:0:
256,192,115243,1,8,0:0:0:0:
256,192,115322,1,8,0:0:0:0:
256,192,115401,1,0,0:0:0:0:
256,192,115559,1,0,0:0:0:0:
256,192,115716,1,8,0:0:0:0:
256,192,115874,1,8,0:0:0:0:
256,192,116032,1,0,0:0:0:0:
256,192,116111,1,0,0:0:0:0:
256,192,116190,1,0,0:0:0:0:
256,192,116348,1,8,0:0:0:0:
256,192,116506,1,0,0:0:0:0:
256,192,116585,1,0,0:0:0:0:
256,192,116664,1,8,0:0:0:0:
256,192,116822,1,0,0:0:0:0:
256,192,116980,1,8,0:0:0:0:
256,192,117059,1,8,0:0:0:0:
256,192,117138,1,0,0:0:0:0:
256,192,117295,1,8,0:0:0:0:
256,192,117453,1,8,0:0:0:0:
256,192,117611,1,0,0:0:0:0:
256,192,117769,1,8,0:0:0:0:
256,192,117848,1,0,0:0:0:0:
256,192,117927,1,8,0:0:0:0:
256,192,118006,1,8,0:0:0:0:
256,192,118085,1,0,0:0:0:0:
256,192,118243,1,8,0:0:0:0:
256,192,118322,1,8,0:0:0:0:
256,192,118401,1,0,0:0:0:0:
256,192,118559,1,0,0:0:0:0:
256,192,118716,1,8,0:0:0:0:
256,192,118874,1,0,0:0:0:0:
256,192,118953,1,0,0:0:0:0:
256,192,119032,1,0,0:0:0:0:
256,192,119190,1,8,0:0:0:0:
256,192,119348,1,0,0:0:0:0:
256,192,119506,1,8,0:0:0:0:
256,192,119664,1,0,0:0:0:0:
256,192,119822,1,8,0:0:0:0:
256,192,119980,1,8,0:0:0:0:
256,192,120138,1,0,0:0:0:0:
256,192,120216,1,0,0:0:0:0:
256,192,120295,1,8,0:0:0:0:
256,192,120453,1,8,0:0:0:0:
256,192,120611,1,0,0:0:0:0:
256,192,120690,1,8,0:0:0:0:
256,192,120769,1,8,0:0:0:0:
256,192,120927,1,0,0:0:0:0:
256,192,121006,1,0,0:0:0:0:
256,192,121085,1,8,0:0:0:0:
256,192,121164,1,8,0:0:0:0:
256,192,121243,1,8,0:0:0:0:
256,192,121401,1,8,0:0:0:0:
256,192,121480,1,8,0:0:0:0:
256,192,121559,1,0,0:0:0:0:
256,192,121638,1,0,0:0:0:0:
256,192,121716,1,8,0:0:0:0:
256,192,122190,1,0,0:0:0:0:
256,192,122269,1,0,0:0:0:0:
256,192,122348,1,8,0:0:0:0:
256,192,122427,1,0,0:0:0:0:
256,192,122506,1,8,0:0:0:0:
256,192,122822,1,8,0:0:0:0:
256,192,122901,1,8,0:0:0:0:
256,192,122980,1,0,0:0:0:0:
256,192,123059,1,0,0:0:0:0:
256,192,123138,1,8,0:0:0:0:
256,192,123216,1,0,0:0:0:0:
256,192,123295,1,8,0:0:0:0:
256,192,123374,1,8,0:0:0:0:
256,192,123453,1,0,0:0:0:0:
256,192,123532,1,0,0:0:0:0:
256,192,123611,1,8,0:0:0:0:
256,192,123927,1,0,0:0:0:0:
256,192,124006,1,8,0:0:0:0:
256,192,124085,1,0,0:0:0:0:
256,192,124164,1,0,0:0:0:0:
256,192,124243,1,8,0:0:0:0:
256,192,124716,1,8,0:0:0:0:
256,192,124795,1,0,0:0:0:0:
256,192,124874,1,8,0:0:0:0:
256,192,124953,1,8,0:0:0:0:
256,192,125032,1,0,0:0:0:0:
256,192,125348,1,0,0:0:0:0:
256,192,125427,1,0,0:0:0:0:
256,192,125506,1,8,0:0:0:0:
256,192,125585,1,0,0:0:0:0:
256,192,125664,1,8,0:0:0:0:
256,192,125743,1,8,0:0:0:0:
256,192,125822,1,0,0:0:0:0:
256,192,125901,1,8,0:0:0:0:
256,192,125980,1,0,0:0:0:0:
256,192,126059,1,0,0:0:0:0:
256,192,126138,1,12,0:0:0:0:
256,192,126453,1,8,0:0:0:0:
256,192,126532,1,0,0:0:0:0:
256,192,126611,1,8,0:0:0:0:
256,192,126690,1,8,0:0:0:0:
256,192,126769,1,0,0:0:0:0:
256,192,127243,1,0,0:0:0:0:
256,192,127322,1,0,0:0:0:0:
256,192,127401,1,8,0:0:0:0:
256,192,127480,1,8,0:0:0:0:
256,192,127559,1,0,0:0:0:0:
256,192,127874,1,8,0:0:0:0:
256,192,127953,1,0,0:0:0:0:
256,192,128032,1,8,0:0:0:0:
256,192,128111,1,8,0:0:0:0:
256,192,128190,1,0,0:0:0:0:
256,192,128269,1,0,0:0:0:0:
256,192,128348,1,8,0:0:0:0:
256,192,128427,1,0,0:0:0:0:
256,192,128506,1,8,0:0:0:0:
256,192,128585,1,8,0:0:0:0:
256,192,128664,1,0,0:0:0:0:
256,192,128980,1,0,0:0:0:0:
256,192,129059,1,0,0:0:0:0:
256,192,129138,1,8,0:0:0:0:
256,192,129216,1,0,0:0:0:0:
256,192,129295,1,8,0:0:0:0:
256,192,129769,1,8,0:0:0:0:
256,192,129848,1,0,0:0:0:0:
256,192,129927,1,8,0:0:0:0:
256,192,130006,1,8,0:0:0:0:
256,192,130085,1,0,0:0:0:0:
256,192,130401,1,0,0:0:0:0:
256,192,130480,1,0,0:0:0:0:
256,192,130559,1,8,0:0:0:0:
256,192,130638,1,0,0:0:0:0:
256,192,130716,1,8,0:0:0:0:
256,192,130795,1,8,0:0:0:0:
256,192,130874,1,0,0:0:0:0:
256,192,130953,1,8,0:0:0:0:
256,192,131032,1,0,0:0:0:0:
256,192,131111,1,0,0:0:0:0:
256,192,131190,1,12,0:0:0:0:
256,192,131506,1,8,0:0:0:0:
256,192,131585,1,8,0:0:0:0:
256,192,131664,1,0,0:0:0:0:
256,192,131743,1,0,0:0:0:0:
256,192,131822,1,8,0:0:0:0:
256,192,131980,1,8,0:0:0:0:
256,192,132059,1,8,0:0:0:0:
256,192,132138,1,0,0:0:0:0:
256,192,132216,1,0,0:0:0:0:
256,192,132295,1,8,0:0:0:0:
256,192,132374,1,0,0:0:0:0:
256,192,132453,1,8,0:0:0:0:
256,192,132532,1,8,0:0:0:0:
256,192,132611,1,0,0:0:0:0:
256,192,132769,1,0,0:0:0:0:
256,192,132848,1,0,0:0:0:0:
256,192,132927,1,8,0:0:0:0:
256,192,133006,1,0,0:0:0:0:
256,192,133085,1,8,0:0:0:0:
256,192,133164,1,8,0:0:0:0:
256,192,133243,1,0,0:0:0:0:
256,192,133322,1,0,0:0:0:0:
256,192,133401,1,8,0:0:0:0:
256,192,133480,1,0,0:0:0:0:
256,192,133559,1,8,0:0:0:0:
256,192,133638,1,0,0:0:0:0:
256,192,133716,1,8,0:0:0:0:
256,192,133795,1,8,0:0:0:0:
256,192,133874,1,0,0:0:0:0:
256,192,134032,1,0,0:0:0:0:
256,192,134111,1,0,0:0:0:0:
256,192,134190,1,8,0:0:0:0:
256,192,134269,1,0,0:0:0:0:
256,192,134348,1,8,0:0:0:0:
256,192,134427,1,8,0:0:0:0:
256,192,134506,1,0,0:0:0:0:
256,192,134664,1,8,0:0:0:0:
256,192,134743,1,8,0:0:0:0:
256,192,134822,1,0,0:0:0:0:
256,192,134901,1,0,0:0:0:0:
256,192,134980,1,8,0:0:0:0:
256,192,135059,1,0,0:0:0:0:
256,192,135138,1,8,0:0:0:0:
256,192,135216,1,8,0:0:0:0:
256,192,135295,1,0,0:0:0:0:
256,192,135453,1,0,0:0:0:0:
256,192,135532,1,0,0:0:0:0:
256,192,135611,1,8,0:0:0:0:
256,192,135690,1,0,0:0:0:0:
256,192,135769,1,8,0:0:0:0:
256,192,135848,1,8,0:0:0:0:
256,192,135927,1,0,0:0:0:0:
256,192,136006,1,8,0:0:0:0:
256,192,136085,1,0,0:0:0:0:
256,192,136164,1,0,0:0:0:0:
256,192,136243,1,8,0:0:0:0:
256,192,136322,1,0,0:0:0:0:
256,192,136401,1,8,0:0:0:0:
256,192,136559,1,8,0:0:0:0:
256,192,136638,1,0,0:0:0:0:
256,192,136716,1,8,0:0:0:0:
256,192,136795,1,8,0:0:0:0:
256,192,136874,1,0,0:0:0:0:
256,192,136953,1,8,0:0:0:0:
256,192,137032,1,0,0:0:0:0:
256,192,137190,1,8,0:0:0:0:
256,192,137269,1,0,0:0:0:0:
256,192,137348,1,0,0:0:0:0:
256,192,137427,1,0,0:0:0:0:
256,192,137506,1,8,0:0:0:0:
256,192,137585,1,0,0:0:0:0:
256,192,137664,1,8,0:0:0:0:
256,192,137743,1,8,0:0:0:0:
256,192,137822,1,0,0:0:0:0:
256,192,137980,1,8,0:0:0:0:
256,192,138059,1,8,0:0:0:0:
256,192,138138,1,0,0:0:0:0:
256,192,138216,1,0,0:0:0:0:
256,192,138295,1,8,0:0:0:0:
256,192,138374,1,0,0:0:0:0:
256,192,138453,1,8,0:0:0:0:
256,192,138532,1,8,0:0:0:0:
256,192,138611,1,0,0:0:0:0:
256,192,138690,1,0,0:0:0:0:
256,192,138769,1,12,0:0:0:0:
256,192,139085,8,0,141138,0:0:0:0:
256,192,141295,5,12,0:0:0:0:
256,192,141611,1,8,0:0:0:0:
256,192,141690,1,0,0:0:0:0:
256,192,141769,1,0,0:0:0:0:
256,192,141848,1,8,0:0:0:0:
256,192,141927,1,0,0:0:0:0:
256,192,142085,1,8,0:0:0:0:
256,192,142164,1,0,0:0:0:0:
256,192,142243,1,8,0:0:0:0:
256,192,142322,1,8,0:0:0:0:
256,192,142401,1,0,0:0:0:0:
256,192,142559,1,8,0:0:0:0:
256,192,142638,1,0,0:0:0:0:
256,192,142716,1,8,0:0:0:0:
256,192,142874,1,8,0:0:0:0:
256,192,142953,1,0,0:0:0:0:
256,192,143032,1,0,0:0:0:0:
256,192,143111,1,8,0:0:0:0:
256,192,143190,1,0,0:0:0:0:
256,192,143348,1,8,0:0:0:0:
256,192,143427,1,8,0:0:0:0:
256,192,143506,1,0,0:0:0:0:
256,192,143585,1,8,0:0:0:0:
256,192,143664,1,0,0:0:0:0:
256,192,143822,1,8,0:0:0:0:
256,192,143980,1,0,0:0:0:0:
256,192,144059,1,0,0:0:0:0:
256,192,144138,1,8,0:0:0:0:
256,192,144295,1,0,0:0:0:0:
256,192,144374,1,8,0:0:0:0:
256,192,144532,1,0,0:0:0:0:
256,192,144611,1,8,0:0:0:0:
256,192,144690,1,8,0:0:0:0:
256,192,144769,1,0,0:0:0:0:
256,192,144848,1,8,0:0:0:0:
256,192,145006,1,0,0:0:0:0:
256,192,145085,1,8,0:0:0:0:
256,192,145164,1,0,0:0:0:0:
256,192,145243,1,8,0:0:0:0:
256,192,145401,1,8,0:0:0:0:
256,192,145559,1,0,0:0:0:0:
256,192,145638,1,8,0:0:0:0:
256,192,145716,1,0,0:0:0:0:
256,192,145795,1,0,0:0:0:0:
256,192,145874,1,8,0:0:0:0:
256,192,146032,1,8,0:0:0:0:
256,192,146111,1,8,0:0:0:0:
256,192,146190,1,0,0:0:0:0:
256,192,146269,1,0,0:0:0:0:
256,192,146348,1,8,0:0:0:0:
256,192,146506,1,8,0:0:0:0:
256,192,146585,1,0,0:0:0:0:
256,192,146664,1,8,0:0:0:0:
256,192,146822,1,8,0:0:0:0:
256,192,146901,1,8,0:0:0:0:
256,192,146980,1,0,0:0:0:0:
256,192,147138,1,8,0:0:0:0:
256,192,147295,1,0,0:0:0:0:
256,192,147374,1,8,0:0:0:0:
256,192,147453,1,8,0:0:0:0:
256,192,147532,1,0,0:0:0:0:
256,192,147611,1,8,0:0:0:0:
256,192,147769,1,8,0:0:0:0:
256,192,147848,1,0,0:0:0:0:
256,192,147927,1,8,0:0:0:0:
256,192,148085,1,8,0:0:0:0:
256,192,148243,1,0,0:0:0:0:
256,192,148322,1,8,0:0:0:0:
256,192,148401,1,0,0:0:0:0:
256,192,148559,1,0,0:0:0:0:
256,192,148716,1,8,0:0:0:0:
256,192,148795,1,0,0:0:0:0:
256,192,148874,1,8,0:0:0:0:
256,192,149032,1,0,0:0:0:0:
256,192,149111,1,0,0:0:0:0:
256,192,149190,1,8,0:0:0:0:
256,192,149348,1,8,0:0:0:0:
256,192,149427,1,0,0:0:0:0:
256,192,149585,1,0,0:0:0:0:
256,192,149664,1,0,0:0:0:0:
256,192,149822,1,8,0:0:0:0:
256,192,149901,1,8,0:0:0:0:
256,192,149980,1,0,0:0:0:0:
256,192,150138,1,8,0:0:0:0:
256,192,150295,1,0,0:0:0:0:
256,192,150374,1,0,0:0:0:0:
256,192,150453,1,8,0:0:0:0:
256,192,150611,1,0,0:0:0:0:
256,192,150690,1,8,0:0:0:0:
256,192,150848,1,8,0:0:0:0:
256,192,150927,1,0,0:0:0:0:
256,192,151085,1,0,0:0:0:0:
256,192,151164,1,8,0:0:0:0:
256,192,151322,1,0,0:0:0:0:
256,192,151401,1,8,0:0:0:0:
256,192,151559,1,0,0:0:0:0:
256,192,151716,1,12,0:0:0:0:
256,192,151874,1,0,0:0:0:0:
256,192,151953,1,0,0:0:0:0:
256,192,152032,1,0,0:0:0:0:
256,192,152111,1,0,0:0:0:0:
256,192,152190,1,8,0:0:0:0:
256,192,152427,1,0,0:0:0:0:
256,192,152506,1,8,0:0:0:0:
256,192,152585,1,8,0:0:0:0:
256,192,152664,1,0,0:0:0:0:
256,192,152743,1,8,0:0:0:0:
256,192,152822,1,8,0:0:0:0:
256,192,152901,1,8,0:0:0:0:
256,192,152980,1,0,0:0:0:0:
256,192,153138,1,8,0:0:0:0:
256,192,153216,1,8,0:0:0:0:
256,192,153295,1,0,0:0:0:0:
256,192,153374,1,0,0:0:0:0:
256,192,153453,1,8,0:0:0:0:
256,192,153769,1,8,0:0:0:0:
256,192,153927,1,0,0:0:0:0:
256,192,154085,1,8,0:0:0:0:
256,192,154164,1,8,0:0:0:0:
256,192,154243,1,0,0:0:0:0:
256,192,154559,1,0,0:0:0:0:
256,192,154638,1,0,0:0:0:0:
256,192,154716,1,8,0:0:0:0:
256,192,154953,1,0,0:0:0:0:
256,192,155032,1,8,0:0:0:0:
256,192,155111,1,0,0:0:0:0:
256,192,155190,1,0,0:0:0:0:
256,192,155269,1,8,0:0:0:0:
256,192,155348,1,8,0:0:0:0:
256,192,155427,1,8,0:0:0:0:
256,192,155506,1,0,0:0:0:0:
256,192,155664,1,8,0:0:0:0:
256,192,155743,1,0,0:0:0:0:
256,192,155822,1,8,0:0:0:0:
256,192,155901,1,8,0:0:0:0:
256,192,155980,1,0,0:0:0:0:
256,192,156295,1,8,0:0:0:0:
256,192,156453,1,0,0:0:0:0:
256,192,156611,1,8,0:0:0:0:
256,192,156690,1,0,0:0:0:0:
256,192,156769,1,8,0:0:0:0:
256,192,157006,1,0,0:0:0:0:
256,192,157085,1,8,0:0:0:0:
256,192,157243,1,0,0:0:0:0:
256,192,157322,1,0,0:0:0:0:
256,192,157401,1,8,0:0:0:0:
256,192,157480,1,0,0:0:0:0:
256,192,157638,1,0,0:0:0:0:
256,192,157716,1,8,0:0:0:0:
256,192,157874,1,0,0:0:0:0:
256,192,157953,1,0,0:0:0:0:
256,192,158032,1,8,0:0:0:0:
256,192,158269,1,0,0:0:0:0:
256,192,158348,1,8,0:0:0:0:
256,192,158506,1,0,0:0:0:0:
256,192,158585,1,0,0:0:0:0:
256,192,158664,1,8,0:0:0:0:
256,192,158743,1,0,0:0:0:0:
256,192,158901,1,0,0:0:0:0:
256,192,158980,1,8,0:0:0:0:
256,192,159138,1,0,0:0:0:0:
256,192,159295,1,8,0:0:0:0:
256,192,159374,1,8,0:0:0:0:
256,192,159453,1,0,0:0:0:0:
256,192,159532,1,0,0:0:0:0:
256,192,159611,1,8,0:0:0:0:
256,192,159690,1,0,0:0:0:0:
256,192,159769,1,8,0:0:0:0:
256,192,159848,1,8,0:0:0:0:
256,192,159927,1,0,0:0:0:0:
256,192,160006,1,0,0:0:0:0:
256,192,160085,1,8,0:0:0:0:
256,192,160164,1,8,0:0:0:0:
256,192,160243,1,0,0:0:0:0:
256,192,160322,1,8,0:0:0:0:
256,192,160401,1,0,0:0:0:0:
256,192,160480,1,0,0:0:0:0:
256,192,160559,1,8,0:0:0:0:
256,192,160638,1,0,0:0:0:0:
256,192,160716,1,0,0:0:0:0:
256,192,160795,1,8,0:0:0:0:
256,192,160874,1,0,0:0:0:0:
256,192,160953,1,0,0:0:0:0:
256,192,161032,1,8,0:0:0:0:
256,192,161111,1,0,0:0:0:0:
256,192,161190,1,0,0:0:0:0:
256,192,161269,1,8,0:0:0:0:
256,192,161348,1,0,0:0:0:0:
256,192,161427,1,0,0:0:0:0:
256,192,161506,1,8,0:0:0:0:
256,192,161559,1,8,0:0:0:0:
256,192,161611,1,8,0:0:0:0:
256,192,161664,1,0,0:0:0:0:
256,192,161822,1,12,0:0:0:0:
256,192,161980,1,0,0:0:0:0:
256,192,162059,1,0,0:0:0:0:
256,192,162138,1,8,0:0:0:0:
256,192,162295,1,8,0:0:0:0:
256,192,162374,1,8,0:0:0:0:
256,192,162453,1,0,0:0:0:0:
256,192,162532,1,8,0:0:0:0:
256,192,162611,1,0,0:0:0:0:
256,192,162769,1,8,0:0:0:0:
256,192,162927,1,0,0:0:0:0:
256,192,163006,1,0,0:0:0:0:
256,192,163085,1,8,0:0:0:0:
256,192,163243,1,8,0:0:0:0:
256,192,163322,1,0,0:0:0:0:
256,192,163401,1,8,0:0:0:0:
256,192,163559,1,8,0:0:0:0:
256,192,163638,1,0,0:0:0:0:
256,192,163716,1,8,0:0:0:0:
256,192,163795,1,8,0:0:0:0:
256,192,163874,1,0,0:0:0:0:
256,192,163953,1,0,0:0:0:0:
256,192,164032,1,8,0:0:0:0:
256,192,164190,1,8,0:0:0:0:
256,192,164269,1,0,0:0:0:0:
256,192,164348,1,8,0:0:0:0:
256,192,164506,1,0,0:0:0:0:
256,192,164585,1,0,0:0:0:0:
256,192,164664,1,8,0:0:0:0:
256,192,164822,1,8,0:0:0:0:
256,192,164901,1,8,0:0:0:0:
256,192,164980,1,0,0:0:0:0:
256,192,165059,1,8,0:0:0:0:
256,192,165138,1,0,0:0:0:0:
256,192,165295,1,8,0:0:0:0:
256,192,165453,1,0,0:0:0:0:
256,192,165532,1,0,0:0:0:0:
256,192,165611,1,8,0:0:0:0:
256,192,165847,1,0,0:0:0:0:
256,192,165926,1,8,0:0:0:0:
256,192,166084,1,0,0:0:0:0:
256,192,166163,1,0,0:0:0:0:
256,192,166242,1,8,0:0:0:0:
256,192,166479,1,0,0:0:0:0:
256,192,166558,1,8,0:0:0:0:
256,192,166716,1,8,0:0:0:0:
256,192,166874,1,0,0:0:0:0:
256,192,167032,1,0,0:0:0:0:
256,192,167111,1,0,0:0:0:0:
256,192,167190,1,8,0:0:0:0:
256,192,167348,1,8,0:0:0:0:
256,192,167427,1,0,0:0:0:0:
256,192,167506,1,0,0:0:0:0:
256,192,167585,1,8,0:0:0:0:
256,192,167664,1,0,0:0:0:0:
256,192,167822,1,8,0:0:0:0:
256,192,167980,1,0,0:0:0:0:
256,192,168059,1,0,0:0:0:0:
256,192,168138,1,8,0:0:0:0:
256,192,168295,1,8,0:0:0:0:
256,192,168374,1,0,0:0:0:0:
256,192,168453,1,8,0:0:0:0:
256,192,168611,1,8,0:0:0:0:
256,192,168690,1,0,0:0:0:0:
256,192,168848,1,8,0:0:0:0:
256,192,168927,1,0,0:0:0:0:
256,192,169006,1,0,0:0:0:0:
256,192,169085,1,8,0:0:0:0:
256,192,169243,1,0,0:0:0:0:
256,192,169322,1,0,0:0:0:0:
256,192,169401,1,8,0:0:0:0:
256,192,169559,1,0,0:0:0:0:
256,192,169638,1,8,0:0:0:0:
256,192,169716,1,8,0:0:0:0:
256,192,169874,1,0,0:0:0:0:
256,192,169953,1,8,0:0:0:0:
256,192,170032,1,0,0:0:0:0:
256,192,170111,1,8,0:0:0:0:
256,192,170190,1,0,0:0:0:0:
256,192,170348,1,8,0:0:0:0:
256,192,170506,1,8,0:0:0:0:
256,192,170585,1,8,0:0:0:0:
256,192,170664,1,0,0:0:0:0:
256,192,170822,1,0,0:0:0:0:
256,192,170901,1,0,0:0:0:0:
256,192,170980,1,8,0:0:0:0:
256,192,171138,1,8,0:0:0:0:
256,192,171216,1,0,0:0:0:0:
256,192,171295,1,8,0:0:0:0:
256,192,171374,1,8,0:0:0:0:
256,192,171453,1,0,0:0:0:0:
256,192,171532,1,0,0:0:0:0:
256,192,171611,1,8,0:0:0:0:
256,192,171769,1,8,0:0:0:0:
256,192,171848,1,8,0:0:0:0:
256,192,171927,1,0,0:0:0:0:
256,192,172164,1,0,0:0:0:0:
256,192,172243,1,8,0:0:0:0:
256,192,172401,1,0,0:0:0:0:
256,192,172480,1,8,0:0:0:0:
256,192,172559,1,0,0:0:0:0:
256,192,172638,1,8,0:0:0:0:
256,192,172716,1,0,0:0:0:0:
256,192,172874,1,8,0:0:0:0:
256,192,173032,1,0,0:0:0:0:
256,192,173111,1,0,0:0:0:0:
256,192,173190,1,8,0:0:0:0:
256,192,173348,1,8,0:0:0:0:
256,192,173427,1,0,0:0:0:0:
256,192,173506,1,8,0:0:0:0:
256,192,173664,1,8,0:0:0:0:
256,192,173743,1,0,0:0:0:0:
256,192,173822,1,8,0:0:0:0:
256,192,173901,1,8,0:0:0:0:
256,192,173980,1,0,0:0:0:0:
256,192,174138,1,8,0:0:0:0:
256,192,174295,1,0,0:0:0:0:
256,192,174374,1,8,0:0:0:0:
256,192,174453,1,8,0:0:0:0:
256,192,174611,1,0,0:0:0:0:
256,192,174690,1,0,0:0:0:0:
256,192,174769,1,8,0:0:0:0:
256,192,174927,1,0,0:0:0:0:
256,192,175006,1,0,0:0:0:0:
256,192,175085,1,8,0:0:0:0:
256,192,175164,1,8,0:0:0:0:
256,192,175243,1,0,0:0:0:0:
256,192,175401,1,8,0:0:0:0:
256,192,175480,1,8,0:0:0:0:
256,192,175559,1,0,0:0:0:0:
256,192,175638,1,0,0:0:0:0:
256,192,175716,1,8,0:0:0:0:
256,192,175952,1,0,0:0:0:0:
256,192,176031,1,8,0:0:0:0:
256,192,176189,1,0,0:0:0:0:
256,192,176268,1,0,0:0:0:0:
256,192,176347,1,8,0:0:0:0:
256,192,176584,1,0,0:0:0:0:
256,192,176663,1,8,0:0:0:0:
256,192,176821,1,8,0:0:0:0:
256,192,176980,1,0,0:0:0:0:
256,192,177138,1,0,0:0:0:0:
256,192,177217,1,0,0:0:0:0:
256,192,177296,1,8,0:0:0:0:
256,192,177454,1,8,0:0:0:0:
256,192,177533,1,0,0:0:0:0:
256,192,177612,1,0,0:0:0:0:
256,192,177691,1,8,0:0:0:0:
256,192,177770,1,0,0:0:0:0:
256,192,177928,1,8,0:0:0:0:
256,192,178086,1,0,0:0:0:0:
256,192,178165,1,0,0:0:0:0:
256,192,178244,1,8,0:0:0:0:
256,192,178401,1,8,0:0:0:0:
256,192,178480,1,0,0:0:0:0:
256,192,178559,1,8,0:0:0:0:
256,192,178717,1,8,0:0:0:0:
256,192,178796,1,0,0:0:0:0:
256,192,178954,1,8,0:0:0:0:
256,192,179033,1,0,0:0:0:0:
256,192,179112,1,0,0:0:0:0:
256,192,179191,1,8,0:0:0:0:
256,192,179349,1,0,0:0:0:0:
256,192,179428,1,0,0:0:0:0:
256,192,179507,1,8,0:0:0:0:
256,192,179665,1,0,0:0:0:0:
256,192,179744,1,8,0:0:0:0:
256,192,179822,1,8,0:0:0:0:
256,192,179980,1,0,0:0:0:0:
256,192,180059,1,8,0:0:0:0:
256,192,180138,1,0,0:0:0:0:
256,192,180217,1,8,0:0:0:0:
256,192,180296,1,0,0:0:0:0:
256,192,180454,1,8,0:0:0:0:
256,192,180612,1,8,0:0:0:0:
256,192,180691,1,8,0:0:0:0:
256,192,180770,1,0,0:0:0:0:
256,192,180927,1,0,0:0:0:0:
256,192,181006,1,0,0:0:0:0:
256,192,181085,1,8,0:0:0:0:
256,192,181243,1,0,0:0:0:0:
256,192,181322,1,8,0:0:0:0:
256,192,181401,1,0,0:0:0:0:
256,192,181480,1,8,0:0:0:0:
256,192,181559,1,0,0:0:0:0:
256,192,181716,1,8,0:0:0:0:
256,192,181769,1,8,0:0:0:0:
256,192,181822,1,8,0:0:0:0:
256,192,181874,1,0,0:0:0:0:
256,192,182032,1,0,0:0:0:0:
256,192,182269,1,0,0:0:0:0:
256,192,182348,1,8,0:0:0:0:
256,192,182506,1,0,0:0:0:0:
256,192,182585,1,8,0:0:0:0:
256,192,182664,1,0,0:0:0:0:
256,192,182743,1,8,0:0:0:0:
256,192,182821,1,0,0:0:0:0:
256,192,182979,1,8,0:0:0:0:
256,192,183137,1,0,0:0:0:0:
256,192,183216,1,0,0:0:0:0:
256,192,183295,1,8,0:0:0:0:
256,192,183453,1,8,0:0:0:0:
256,192,183532,1,0,0:0:0:0:
256,192,183611,1,8,0:0:0:0:
256,192,183769,1,8,0:0:0:0:
256,192,183848,1,0,0:0:0:0:
256,192,183927,1,8,0:0:0:0:
256,192,184006,1,8,0:0:0:0:
256,192,184085,1,0,0:0:0:0:
256,192,184243,1,8,0:0:0:0:
256,192,184400,1,0,0:0:0:0:
256,192,184479,1,8,0:0:0:0:
256,192,184558,1,8,0:0:0:0:
256,192,184716,1,0,0:0:0:0:
256,192,184795,1,0,0:0:0:0:
256,192,184874,1,8,0:0:0:0:
256,192,185032,1,0,0:0:0:0:
256,192,185111,1,0,0:0:0:0:
256,192,185190,1,8,0:0:0:0:
256,192,185269,1,8,0:0:0:0:
256,192,185348,1,0,0:0:0:0:
256,192,185506,1,8,0:0:0:0:
256,192,185585,1,8,0:0:0:0:
256,192,185664,1,0,0:0:0:0:
256,192,185743,1,0,0:0:0:0:
256,192,185822,1,8,0:0:0:0:
256,192,186059,1,0,0:0:0:0:
256,192,186138,1,8,0:0:0:0:
256,192,186294,1,0,0:0:0:0:
256,192,186373,1,0,0:0:0:0:
256,192,186452,1,8,0:0:0:0:
256,192,186689,1,0,0:0:0:0:
256,192,186768,1,8,0:0:0:0:
256,192,186926,1,8,0:0:0:0:
256,192,187085,1,0,0:0:0:0:
256,192,187243,1,0,0:0:0:0:
256,192,187322,1,0,0:0:0:0:
256,192,187401,1,8,0:0:0:0:
256,192,187559,1,8,0:0:0:0:
256,192,187638,1,0,0:0:0:0:
256,192,187717,1,0,0:0:0:0:
256,192,187796,1,8,0:0:0:0:
256,192,187875,1,0,0:0:0:0:
256,192,188033,1,8,0:0:0:0:
256,192,188191,1,0,0:0:0:0:
256,192,188270,1,0,0:0:0:0:
256,192,188349,1,8,0:0:0:0:
256,192,188506,1,8,0:0:0:0:
256,192,188585,1,0,0:0:0:0:
256,192,188664,1,8,0:0:0:0:
256,192,188822,1,8,0:0:0:0:
256,192,188901,1,0,0:0:0:0:
256,192,189059,1,8,0:0:0:0:
256,192,189138,1,0,0:0:0:0:
256,192,189217,1,0,0:0:0:0:
256,192,189296,1,8,0:0:0:0:
256,192,189454,1,0,0:0:0:0:
256,192,189533,1,0,0:0:0:0:
256,192,189612,1,8,0:0:0:0:
256,192,189770,1,0,0:0:0:0:
256,192,189849,1,8,0:0:0:0:
256,192,189927,1,8,0:0:0:0:
256,192,190085,1,0,0:0:0:0:
256,192,190164,1,8,0:0:0:0:
256,192,190243,1,0,0:0:0:0:
256,192,190322,1,8,0:0:0:0:
256,192,190401,1,0,0:0:0:0:
256,192,190559,1,8,0:0:0:0:
256,192,190716,1,0,0:0:0:0:
256,192,190795,1,0,0:0:0:0:
256,192,190874,1,8,0:0:0:0:
256,192,191032,1,0,0:0:0:0:
256,192,191111,1,8,0:0:0:0:
256,192,191189,1,8,0:0:0:0:
256,192,191347,1,0,0:0:0:0:
256,192,191426,1,8,0:0:0:0:
256,192,191505,1,0,0:0:0:0:
256,192,191584,1,8,0:0:0:0:
256,192,191663,1,0,0:0:0:0:
256,192,191821,1,8,0:0:0:0:
256,192,191979,1,8,0:0:0:0:
256,192,192058,1,8,0:0:0:0:
256,192,192138,1,4,0:0:0:0:
256,192,192374,1,0,0:0:0:0:
256,192,192453,1,8,0:0:0:0:
256,192,192611,1,0,0:0:0:0:
256,192,192690,1,8,0:0:0:0:
256,192,192769,1,8,0:0:0:0:
256,192,192848,1,8,0:0:0:0:
256,192,192927,1,0,0:0:0:0:
256,192,193085,1,8,0:0:0:0:
256,192,193243,1,0,0:0:0:0:
256,192,193322,1,8,0:0:0:0:
256,192,193401,1,0,0:0:0:0:
256,192,193559,1,0,0:0:0:0:
256,192,193638,1,0,0:0:0:0:
256,192,193716,1,8,0:0:0:0:
256,192,193874,1,0,0:0:0:0:
256,192,193953,1,8,0:0:0:0:
256,192,194032,1,0,0:0:0:0:
256,192,194111,1,8,0:0:0:0:
256,192,194190,1,0,0:0:0:0:
256,192,194348,1,8,0:0:0:0:
256,192,194506,1,0,0:0:0:0:
256,192,194585,1,0,0:0:0:0:
256,192,194664,1,8,0:0:0:0:
256,192,194743,1,0,0:0:0:0:
256,192,194822,1,8,0:0:0:0:
256,192,194901,1,8,0:0:0:0:
256,192,194980,1,0,0:0:0:0:
256,192,195138,1,0,0:0:0:0:
256,192,195216,1,0,0:0:0:0:
256,192,195295,1,8,0:0:0:0:
256,192,195374,1,8,0:0:0:0:
256,192,195453,1,0,0:0:0:0:
256,192,195611,1,8,0:0:0:0:
256,192,195769,1,0,0:0:0:0:
256,192,195848,1,8,0:0:0:0:
256,192,195927,1,0,0:0:0:0:
256,192,196085,1,8,0:0:0:0:
256,192,196164,1,8,0:0:0:0:
256,192,196243,1,0,0:0:0:0:
256,192,196401,1,0,0:0:0:0:
256,192,196480,1,0,0:0:0:0:
256,192,196559,1,8,0:0:0:0:
256,192,196638,1,0,0:0:0:0:
256,192,196716,1,8,0:0:0:0:
256,192,196874,1,8,0:0:0:0:
256,192,196953,1,8,0:0:0:0:
256,192,197032,1,0,0:0:0:0:
256,192,197190,1,0,0:0:0:0:
256,192,197348,1,0,0:0:0:0:
256,192,197427,1,8,0:0:0:0:
256,192,197506,1,0,0:0:0:0:
256,192,197664,1,8,0:0:0:0:
256,192,197743,1,8,0:0:0:0:
256,192,197822,1,0,0:0:0:0:
256,192,197901,1,8,0:0:0:0:
256,192,197980,1,0,0:0:0:0:
256,192,198138,1,8,0:0:0:0:
256,192,198295,1,0,0:0:0:0:
256,192,198374,1,8,0:0:0:0:
256,192,198453,1,0,0:0:0:0:
256,192,198611,1,0,0:0:0:0:
256,192,198690,1,0,0:0:0:0:
256,192,198769,1,8,0:0:0:0:
256,192,198927,1,8,0:0:0:0:
256,192,199006,1,8,0:0:0:0:
256,192,199085,1,0,0:0:0:0:
256,192,199164,1,0,0:0:0:0:
256,192,199243,1,8,0:0:0:0:
256,192,199322,1,0,0:0:0:0:
256,192,199401,1,8,0:0:0:0:
256,192,199480,1,8,0:0:0:0:
256,192,199559,1,0,0:0:0:0:
256,192,199638,1,0,0:0:0:0:
256,192,199716,1,12,0:0:0:0:
256,192,199874,1,0,0:0:0:0:
256,192,200032,1,0,0:0:0:0:
256,192,200190,1,12,0:0:0:0:
256,192,200347,1,0,0:0:0:0:
256,192,200427,1,0,0:0:0:0:
256,192,200505,1,12,0:0:0:0:
256,192,200663,1,0,0:0:0:0:
256,192,200821,1,0,0:0:0:0:
256,192,200979,1,8,0:0:0:0:
256,192,201084,1,0,0:0:0:0:
256,192,201137,1,0,0:0:0:0:
256,192,201190,1,0,0:0:0:0:
256,192,201295,1,8,0:0:0:0:
256,192,201400,1,0,0:0:0:0:
256,192,201453,1,0,0:0:0:0:
256,192,201505,1,0,0:0:0:0:
256,192,201611,1,8,0:0:0:0:
256,192,201716,1,8,0:0:0:0:
256,192,201768,1,0,0:0:0:0:
256,192,201821,1,0,0:0:0:0:
256,192,201926,1,12,0:0:0:0:
256,192,202243,1,8,0:0:0:0:
256,192,202559,1,8,0:0:0:0:
256,192,202717,1,0,0:0:0:0:
256,192,202796,1,0,0:0:0:0:
256,192,202875,1,8,0:0:0:0:
256,192,203033,1,0,0:0:0:0:
256,192,203112,1,0,0:0:0:0:
256,192,203191,1,8,0:0:0:0:
256,192,203269,1,0,0:0:0:0:
256,192,203348,1,8,0:0:0:0:
256,192,203664,1,0,0:0:0:0:
256,192,203822,1,8,0:0:0:0:
256,192,203901,1,8,0:0:0:0:
256,192,203980,1,0,0:0:0:0:
256,192,204138,1,8,0:0:0:0:
256,192,204217,1,8,0:0:0:0:
256,192,204296,1,8,0:0:0:0:
256,192,204375,1,8,0:0:0:0:
256,192,204454,1,0,0:0:0:0:
256,192,204612,1,8,0:0:0:0:
256,192,204927,1,0,0:0:0:0:
256,192,205085,1,8,0:0:0:0:
256,192,205164,1,0,0:0:0:0:
256,192,205243,1,8,0:0:0:0:
256,192,205401,1,0,0:0:0:0:
256,192,205559,1,8,0:0:0:0:
256,192,205875,1,8,0:0:0:0:
256,192,206033,1,0,0:0:0:0:
256,192,206191,1,8,0:0:0:0:
256,192,206269,1,0,0:0:0:0:
256,192,206348,1,0,0:0:0:0:
256,192,206506,1,0,0:0:0:0:
256,192,206664,1,8,0:0:0:0:
256,192,206743,1,0,0:0:0:0:
256,192,206822,1,8,0:0:0:0:
256,192,206901,1,8,0:0:0:0:
256,192,206980,1,0,0:0:0:0:
256,192,207059,1,0,0:0:0:0:
256,192,207138,1,8,0:0:0:0:
256,192,207296,1,0,0:0:0:0:
256,192,207612,1,8,0:0:0:0:
256,192,207769,1,0,0:0:0:0:
256,192,207848,1,0,0:0:0:0:
256,192,207927,1,8,0:0:0:0:
256,192,208006,1,8,0:0:0:0:
256,192,208085,1,0,0:0:0:0:
256,192,208243,1,8,0:0:0:0:
256,192,208401,1,8,0:0:0:0:
256,192,208717,1,8,0:0:0:0:
256,192,208796,1,8,0:0:0:0:
256,192,208875,1,0,0:0:0:0:
256,192,209033,1,0,0:0:0:0:
256,192,209191,1,8,0:0:0:0:
256,192,209269,1,8,0:0:0:0:
256,192,209348,1,8,0:0:0:0:
256,192,209427,1,8,0:0:0:0:
256,192,209506,1,0,0:0:0:0:
256,192,209664,1,8,0:0:0:0:
256,192,209980,1,8,0:0:0:0:
256,192,210059,1,8,0:0:0:0:
256,192,210138,1,0,0:0:0:0:
256,192,210296,1,8,0:0:0:0:
256,192,210612,1,0,0:0:0:0:
256,192,210769,1,8,0:0:0:0:
256,192,210848,1,8,0:0:0:0:
256,192,210927,1,0,0:0:0:0:
256,192,211006,1,0,0:0:0:0:
256,192,211085,1,8,0:0:0:0:
256,192,211243,1,8,0:0:0:0:
256,192,211401,1,0,0:0:0:0:
256,192,211559,1,0,0:0:0:0:
256,192,211716,1,8,0:0:0:0:
256,192,211874,1,0,0:0:0:0:
256,192,212032,1,12,0:0:0:0:
256,192,212190,1,12,0:0:0:0:
256,192,212348,1,4,0:0:0:0:
256,192,212506,1,8,0:0:0:0:
256,192,212664,1,8,0:0:0:0:
256,192,212743,1,8,0:0:0:0:
256,192,212822,1,8,0:0:0:0:
256,192,212980,1,0,0:0:0:0:
256,192,213138,1,8,0:0:0:0:
256,192,213217,1,8,0:0:0:0:
256,192,213296,1,0,0:0:0:0:
256,192,213454,1,8,0:0:0:0:
256,192,213611,1,0,0:0:0:0:
256,192,213769,1,8,0:0:0:0:
256,192,213848,1,8,0:0:0:0:
256,192,213927,1,0,0:0:0:0:
256,192,214006,1,0,0:0:0:0:
256,192,214085,1,8,0:0:0:0:
256,192,214243,1,0,0:0:0:0:
256,192,214401,1,8,0:0:0:0:
256,192,214480,1,8,0:0:0:0:
256,192,214559,1,8,0:0:0:0:
256,192,214717,1,0,0:0:0:0:
256,192,214875,1,8,0:0:0:0:
256,192,215033,1,0,0:0:0:0:
256,192,215190,1,8,0:0:0:0:
256,192,215269,1,8,0:0:0:0:
256,192,215348,1,0,0:0:0:0:
256,192,215506,1,0,0:0:0:0:
256,192,215664,1,8,0:0:0:0:
256,192,215743,1,8,0:0:0:0:
256,192,215822,1,8,0:0:0:0:
256,192,215980,1,0,0:0:0:0:
256,192,216138,1,8,0:0:0:0:
256,192,216217,1,8,0:0:0:0:
256,192,216296,1,0,0:0:0:0:
256,192,216454,1,0,0:0:0:0:
256,192,216611,1,8,0:0:0:0:
256,192,216769,1,8,0:0:0:0:
256,192,216927,1,0,0:0:0:0:
256,192,217006,1,0,0:0:0:0:
256,192,217085,1,0,0:0:0:0:
256,192,217243,1,8,0:0:0:0:
256,192,217401,1,0,0:0:0:0:
256,192,217480,1,0,0:0:0:0:
256,192,217559,1,8,0:0:0:0:
256,192,217717,1,0,0:0:0:0:
256,192,217875,1,8,0:0:0:0:
256,192,217954,1,8,0:0:0:0:
256,192,218033,1,0,0:0:0:0:
256,192,218190,1,8,0:0:0:0:
256,192,218348,1,8,0:0:0:0:
256,192,218506,1,0,0:0:0:0:
256,192,218664,1,8,0:0:0:0:
256,192,218822,1,8,0:0:0:0:
256,192,218901,1,0,0:0:0:0:
256,192,218980,1,8,0:0:0:0:
256,192,219059,1,8,0:0:0:0:
256,192,219138,1,0,0:0:0:0:
256,192,219295,1,8,0:0:0:0:
256,192,219374,1,8,0:0:0:0:
256,192,219453,1,0,0:0:0:0:
256,192,219532,1,0,0:0:0:0:
256,192,219611,1,8,0:0:0:0:
256,192,219690,1,0,0:0:0:0:
256,192,219769,1,8,0:0:0:0:
256,192,219848,1,8,0:0:0:0:
256,192,219927,1,0,0:0:0:0:
256,192,220006,1,0,0:0:0:0:
256,192,220085,1,8,0:0:0:0:
256,192,220164,1,0,0:0:0:0:
256,192,220243,1,8,0:0:0:0:
256,192,220402,1,8,0:0:0:0:
256,192,220480,1,8,0:0:0:0:
256,192,220559,1,0,0:0:0:0:
256,192,220638,1,0,0:0:0:0:
256,192,220716,1,8,0:0:0:0:
407,124,220795,1,8,0:0:0:0:
256,192,220874,1,8,0:0:0:0:
256,192,220953,1,0,0:0:0:0:
256,192,221032,1,8,0:0:0:0:
256,192,221111,1,0,0:0:0:0:
256,192,221190,1,8,0:0:0:0:
256,192,221269,1,8,0:0:0:0:
256,192,221348,1,0,0:0:0:0:
256,192,221506,1,8,0:0:0:0:
256,192,221585,1,8,0:0:0:0:
256,192,221664,1,0,0:0:0:0:
256,192,221743,1,0,0:0:0:0:
256,192,221822,1,8,0:0:0:0:
256,192,221901,1,0,0:0:0:0:
256,192,221980,1,8,0:0:0:0:
256,192,222059,1,8,0:0:0:0:
256,192,222138,1,0,0:0:0:0:
256,192,222453,1,8,0:0:0:0:
256,192,222532,1,8,0:0:0:0:
256,192,222611,1,0,0:0:0:0:
256,192,222690,1,0,0:0:0:0:
256,192,222769,1,8,0:0:0:0:
256,192,222848,1,0,0:0:0:0:
256,192,222927,1,8,0:0:0:0:
256,192,223006,1,8,0:0:0:0:
256,192,223085,1,0,0:0:0:0:
256,192,223164,1,8,0:0:0:0:
256,192,223243,1,0,0:0:0:0:
256,192,223322,1,0,0:0:0:0:
256,192,223401,1,8,0:0:0:0:
256,192,223480,1,8,0:0:0:0:
256,192,223559,1,0,0:0:0:0:
256,192,223874,1,0,0:0:0:0:
256,192,223953,1,0,0:0:0:0:
256,192,224032,1,8,0:0:0:0:
256,192,224111,1,0,0:0:0:0:
256,192,224190,1,8,0:0:0:0:
256,192,224269,1,8,0:0:0:0:
256,192,224348,1,0,0:0:0:0:
256,192,224427,1,0,0:0:0:0:
256,192,224506,1,8,0:0:0:0:
256,192,224585,1,0,0:0:0:0:
256,192,224664,1,8,0:0:0:0:
256,192,224980,1,8,0:0:0:0:
256,192,225059,1,8,0:0:0:0:
256,192,225138,1,0,0:0:0:0:
256,192,225216,1,0,0:0:0:0:
256,192,225295,1,8,0:0:0:0:
256,192,225374,1,0,0:0:0:0:
256,192,225453,1,8,0:0:0:0:
256,192,225532,1,8,0:0:0:0:
256,192,225611,1,0,0:0:0:0:
256,192,225690,1,0,0:0:0:0:
256,192,225769,1,8,0:0:0:0:
256,192,225848,1,8,0:0:0:0:
256,192,225927,1,0,0:0:0:0:
256,192,226006,1,8,0:0:0:0:
256,192,226085,1,0,0:0:0:0:
256,192,226401,1,8,0:0:0:0:
256,192,226480,1,0,0:0:0:0:
256,192,226559,1,8,0:0:0:0:
256,192,226638,1,8,0:0:0:0:
256,192,226716,1,0,0:0:0:0:
256,192,226795,1,8,0:0:0:0:
256,192,226874,1,0,0:0:0:0:
256,192,226953,1,0,0:0:0:0:
256,192,227032,1,8,0:0:0:0:
256,192,227111,1,0,0:0:0:0:
256,192,227190,1,12,0:0:0:0:
256,192,227506,1,8,0:0:0:0:
256,192,227585,1,8,0:0:0:0:
256,192,227664,1,0,0:0:0:0:
256,192,227743,1,0,0:0:0:0:
256,192,227822,1,8,0:0:0:0:
256,192,228295,1,0,0:0:0:0:
256,192,228374,1,0,0:0:0:0:
256,192,228453,1,0,0:0:0:0:
256,192,228532,1,0,0:0:0:0:
256,192,228611,1,8,0:0:0:0:
256,192,228927,1,8,0:0:0:0:
256,192,229006,1,0,0:0:0:0:
256,192,229085,1,8,0:0:0:0:
256,192,229164,1,8,0:0:0:0:
256,192,229243,1,0,0:0:0:0:
256,192,229322,1,0,0:0:0:0:
256,192,229401,1,8,0:0:0:0:
256,192,229480,1,0,0:0:0:0:
256,192,229559,1,8,0:0:0:0:
256,192,229638,1,8,0:0:0:0:
256,192,229716,1,0,0:0:0:0:
256,192,230032,1,0,0:0:0:0:
256,192,230111,1,0,0:0:0:0:
256,192,230190,1,0,0:0:0:0:
256,192,230269,1,0,0:0:0:0:
256,192,230348,1,8,0:0:0:0:
256,192,230822,1,0,0:0:0:0:
256,192,230901,1,0,0:0:0:0:
256,192,230980,1,8,0:0:0:0:
256,192,231059,1,8,0:0:0:0:
256,192,231138,1,0,0:0:0:0:
256,192,231453,1,8,0:0:0:0:
256,192,231532,1,8,0:0:0:0:
256,192,231611,1,0,0:0:0:0:
256,192,231690,1,0,0:0:0:0:
256,192,231769,1,8,0:0:0:0:
256,192,231848,1,0,0:0:0:0:
256,192,231927,1,8,0:0:0:0:
256,192,232006,1,8,0:0:0:0:
256,192,232085,1,0,0:0:0:0:
256,192,232164,1,0,0:0:0:0:
256,192,232243,1,12,0:0:0:0:
256,192,232559,1,8,0:0:0:0:
256,192,232638,1,8,0:0:0:0:
256,192,232717,1,0,0:0:0:0:
256,192,232796,1,0,0:0:0:0:
256,192,232875,1,8,0:0:0:0:
256,192,233033,1,8,0:0:0:0:
256,192,233112,1,8,0:0:0:0:
256,192,233191,1,0,0:0:0:0:
256,192,233269,1,0,0:0:0:0:
256,192,233348,1,8,0:0:0:0:
256,192,233427,1,0,0:0:0:0:
256,192,233506,1,8,0:0:0:0:
256,192,233585,1,8,0:0:0:0:
256,192,233664,1,0,0:0:0:0:
256,192,233822,1,0,0:0:0:0:
256,192,233901,1,0,0:0:0:0:
256,192,233980,1,8,0:0:0:0:
256,192,234059,1,0,0:0:0:0:
256,192,234138,1,8,0:0:0:0:
256,192,234217,1,8,0:0:0:0:
256,192,234296,1,0,0:0:0:0:
256,192,234375,1,0,0:0:0:0:
256,192,234454,1,8,0:0:0:0:
256,192,234533,1,0,0:0:0:0:
256,192,234612,1,8,0:0:0:0:
256,192,234691,1,0,0:0:0:0:
256,192,234769,1,8,0:0:0:0:
256,192,234848,1,8,0:0:0:0:
256,192,234927,1,0,0:0:0:0:
256,192,235085,1,0,0:0:0:0:
256,192,235164,1,0,0:0:0:0:
256,192,235243,1,8,0:0:0:0:
256,192,235322,1,0,0:0:0:0:
256,192,235401,1,8,0:0:0:0:
256,192,235480,1,8,0:0:0:0:
256,192,235559,1,0,0:0:0:0:
256,192,235717,1,8,0:0:0:0:
256,192,235796,1,8,0:0:0:0:
256,192,235875,1,0,0:0:0:0:
256,192,235954,1,0,0:0:0:0:
256,192,236033,1,8,0:0:0:0:
256,192,236112,1,0,0:0:0:0:
256,192,236191,1,8,0:0:0:0:
256,192,236269,1,8,0:0:0:0:
256,192,236348,1,0,0:0:0:0:
256,192,236506,1,0,0:0:0:0:
256,192,236585,1,0,0:0:0:0:
256,192,236664,1,8,0:0:0:0:
256,192,236743,1,0,0:0:0:0:
256,192,236822,1,8,0:0:0:0:
256,192,236901,1,8,0:0:0:0:
256,192,236980,1,0,0:0:0:0:
256,192,237059,1,8,0:0:0:0:
256,192,237138,1,0,0:0:0:0:
256,192,237217,1,0,0:0:0:0:
256,192,237296,1,8,0:0:0:0:
256,192,237375,1,0,0:0:0:0:
256,192,237454,1,8,0:0:0:0:
256,192,237612,1,8,0:0:0:0:
256,192,237691,1,0,0:0:0:0:
256,192,237769,1,8,0:0:0:0:
256,192,237848,1,8,0:0:0:0:
256,192,237927,1,0,0:0:0:0:
256,192,238006,1,8,0:0:0:0:
256,192,238085,1,0,0:0:0:0:
256,192,238243,1,8,0:0:0:0:
256,192,238322,1,0,0:0:0:0:
256,192,238401,1,0,0:0:0:0:
256,192,238480,1,0,0:0:0:0:
256,192,238559,1,8,0:0:0:0:
256,192,238638,1,0,0:0:0:0:
256,192,238717,1,8,0:0:0:0:
256,192,238796,1,8,0:0:0:0:
256,192,238875,1,0,0:0:0:0:
256,192,239033,1,8,0:0:0:0:
256,192,239112,1,8,0:0:0:0:
256,192,239191,1,0,0:0:0:0:
256,192,239269,1,0,0:0:0:0:
256,192,239348,1,8,0:0:0:0:
256,192,239427,1,0,0:0:0:0:
256,192,239506,1,8,0:0:0:0:
256,192,239585,1,8,0:0:0:0:
256,192,239664,1,0,0:0:0:0:
256,192,239743,1,0,0:0:0:0:
256,192,239822,1,8,0:0:0:0:
256,192,239874,1,8,0:0:0:0:
256,192,239927,1,8,0:0:0:0:
256,192,239980,1,8,0:0:0:0:
256,192,240032,1,8,0:0:0:0:
256,192,240085,1,8,0:0:0:0:
256,192,240138,1,0,0:0:0:0:
256,192,240295,1,0,0:0:0:0:
256,192,240453,1,12,0:0:0:0:
256,192,240611,1,0,0:0:0:0:
256,192,240769,1,0,0:0:0:0:
256,192,240927,1,12,0:0:0:0:
256,192,241085,1,0,0:0:0:0:
256,192,241243,1,0,0:0:0:0:
256,192,241401,1,12,0:0:0:0:
256,192,241559,1,0,0:0:0:0:
256,192,241716,1,0,0:0:0:0:
256,192,241874,1,12,0:0:0:0:
256,192,242032,1,8,0:0:0:0:
256,192,242111,1,0,0:0:0:0:
256,192,242190,1,8,0:0:0:0:
256,192,242269,1,0,0:0:0:0:
256,192,242348,1,8,0:0:0:0:
256,192,242427,1,0,0:0:0:0:
256,192,242506,1,8,0:0:0:0:
256,192,242585,1,8,0:0:0:0:
256,192,242664,1,0,0:0:0:0:
256,192,242822,1,0,0:0:0:0:
256,192,242980,1,8,0:0:0:0:
256,192,243138,1,0,0:0:0:0:
256,192,243216,1,8,0:0:0:0:
256,192,243295,1,0,0:0:0:0:
256,192,243374,1,0,0:0:0:0:
256,192,243453,1,8,0:0:0:0:
256,192,243611,1,8,0:0:0:0:
256,192,243690,1,8,0:0:0:0:
256,192,243769,1,0,0:0:0:0:
256,192,243848,1,8,0:0:0:0:
256,192,243927,1,0,0:0:0:0:
256,192,244085,1,8,0:0:0:0:
256,192,244164,1,0,0:0:0:0:
256,192,244243,1,8,0:0:0:0:
256,192,244401,1,8,0:0:0:0:
256,192,244480,1,8,0:0:0:0:
256,192,244559,1,0,0:0:0:0:
256,192,244638,1,0,0:0:0:0:
256,192,244716,1,8,0:0:0:0:
256,192,244874,1,8,0:0:0:0:
256,192,244953,1,0,0:0:0:0:
256,192,245032,1,8,0:0:0:0:
256,192,245111,1,8,0:0:0:0:
256,192,245190,1,0,0:0:0:0:
256,192,245348,1,0,0:0:0:0:
256,192,245427,1,0,0:0:0:0:
256,192,245506,1,8,0:0:0:0:
256,192,245664,1,0,0:0:0:0:
256,192,245743,1,8,0:0:0:0:
256,192,245822,1,0,0:0:0:0:
256,192,245901,1,8,0:0:0:0:
256,192,245980,1,0,0:0:0:0:
256,192,246138,1,8,0:0:0:0:
256,192,246216,1,0,0:0:0:0:
256,192,246295,1,8,0:0:0:0:
256,192,246348,1,8,0:0:0:0:
256,192,246401,1,8,0:0:0:0:
256,192,246453,1,0,0:0:0:0:
256,192,246611,1,8,0:0:0:0:
256,192,246769,1,0,0:0:0:0:
256,192,246927,1,0,0:0:0:0:
256,192,247085,1,8,0:0:0:0:
256,192,247243,1,0,0:0:0:0:
256,192,247401,1,0,0:0:0:0:
256,192,247559,1,8,0:0:0:0:
256,192,247716,1,4,0:0:0:0:
256,192,247874,1,8,0:0:0:0:
256,192,247953,1,8,0:0:0:0:
256,192,248032,1,0,0:0:0:0:
256,192,248190,1,0,0:0:0:0:
256,192,248348,1,8,0:0:0:0:
256,192,248427,1,8,0:0:0:0:
256,192,248506,1,8,0:0:0:0:
256,192,248664,1,0,0:0:0:0:
256,192,248822,1,8,0:0:0:0:
256,192,249138,1,8,0:0:0:0:
256,192,249216,1,8,0:0:0:0:
256,192,249295,1,8,0:0:0:0:
256,192,249453,1,0,0:0:0:0:
256,192,249611,1,8,0:0:0:0:
256,192,249690,1,8,0:0:0:0:
256,192,249769,1,0,0:0:0:0:
256,192,249848,1,0,0:0:0:0:
256,192,249927,1,8,0:0:0:0:
256,192,250085,1,0,0:0:0:0:
256,192,250401,1,0,0:0:0:0:
256,192,250480,1,0,0:0:0:0:
256,192,250559,1,8,0:0:0:0:
256,192,250716,1,0,0:0:0:0:
256,192,250874,1,8,0:0:0:0:
256,192,250953,1,0,0:0:0:0:
256,192,251032,1,8,0:0:0:0:
256,192,251111,1,8,0:0:0:0:
256,192,251190,1,0,0:0:0:0:
256,192,251348,1,0,0:0:0:0:
256,192,251506,1,8,0:0:0:0:
256,192,251664,1,0,0:0:0:0:
256,192,251743,1,0,0:0:0:0:
256,192,251822,1,0,0:0:0:0:
256,192,251980,1,8,0:0:0:0:
256,192,252138,1,0,0:0:0:0:
256,192,252216,1,0,0:0:0:0:
256,192,252295,1,0,0:0:0:0:
256,192,252374,1,0,0:0:0:0:
256,192,252453,1,8,0:0:0:0:
256,192,252611,1,0,0:0:0:0:
256,192,252927,1,8,0:0:0:0:
256,192,253006,1,8,0:0:0:0:
256,192,253085,1,0,0:0:0:0:
256,192,253243,1,0,0:0:0:0:
256,192,253322,1,0,0:0:0:0:
256,192,253401,1,8,0:0:0:0:
256,192,253480,1,8,0:0:0:0:
256,192,253559,1,0,0:0:0:0:
256,192,253716,1,0,0:0:0:0:
256,192,253874,1,8,0:0:0:0:
256,192,254190,1,8,0:0:0:0:
256,192,254269,1,8,0:0:0:0:
256,192,254348,1,0,0:0:0:0:
256,192,254506,1,0,0:0:0:0:
256,192,254585,1,0,0:0:0:0:
256,192,254664,1,8,0:0:0:0:
256,192,254743,1,0,0:0:0:0:
256,192,254822,1,8,0:0:0:0:
256,192,254980,1,8,0:0:0:0:
256,192,255138,1,0,0:0:0:0:
256,192,255453,1,0,0:0:0:0:
256,192,255532,1,0,0:0:0:0:
256,192,255611,1,8,0:0:0:0:
256,192,255690,1,8,0:0:0:0:
256,192,255769,1,0,0:0:0:0:
256,192,255927,1,8,0:0:0:0:
256,192,256006,1,0,0:0:0:0:
256,192,256085,1,8,0:0:0:0:
256,192,256164,1,8,0:0:0:0:
256,192,256243,1,0,0:0:0:0:
256,192,256322,1,0,0:0:0:0:
256,192,256401,1,8,0:0:0:0:
256,192,256716,1,0,0:0:0:0:
256,192,257032,1,0,0:0:0:0:
256,192,257190,1,8,0:0:0:0:
256,192,257348,1,8,0:0:0:0:
256,192,257427,1,8,0:0:0:0:
256,192,257506,1,8,0:0:0:0:
256,192,257585,1,8,0:0:0:0:
256,192,257664,1,8,0:0:0:0:
256,192,257716,1,8,0:0:0:0:
256,192,257769,1,8,0:0:0:0:
256,192,257822,1,4,0:0:0:0:
256,192,257980,1,8,0:0:0:0:
256,192,258059,1,8,0:0:0:0:
256,192,258138,1,0,0:0:0:0:
256,192,258295,1,0,0:0:0:0:
256,192,258453,1,8,0:0:0:0:
256,192,258532,1,0,0:0:0:0:
256,192,258611,1,8,0:0:0:0:
256,192,258690,1,8,0:0:0:0:
256,192,258769,1,0,0:0:0:0:
256,192,258848,1,0,0:0:0:0:
256,192,258927,1,8,0:0:0:0:
256,192,259085,1,0,0:0:0:0:
256,192,259243,1,8,0:0:0:0:
256,192,259322,1,8,0:0:0:0:
256,192,259401,1,0,0:0:0:0:
256,192,259559,1,0,0:0:0:0:
256,192,259716,1,8,0:0:0:0:
256,192,259795,1,0,0:0:0:0:
256,192,259874,1,0,0:0:0:0:
256,192,259953,1,0,0:0:0:0:
256,192,260032,1,8,0:0:0:0:
256,192,260111,1,8,0:0:0:0:
256,192,260190,1,0,0:0:0:0:
256,192,260506,1,8,0:0:0:0:
256,192,260585,1,8,0:0:0:0:
256,192,260664,1,0,0:0:0:0:
256,192,260822,1,0,0:0:0:0:
256,192,260980,1,8,0:0:0:0:
256,192,261059,1,8,0:0:0:0:
256,192,261138,1,8,0:0:0:0:
256,192,261216,1,8,0:0:0:0:
256,192,261295,1,0,0:0:0:0:
256,192,261453,1,8,0:0:0:0:
256,192,261611,1,0,0:0:0:0:
256,192,261690,1,0,0:0:0:0:
256,192,261769,1,8,0:0:0:0:
256,192,261927,1,0,0:0:0:0:
256,192,262085,1,0,0:0:0:0:
256,192,262164,1,0,0:0:0:0:
256,192,262243,1,8,0:0:0:0:
256,192,262322,1,0,0:0:0:0:
256,192,262401,1,8,0:0:0:0:
256,192,262480,1,8,0:0:0:0:
256,192,262559,1,0,0:0:0:0:
256,192,262716,1,0,0:0:0:0:
256,192,263032,1,8,0:0:0:0:
256,192,263111,1,8,0:0:0:0:
256,192,263190,1,0,0:0:0:0:
256,192,263348,1,0,0:0:0:0:
256,192,263427,1,0,0:0:0:0:
256,192,263506,1,8,0:0:0:0:
256,192,263585,1,0,0:0:0:0:
256,192,263664,1,8,0:0:0:0:
256,192,263743,1,8,0:0:0:0:
256,192,263822,1,0,0:0:0:0:
256,192,263980,1,8,0:0:0:0:
256,192,264138,1,0,0:0:0:0:
256,192,264295,1,8,0:0:0:0:
256,192,264374,1,8,0:0:0:0:
256,192,264453,1,0,0:0:0:0:
256,192,264611,1,0,0:0:0:0:
256,192,264769,1,8,0:0:0:0:
256,192,264927,1,0,0:0:0:0:
256,192,265006,1,0,0:0:0:0:
256,192,265085,1,8,0:0:0:0:
256,192,265164,1,0,0:0:0:0:
256,192,265243,1,8,0:0:0:0:
256,192,265401,1,0,0:0:0:0:
256,192,265559,1,8,0:0:0:0:
256,192,265638,1,8,0:0:0:0:
256,192,265716,1,0,0:0:0:0:
256,192,265795,1,8,0:0:0:0:
256,192,265874,1,0,0:0:0:0:
256,192,266032,1,8,0:0:0:0:
256,192,266111,1,0,0:0:0:0:
256,192,266190,1,8,0:0:0:0:
256,192,266269,1,8,0:0:0:0:
256,192,266348,1,0,0:0:0:0:
256,192,266506,1,8,0:0:0:0:
256,192,266585,1,8,0:0:0:0:
256,192,266664,1,0,0:0:0:0:
256,192,266822,1,8,0:0:0:0:
256,192,266901,1,8,0:0:0:0:
256,192,266980,1,8,0:0:0:0:
256,192,267138,1,0,0:0:0:0:
256,192,267216,1,0,0:0:0:0:
256,192,267295,1,8,0:0:0:0:
256,192,267374,1,8,0:0:0:0:
256,192,267453,1,0,0:0:0:0:
256,192,267611,1,8,0:0:0:0:
256,192,267769,1,0,0:0:0:0:
256,192,267848,1,0,0:0:0:0:
256,192,267927,1,12,0:0:0:0:
256,192,268085,1,0,0:0:0:0:
256,192,268164,1,8,0:0:0:0:
256,192,268243,1,0,0:0:0:0:
256,192,268322,1,0,0:0:0:0:
256,192,268400,1,8,0:0:0:0:
256,192,268558,1,8,0:0:0:0:
256,192,268637,1,8,0:0:0:0:
256,192,268716,1,0,0:0:0:0:
256,192,268874,1,0,0:0:0:0:
256,192,268953,1,8,0:0:0:0:
256,192,269032,1,8,0:0:0:0:
256,192,269190,1,8,0:0:0:0:
256,192,269269,1,8,0:0:0:0:
256,192,269348,1,0,0:0:0:0:
256,192,269427,1,0,0:0:0:0:
256,192,269506,1,8,0:0:0:0:
256,192,269664,1,8,0:0:0:0:
256,192,269743,1,8,0:0:0:0:
256,192,269822,1,8,0:0:0:0:
256,192,269979,1,0,0:0:0:0:
256,192,270137,1,8,0:0:0:0:
256,192,270216,1,0,0:0:0:0:
256,192,270295,1,8,0:0:0:0:
256,192,270348,1,8,0:0:0:0:
256,192,270400,1,8,0:0:0:0:
256,192,270453,1,0,0:0:0:0:
256,192,270611,1,0,0:0:0:0:
256,192,270664,1,0,0:0:0:0:
256,192,270716,1,0,0:0:0:0:
256,192,270769,1,8,0:0:0:0:
256,192,270927,1,0,0:0:0:0:
256,192,271006,1,0,0:0:0:0:
256,192,271085,1,8,0:0:0:0:
256,192,271243,1,8,0:0:0:0:
256,192,271322,1,8,0:0:0:0:
256,192,271400,1,0,0:0:0:0:
256,192,271479,1,8,0:0:0:0:
256,192,271558,1,8,0:0:0:0:
256,192,271716,1,0,0:0:0:0:
256,192,271795,1,8,0:0:0:0:
256,192,271874,1,0,0:0:0:0:
256,192,272032,1,8,0:0:0:0:
256,192,272190,1,8,0:0:0:0:
256,192,272269,1,0,0:0:0:0:
256,192,272348,1,8,0:0:0:0:
256,192,272506,1,0,0:0:0:0:
256,192,272585,1,0,0:0:0:0:
256,192,272664,1,8,0:0:0:0:
256,192,272743,1,8,0:0:0:0:
256,192,272822,1,8,0:0:0:0:
256,192,272900,1,0,0:0:0:0:
256,192,272979,1,8,0:0:0:0:
256,192,273137,1,0,0:0:0:0:
256,192,273216,1,8,0:0:0:0:
256,192,273295,1,8,0:0:0:0:
256,192,273374,1,0,0:0:0:0:
256,192,273453,1,8,0:0:0:0:
256,192,273690,1,8,0:0:0:0:
256,192,273769,1,0,0:0:0:0:
256,192,273822,1,0,0:0:0:0:
256,192,273874,1,0,0:0:0:0:
256,192,273927,1,8,0:0:0:0:
256,192,274006,1,0,0:0:0:0:
256,192,274085,1,8,0:0:0:0:
256,192,274243,1,8,0:0:0:0:
256,192,274322,1,8,0:0:0:0:
256,192,274400,1,0,0:0:0:0:
256,192,274558,1,8,0:0:0:0:
256,192,274716,1,0,0:0:0:0:
256,192,274795,1,8,0:0:0:0:
256,192,274874,1,0,0:0:0:0:
256,192,275032,1,0,0:0:0:0:
256,192,275190,1,8,0:0:0:0:
256,192,275348,1,0,0:0:0:0:
256,192,275427,1,0,0:0:0:0:
256,192,275506,1,12,0:0:0:0:
257,192,276769,1,8,0:0:0:0:
257,192,276927,1,0,0:0:0:0:
257,192,277006,1,8,0:0:0:0:
257,192,277085,1,0,0:0:0:0:
257,192,277164,1,8,0:0:0:0:
257,192,277243,1,8,0:0:0:0:
257,192,277400,1,8,0:0:0:0:
257,192,277479,1,8,0:0:0:0:
257,192,277558,1,0,0:0:0:0:
257,192,277637,1,0,0:0:0:0:
257,192,277716,1,12,0:0:0:0:
257,192,278032,1,4,0:0:0:0:
