osu file format v14

[General]
AudioFilename: audio.mp3
AudioLeadIn: 0
PreviewTime: 317696
Countdown: 0
SampleSet: Soft
StackLeniency: 0.4
Mode: 0
LetterboxInBreaks: 0
WidescreenStoryboard: 1

[Editor]
Bookmarks: 11867,33810,50267,55753,82006,83034,85777,92977,99638,108210,110610,119181,121581,130153,132553,140781,143353,165467,184324,187410,203867,209696,235606,241777,246577,250349,253238,264210,275181,280667,283753,286153,294724,297124,317696,341010,362953,390381
DistanceSpacing: 1
BeatDivisor: 4
GridSize: 16
TimelineZoom: 1.999999

[Metadata]
Title:Empyrean
TitleUnicode:Empyrean
Artist:Meganeko
ArtistUnicode:Meganeko
Creator:Pozy
Version:patterns
Source:
Tags:Ciyus Miapah Fort
BeatmapID:3222466
BeatmapSetID:916571

[Difficulty]
HPDrainRate:5
CircleSize:4
OverallDifficulty:9
ApproachRate:9.4
SliderMultiplier:1.7
SliderTickRate:1

[Events]
//Background and Video events
0,0,"Konachan.com - 273516 sample.jpg",0,0
//Break Periods
2,146210,164927
//Storyboard Layer 0 (Background)
//Storyboard Layer 1 (Fail)
//Storyboard Layer 2 (Pass)
//Storyboard Layer 3 (Foreground)
//Storyboard Layer 4 (Overlay)
//Storyboard Sound Samples

[TimingPoints]
896,342.857142857143,4,2,1,40,1,0
1067,-142.857142857143,4,2,1,40,0,0
9124,-100,4,2,1,50,0,0
11867,-83.3333333333333,4,2,1,40,0,0
17867,-100,4,2,1,40,0,0
19581,-83.3333333333333,4,2,1,40,0,0
22496,-100,4,2,1,40,0,0
22838,-83.3333333333333,4,2,1,40,0,0
28238,-83.3333333333333,4,2,1,5,0,0
28324,-83.3333333333333,4,2,1,40,0,0
28838,-100,4,2,1,40,0,0
30553,-83.3333333333333,4,2,1,40,0,0
33467,-100,4,2,1,40,0,0
33810,-71.4285714285714,4,2,1,40,0,0
44438,-100,4,2,1,40,0,0
44781,-71.4285714285714,4,2,1,40,0,0
55238,-100,4,2,1,40,0,0
55753,-66.6666666666667,4,2,1,40,0,1
60553,-58.8235294117647,4,2,1,40,0,1
60896,-50,4,2,1,40,0,1
61238,-66.6666666666667,4,2,1,40,0,1
66038,-100,4,2,1,40,0,1
66724,-62.5,4,2,1,40,0,1
71524,-55.5555555555556,4,2,1,40,0,1
71867,-50,4,2,1,40,0,1
72210,-62.5,4,2,1,40,0,1
77524,-100,4,2,1,40,0,1
77696,-100,4,2,1,40,0,1
82153,-75.7575757575758,4,2,1,40,0,1
83181,-71.4285714285714,4,2,1,40,0,1
85924,-100,4,2,1,40,0,1
88153,-76.9230769230769,4,2,1,40,0,1
93124,-66.6666666666667,4,2,1,40,0,1
94153,-62.5,4,2,1,40,0,1
99210,-62.5,4,2,1,5,0,1
99296,-62.5,4,2,1,40,0,1
99381,-62.5,4,2,1,5,0,1
99467,-62.5,4,2,1,40,0,1
99553,-62.5,4,2,1,5,0,1
99638,-71.4285714285714,4,2,1,40,0,0
100581,-71.4285714285714,4,2,1,5,0,0
100667,-71.4285714285714,4,2,1,40,0,0
100753,-71.4285714285714,4,2,1,5,0,0
100838,-71.4285714285714,4,2,1,40,0,0
108724,-76.9230769230769,4,2,1,40,0,0
109238,-71.4285714285714,4,2,1,40,0,0
109753,-76.9230769230769,4,2,1,40,0,0
110267,-83.3333333333333,4,2,1,40,0,0
110610,-71.4285714285714,4,2,1,40,0,0
119696,-76.9230769230769,4,2,1,40,0,0
120210,-71.4285714285714,4,2,1,40,0,0
120724,-76.9230769230769,4,2,1,40,0,0
121238,-71.4285714285714,4,2,1,40,0,0
121581,-71.4285714285714,4,2,1,40,0,0
130667,-76.9230769230769,4,2,1,40,0,0
131181,-71.4285714285714,4,2,1,40,0,0
131696,-76.9230769230769,4,2,1,40,0,0
132210,-83.3333333333333,4,2,1,40,0,0
132553,-71.4285714285714,4,2,1,40,0,0
165467,-200,4,2,1,40,0,0
169581,-1000,4,2,1,40,0,0
170953,-200,4,2,1,40,0,0
187410,-71.4285714285714,4,2,1,40,0,0
209696,-66.6666666666667,4,2,1,40,0,1
214153,-62.5,4,2,1,40,0,1
214496,-55.5555555555556,4,2,1,40,0,1
214838,-66.6666666666667,4,2,1,40,0,1
220324,-66.6666666666667,4,2,1,40,0,1
225124,-62.5,4,2,1,40,0,1
225467,-55.5555555555556,4,2,1,40,0,1
225810,-66.6666666666667,4,2,1,40,0,1
231296,-100,4,2,1,40,0,1
235753,-66.6666666666667,4,2,1,40,0,1
236781,-100,4,2,1,40,0,1
242267,-100,4,2,1,40,0,1
246724,-66.6666666666667,4,2,1,40,0,1
247753,-100,4,2,1,40,0,1
253238,-71.4285714285714,4,2,1,40,0,0
283753,-100,4,2,1,40,0,0
286153,-71.4285714285714,4,2,1,40,0,0
294724,-100,4,2,1,40,0,0
297124,-71.4285714285714,4,2,1,40,0,0
317524,-100,4,2,1,40,0,0
319067,-100,4,2,1,40,0,1
319410,-58.8235294117647,4,2,1,40,0,1
341010,-71.4285714285714,4,2,1,40,0,0
349581,-100,4,2,1,40,0,0
353010,-71.4285714285714,4,2,1,40,0,0
362438,-200,4,2,1,40,0,0
382153,-500,4,2,1,40,0,0

[Colours]
Combo1 : 94,101,160
Combo2 : 70,72,87
Combo3 : 255,199,134
Combo4 : 228,211,201

[HitObjects]
216,220,895,5,0,0:0:0:0:
216,220,1067,2,0,P|217:268|206:291,2,59.4999981842042
170,337,1581,1,0,0:0:0:0:
143,186,1753,1,0,0:0:0:0:
143,186,1925,2,0,P|136:215|141:245,2,59.4999981842042
170,337,2439,1,0,0:0:0:0:
299,308,2610,5,0,0:0:0:0:
299,308,2782,2,0,P|347:307|370:318,2,59.4999981842042
416,354,3296,1,0,0:0:0:0:
265,381,3468,1,0,0:0:0:0:
265,380,3640,2,0,P|293:386|323:382,2,59.4999981842042
416,354,4154,1,0,0:0:0:0:
384,235,4324,5,0,0:0:0:0:
384,235,4496,2,0,P|383:187|394:164,2,59.4999981842042
430,118,5010,1,0,0:0:0:0:
457,269,5181,1,0,0:0:0:0:
456,269,5354,2,0,P|462:240|458:210,2,59.4999981842042
430,118,5868,1,0,0:0:0:0:
278,86,6038,2,0,P|307:81|336:88,1,59.4999981842042
202,126,6381,6,0,L|193:54,4,59.4999981842042
115,163,7238,2,0,L|124:91,4,59.4999981842042
191,217,8096,2,0,L|198:276,4,59.4999981842042
118,254,8953,1,0,0:0:0:0:
255,178,9124,6,0,B|266:192|266:192|280:282,1,85
363,236,9467,2,0,B|352:250|352:250|338:340,1,85
265,339,9810,1,0,0:0:0:0:
198,276,9981,6,0,B|184:287|184:287|94:301,1,85
140,384,10324,2,0,B|126:373|126:373|36:359,1,85
37,286,10667,1,0,0:0:0:0:
40,126,10838,6,0,B|29:140|29:140|15:230,1,85
104,227,11181,1,0,0:0:0:0:
169,80,11353,1,0,0:0:0:0:
188,239,11524,1,0,0:0:0:0:
113,130,11696,1,0,0:0:0:0:
146,305,11867,6,0,P|200:315|253:290,1,101.999996887207,8|0,0:1|0:0,0:0:0:0:
341,219,12210,1,4,0:0:0:0:
381,384,12381,2,0,P|340:390|271:366,1,101.999996887207,2|0,0:0|0:0,0:0:0:0:
251,222,12724,1,8,0:0:0:0:
412,174,12896,2,0,P|423:216|403:282,1,101.999996887207,4|0,0:0|0:0,0:0:0:0:
127,131,13238,2,0,P|189:142|242:113,1,101.999996887207,8|0,0:0|0:0,0:0:0:0:
345,52,13581,1,4,0:0:0:0:
308,211,13753,1,2,0:0:0:0:
173,60,13924,5,0,0:0:0:0:
196,49,14009,1,0,0:0:0:0:
221,44,14096,2,0,P|246:45|271:51,1,50.9999984436036,8|0,0:0|0:0,0:0:0:0:
235,128,14267,5,0,0:0:0:0:
258,139,14352,1,0,0:0:0:0:
283,143,14438,1,4,0:0:0:0:
308,141,14524,1,0,0:0:0:0:
331,131,14610,1,2,0:0:0:0:
354,122,14695,1,0,0:0:0:0:
379,119,14781,1,8,0:0:0:0:
404,123,14867,1,0,0:0:0:0:
427,134,14953,2,2,P|446:147|461:164,4,25.4999992218018,6|2|2|2|2,0:0|0:0|0:0|0:0|0:0,0:0:0:0:
378,208,15296,5,0,0:0:0:0:
365,235,15381,1,0,0:0:0:0:
364,266,15467,1,8,0:0:0:0:
373,295,15553,1,0,0:0:0:0:
392,319,15638,1,4,0:0:0:0:
418,334,15724,1,0,0:0:0:0:
448,340,15810,1,0,0:0:0:0:
478,334,15896,1,0,0:0:0:0:
504,318,15981,1,8,0:0:0:0:
378,208,16153,5,2,0:0:0:0:
315,250,16238,1,2,0:0:0:0:
240,242,16324,1,6,0:0:0:0:
335,323,16496,1,0,0:0:0:0:
185,325,16667,5,2,0:0:0:0:
130,299,16753,1,2,0:0:0:0:
104,243,16838,2,0,P|112:186|138:151,1,101.999996887207,10|0,0:0|0:0,0:0:0:0:
300,93,17181,5,4,0:0:0:0:
88,16,17353,2,0,P|149:16|198:41,1,101.999996887207,2|0,0:0|0:0,0:0:0:0:
300,93,17696,1,4,0:0:0:0:
137,151,17868,2,0,P|183:151|220:131,1,85,2|0,0:0|0:0,0:0:0:0:
55,101,18210,6,2,P|55:116|57:127,5,14.1666666666667,10|2|2|2|2|2,0:0|0:0|0:0|0:0|0:0|0:0,0:0:0:0:
41,133,18381,2,2,P|41:148|39:159,3,21.25,2|2|2|2,0:0|0:0|0:0|0:0,0:0:0:0:
59,163,18553,2,2,P|59:178|57:189,7,21.25,2|2|2|2|2|2|2|2,0:0|0:0|0:0|0:0|0:0|0:0|0:0|0:0,0:0:0:0:
43,199,18896,2,2,P|43:214|45:225,3,21.25,2|2|2|2,0:0|0:0|0:0|0:0,0:0:0:0:
59,234,19067,1,6,0:0:0:0:
259,203,19238,5,0,0:0:0:0:
270,224,19323,1,0,0:0:0:0:
274,249,19409,1,0,0:0:0:0:
271,275,19495,1,0,0:0:0:0:
260,298,19581,2,0,P|235:231|260:182,1,101.999996887207,10|0,0:0|0:0,0:0:0:0:
398,116,19924,1,4,0:0:0:0:
254,182,20096,2,0,B|341:182|341:182|366:200|366:200|478:200,1,203.999993774414,2|4,0:0|0:0,0:0:0:0:
396,5,20610,5,0,0:0:0:0:
382,31,20695,1,0,0:0:0:0:
377,61,20781,1,0,0:0:0:0:
383,90,20867,1,0,0:0:0:0:
398,116,20952,1,8,0:0:0:0:
251,38,21124,2,0,P|183:25|115:53,1,101.999996887207,4|0,0:0|0:0,0:0:0:0:
53,141,21467,5,0,0:0:0:0:
65,158,21553,1,0,0:0:0:0:
77,174,21638,1,2,0:0:0:0:
93,121,21724,1,2,0:0:0:0:
83,66,21810,1,6,0:0:0:0:
7,331,21981,2,0,P|-2:279|27:200,1,101.999996887207,2|0,0:0|0:0,0:0:0:0:
99,358,22324,1,8,0:0:0:0:
152,281,22496,2,0,L|248:283,1,85,2|4,0:0|0:0,0:0:0:0:
254,264,22753,1,4,0:0:0:0:
276,243,22838,6,0,P|280:286|263:343,1,101.999996887207,10|0,0:0|0:0,0:0:0:0:
197,181,23181,1,4,0:0:0:0:
321,138,23353,2,0,P|363:134|420:151,1,101.999996887207,0|0,0:0|0:0,0:0:0:0:
441,165,23610,1,0,0:0:0:0:
454,182,23696,2,0,P|435:113|463:66,2,101.999996887207,8|4|0,0:0|0:0|0:0,0:0:0:0:
512,51,24210,2,0,L|407:59,1,101.999996887207,8|0,0:0|0:0,0:0:0:0:
276,71,24553,1,4,0:0:0:0:
351,125,24724,1,2,0:0:0:0:
269,236,24896,2,0,P|231:230|197:214,1,50.9999984436036,0|0,0:0|0:0,0:0:0:0:
301,331,25067,5,10,0:0:0:0:
312,359,25153,1,2,0:0:0:0:
321,384,25238,1,2,0:0:0:0:
344,374,25324,1,2,0:0:0:0:
364,358,25410,1,6,0:0:0:0:
378,337,25495,1,2,0:0:0:0:
386,313,25581,1,2,0:0:0:0:
388,287,25667,1,2,0:0:0:0:
382,262,25753,2,0,P|351:211|335:203,1,50.9999984436036,10|0,0:0|0:0,0:0:0:0:
291,138,25924,5,6,0:0:0:0:
312,124,26009,1,2,0:0:0:0:
336,116,26095,1,2,0:0:0:0:
362,114,26181,1,2,0:0:0:0:
387,120,26267,2,0,P|438:151|446:167,1,50.9999984436036,2|0,0:0|0:0,0:0:0:0:
359,217,26438,5,8,0:0:0:0:
338,231,26523,1,0,0:0:0:0:
314,239,26609,1,4,0:0:0:0:
288,241,26695,1,0,0:0:0:0:
263,235,26781,2,0,P|212:204|204:188,1,50.9999984436036,0|0,0:0|0:0,0:0:0:0:
147,123,26953,5,8,0:0:0:0:
128,114,27039,1,0,0:0:0:0:
110,105,27124,1,2,0:0:0:0:
111,177,27210,1,10,0:0:0:0:
114,249,27296,1,6,0:0:0:0:
3,233,27467,5,0,0:0:0:0:
22,224,27553,1,0,0:0:0:0:
40,215,27638,1,2,0:0:0:0:
39,287,27724,1,2,0:0:0:0:
36,359,27810,1,10,0:0:0:0:
137,228,27981,1,2,0:0:0:0:
137,228,28067,1,10,0:0:0:0:
137,228,28153,2,0,L|137:294,1,50.9999984436036,6|0,0:0|0:0,0:0:0:0:
209,362,28324,6,0,B|209:324|209:324|220:304|220:304|220:248,1,101.999996887207,2|2,0:0|0:0,0:0:0:0:
301,216,28667,1,4,0:0:0:0:
292,384,28838,2,0,B|292:349|292:349|301:331|301:331|301:280,1,85,2|2,0:0|0:0,0:0:0:0:
301,258,29096,1,2,0:0:0:0:
301,216,29181,1,10,0:0:0:0:
301,131,29353,2,0,L|301:216,1,85,4|0,0:0|0:0,0:0:0:0:
209,362,29696,1,8,0:0:0:0:
108,154,29867,5,0,0:0:0:0:
92,174,29953,1,0,0:0:0:0:
85,198,30038,2,0,P|93:255|105:271,1,42.5,4|0,0:0|0:0,0:0:0:0:
189,105,30210,5,0,0:0:0:0:
171,86,30295,2,0,P|117:64|97:66,1,42.5,4|0,0:0|0:0,0:0:0:0:
190,199,30467,5,0,0:0:0:0:
216,191,30552,2,0,P|264:153|272:133,1,85,10|0,0:0|0:0,0:0:0:0:
274,8,30896,1,6,0:0:0:0:
347,162,31067,6,0,P|284:113|273:88,1,101.999996887207,2|8,0:0|0:0,0:0:0:0:
445,134,31410,5,4,0:0:0:0:
444,184,31495,1,4,0:0:0:0:
421,229,31581,1,2,0:0:0:0:
376,255,31667,2,0,P|336:259|302:247,1,50.9999984436036,8|2,0:0|0:0,0:0:0:0:
381,333,31838,5,0,0:0:0:0:
330,346,31924,2,0,P|290:339|260:319,1,50.9999984436036,8|0,0:0|0:0,0:0:0:0:
254,194,32096,1,4,0:0:0:0:
119,258,32267,5,0,0:0:0:0:
139,274,32353,1,0,0:0:0:0:
163,281,32438,2,0,P|220:273|236:261,1,50.9999984436036,8|0,0:0|0:0,0:0:0:0:
292,112,32610,5,2,0:0:0:0:
295,183,32695,1,2,0:0:0:0:
299,254,32781,1,6,0:0:0:0:
160,145,32953,2,0,P|106:135|39:165,1,101.999996887207,2|0,0:0|0:0,0:0:0:0:
114,225,33296,1,10,0:0:0:0:
69,58,33467,2,0,P|116:52|173:63,1,85,2|0,0:0|0:0,0:0:0:0:
354,302,33810,6,0,P|371:232|328:146,1,118.999996368408,10|0,0:1|0:0,0:0:0:0:
347,167,34153,1,4,0:0:0:0:
268,240,34324,1,2,0:0:0:0:
289,78,34496,2,0,L|413:82,1,118.999996368408,8|0,0:0|0:0,0:0:0:0:
431,81,34838,1,4,0:0:0:0:
347,167,35010,1,2,0:0:0:0:
217,16,35181,2,0,P|200:86|243:172,1,118.999996368408,8|0,0:0|0:0,0:0:0:0:
224,149,35524,1,4,0:0:0:0:
289,78,35696,1,2,0:0:0:0:
275,246,35867,1,8,0:0:0:0:
89,189,36038,5,2,0:0:0:0:
71,219,36123,1,2,0:0:0:0:
73,254,36209,1,10,0:0:0:0:
95,281,36295,1,2,0:0:0:0:
129,291,36381,2,0,P|172:276|188:240,2,59.4999981842042,6|2|10,0:0|0:0|0:0,0:0:0:0:
212,349,36638,5,2,0:0:0:0:
245,339,36724,2,0,P|288:354|304:390,1,59.4999981842042,10|0,0:0|0:0,0:0:0:0:
323,152,36896,5,6,0:0:0:0:
306,176,36981,1,2,0:0:0:0:
298,205,37067,1,2,0:0:0:0:
300,234,37153,1,0,0:0:0:0:
311,260,37238,2,0,P|331:284|360:299,1,59.4999981842042,10|0,0:0|0:0,0:0:0:0:
440,194,37410,2,0,P|410:198|383:216,1,59.4999981842042,8|0,0:0|0:0,0:0:0:0:
431,337,37581,2,0,P|441:309|439:276,1,59.4999981842042,4|0,0:0|0:0,0:0:0:0:
376,224,37753,1,0,0:0:0:0:
352,384,37924,1,8,0:0:0:0:
325,135,38096,5,2,0:0:0:0:
400,127,38182,1,2,0:0:0:0:
463,169,38267,1,6,0:0:0:0:
355,64,38438,1,2,0:0:0:0:
224,177,38610,5,10,0:0:0:0:
191,225,38695,1,2,0:0:0:0:
197,283,38781,1,2,0:0:0:0:
253,100,38953,2,2,B|206:100|206:100|178:110|178:110|124:110,1,118.999996368408,2|6,0:0|0:0,0:0:0:0:
315,250,39296,1,10,0:0:0:0:
237,26,39467,2,2,B|190:26|190:26|162:36|162:36|108:36,2,118.999996368408,2|6|2,0:0|0:0|0:0,0:0:0:0:
366,35,39981,5,8,0:0:0:0:
282,176,40153,1,8,0:0:0:0:
399,113,40324,2,2,B|403:145|403:145|422:162|422:162|407:181|407:181|412:217,1,118.999996368408,10|2,0:0|0:0,0:0:0:0:
274,195,40667,2,2,B|279:231|279:231|264:250|264:250|283:267|283:267|287:299,1,118.999996368408,10|2,0:0|0:0,0:0:0:0:
188,150,41010,5,6,0:0:0:0:
149,157,41124,5,6,0:0:0:0:
110,165,41238,5,6,0:0:0:0:
72,173,41353,5,6,0:0:0:0:
65,201,41438,1,2,0:0:0:0:
69,230,41524,2,2,B|54:235|35:218|35:218|27:185|45:136,1,118.999996368408,2|10,0:0|0:0,0:0:0:0:
99,88,41867,2,2,L|34:102,1,59.4999981842042,6|2,0:0|0:0,0:0:0:0:
215,0,42038,1,10,0:0:0:0:
233,23,42123,1,0,0:0:0:0:
245,50,42209,1,0,0:0:0:0:
248,79,42295,1,0,0:0:0:0:
242,109,42381,2,0,P|239:195|279:248,1,118.999996368408,6|0,0:0|0:0,0:0:0:0:
320,158,42724,5,8,0:0:0:0:
344,346,42896,1,8,0:0:0:0:
198,270,43067,2,0,L|339:260,1,118.999996368408,4|0,0:0|0:0,0:0:0:0:
388,170,43410,5,8,0:0:0:0:
407,179,43496,1,0,0:0:0:0:
425,188,43581,1,2,0:0:0:0:
453,115,43667,1,2,0:0:0:0:
416,46,43753,1,6,0:0:0:0:
206,154,43924,2,0,L|328:127,1,118.999996368408,2|8,0:0|0:0,0:0:0:0:
367,44,44267,1,8,0:0:0:0:
171,238,44438,2,0,L|284:213,1,85,10|4,0:0|0:0,0:0:0:0:
281,212,44696,1,4,0:0:0:0:
320,203,44782,5,6,0:0:0:0:
246,66,44953,1,8,0:0:0:0:
246,66,45124,1,8,0:0:0:0:
385,250,45296,5,6,0:0:0:0:
477,49,45467,1,8,0:0:0:0:
477,49,45638,1,8,0:0:0:0:
455,300,45810,5,4,0:0:0:0:
363,99,45981,1,8,0:0:0:0:
363,99,46152,1,8,0:0:0:0:
315,280,46324,5,4,0:0:0:0:
140,116,46496,1,8,0:0:0:0:
169,340,46667,1,8,0:0:0:0:
264,150,46838,1,8,0:0:0:0:
89,243,47010,1,8,0:0:0:0:
246,290,47181,1,8,0:0:0:0:
188,185,47353,1,4,0:0:0:0:
379,209,47524,5,4,0:0:0:0:
397,186,47609,1,0,0:0:0:0:
407,158,47695,1,0,0:0:0:0:
406,129,47781,1,0,0:0:0:0:
396,101,47866,1,0,0:0:0:0:
376,78,47952,1,0,0:0:0:0:
350,64,48038,1,4,0:0:0:0:
321,59,48124,1,0,0:0:0:0:
292,65,48210,1,0,0:0:0:0:
302,105,48295,1,0,0:0:0:0:
291,145,48381,1,0,0:0:0:0:
263,175,48467,1,0,0:0:0:0:
224,186,48552,1,4,0:0:0:0:
183,176,48638,1,4,0:0:0:0:
153,148,48724,1,4,0:0:0:0:
140,109,48809,1,2,0:0:0:0:
148,69,48896,6,2,L|160:30,28,29.7499990921021
134,233,50267,5,6,0:0:0:0:
70,318,51638,1,2,0:0:0:0:
121,377,52324,1,2,0:0:0:0:
256,192,53010,12,0,54724,0:0:0:0:
312,105,54896,5,2,0:0:0:0:
192,304,55067,1,2,0:0:0:0:
419,303,55238,2,0,P|364:288|430:282,1,170,2|2,0:0|0:0,0:0:0:0:
104,59,55753,6,0,L|86:199,1,127.500004863739,10|0,0:1|0:0,0:0:0:0:
96,195,56010,1,0,0:0:0:0:
103,206,56096,1,4,0:0:0:0:
246,101,56267,2,0,P|329:74|390:96,1,127.500004863739,2|8,0:0|0:0,0:0:0:0:
369,259,56610,2,0,P|286:286|225:264,1,127.500004863739,0|4,0:0|0:0,0:0:0:0:
228,81,56953,2,0,P|311:54|372:76,1,127.500004863739,0|8,0:0|0:0,0:0:0:0:
471,210,57296,1,0,0:0:0:0:
302,134,57467,1,6,0:0:0:0:
450,33,57638,1,0,0:0:0:0:
465,226,57810,1,8,0:0:0:0:
213,124,57981,2,0,L|367:113,1,127.500004863739,2|0,0:0|0:0,0:0:0:0:
429,299,58324,1,2,0:0:0:0:
424,312,58409,1,2,0:0:0:0:
419,328,58495,5,10,0:0:0:0:
191,142,58667,2,0,P|176:116|229:2,1,127.500004863739,0|4,0:0|0:0,0:0:0:0:
380,238,59010,2,0,P|395:264|342:378,1,127.500004863739,2|8,0:0|0:0,0:0:0:0:
176,141,59353,2,0,P|161:115|214:1,1,127.500004863739,0|4,0:0|0:0,0:0:0:0:
369,215,59696,1,0,0:0:0:0:
210,295,59867,6,0,B|174:308|174:308|67:299,1,127.500004863739,8|0,0:0|0:0,0:0:0:0:
281,216,60210,2,0,P|310:152|449:174,1,191.250007295609,6|0,0:0|0:0,0:0:0:0:
445,137,60553,2,0,P|382:98|202:138,1,216.750004134178,10|0,0:0|0:0,0:0:0:0:
226,125,60896,2,0,P|150:161|60:121,1,170,6|0,0:0|0:0,0:0:0:0:
385,227,61238,6,0,P|409:268|386:356,1,127.500004863739,10|0,0:1|0:0,0:0:0:0:
145,75,61581,1,4,0:0:0:0:
384,203,61753,2,0,P|413:263|400:331,1,127.500004863739,2|8,0:0|0:0,0:0:0:0:
133,65,62096,1,0,0:0:0:0:
257,247,62267,1,4,0:0:0:0:
379,65,62438,1,0,0:0:0:0:
241,271,62610,6,0,P|184:297|84:263,1,127.500004863739,8|0,0:0|0:0,0:0:0:0:
102,54,62953,2,0,P|186:45|282:161,1,191.250007295609,6|0,0:0|0:0,0:0:0:0:
355,92,63296,2,0,P|342:150|307:182,1,63.7500024318696,10|0,0:0|0:0,0:0:0:0:
173,149,63467,2,0,P|198:199|196:285,1,127.500004863739,2|4,0:0|0:0,0:0:0:0:
330,268,63810,1,2,0:0:0:0:
327,293,63896,1,2,0:0:0:0:
334,320,63981,5,10,0:0:0:0:
100,211,64153,1,2,0:0:0:0:
425,221,64324,1,6,0:0:0:0:
75,198,64496,2,0,L|216:195,1,127.500004863739,2|8,0:0|0:0,0:0:0:0:
442,193,64838,1,0,0:0:0:0:
255,301,65010,1,4,0:0:0:0:
278,65,65181,1,0,0:0:0:0:
458,161,65353,5,8,0:0:0:0:
442,202,65438,1,0,0:0:0:0:
427,243,65524,1,0,0:0:0:0:
311,41,65696,2,0,L|291:172,1,127.500004863739,6|2,0:0|0:0,0:0:0:0:
240,360,66038,5,2,0:0:0:0:
217,340,66124,1,2,0:0:0:0:
126,252,66295,1,2,0:0:0:0:
140,241,66381,1,6,0:0:0:0:
155,164,66467,1,2,0:0:0:0:
141,153,66553,1,2,0:0:0:0:
105,241,66724,6,0,L|246:228,1,136,10|0,0:1|0:0,0:0:0:0:
460,137,67067,1,4,0:0:0:0:
142,150,67238,2,0,P|111:83|128:6,1,136,2|8,0:0|0:0,0:0:0:0:
230,228,67581,2,0,P|261:295|244:372,1,136,0|4,0:0|0:0,0:0:0:0:
203,63,67924,2,0,L|344:52,1,136,0|8,0:0|0:0,0:0:0:0:
474,38,68267,5,0,0:0:0:0:
378,292,68438,2,0,P|380:234|498:141,1,204,6|0,0:0|0:0,0:0:0:0:
499,149,68781,1,8,0:0:0:0:
282,241,68953,2,0,P|273:286|290:378,1,136,2|4,0:0|0:0,0:0:0:0:
213,118,69296,1,2,0:0:0:0:
256,102,69381,1,2,0:0:0:0:
291,70,69467,6,0,L|131:59,1,136,10|0,0:0|0:0,0:0:0:0:
463,224,69810,1,4,0:0:0:0:
253,210,69981,2,0,L|93:199,1,136,2|8,0:0|0:0,0:0:0:0:
460,195,70324,1,0,0:0:0:0:
261,328,70496,1,4,0:0:0:0:
353,92,70667,1,0,0:0:0:0:
390,278,70838,5,8,0:0:0:0:
262,14,71010,1,0,0:0:0:0:
257,36,71096,1,0,0:0:0:0:
253,56,71181,2,0,P|224:101|61:118,1,204,6|0,0:0|0:0,0:0:0:0:
71,142,71524,2,0,P|116:189|270:187,1,229.499992996216,10|0,0:0|0:0,0:0:0:0:
296,166,71867,2,0,P|339:124|464:154,1,170,6|0,0:0|0:0,0:0:0:0:
438,319,72210,6,0,P|402:343|306:323,1,136,10|0,0:1|0:0,0:0:0:0:
196,179,72553,1,4,0:0:0:0:
346,63,72724,2,0,L|373:220,1,136,2|8,0:0|0:0,0:0:0:0:
187,209,73067,2,0,L|160:366,1,136,0|4,0:0|0:0,0:0:0:0:
339,40,73410,1,0,0:0:0:0:
151,70,73581,5,8,0:0:0:0:
391,150,73753,1,0,0:0:0:0:
156,49,73924,2,0,P|129:66|127:182,1,136,6|0,0:0|0:0,0:0:0:0:
137,341,74267,2,0,P|164:324|166:208,1,136,8|2,0:0|0:0,0:0:0:0:
350,141,74610,2,0,L|208:125,1,136,4|2,0:0|0:0,0:0:0:0:
196,125,74867,1,2,0:0:0:0:
180,121,74953,5,10,0:0:0:0:
254,234,75124,1,2,0:0:0:0:
240,43,75296,1,6,0:0:0:0:
341,203,75467,1,2,0:0:0:0:
333,63,75638,6,0,P|334:30|313:4,2,68,10|2|2,0:0|0:0|0:0,0:0:0:0:
412,117,75896,2,0,P|435:75|439:35,2,68,2|6|2,0:0|0:0|0:0,0:0:0:0:
313,253,76153,2,0,P|309:302|320:343,2,68,2|2|10,0:0|0:0|0:0,0:0:0:0:
244,180,76410,2,0,P|224:216|222:261,2,68,2|2|2,0:0|0:0|0:0,0:0:0:0:
212,72,76667,5,6,0:0:0:0:
181,108,76753,1,2,0:0:0:0:
134,117,76838,1,2,0:0:0:0:
88,103,76924,1,2,0:0:0:0:
57,139,77010,1,10,0:0:0:0:
43,184,77096,1,2,0:0:0:0:
50,231,77181,1,2,0:0:0:0:
96,240,77267,1,2,0:0:0:0:
122,279,77353,1,6,0:0:0:0:
124,326,77438,1,2,0:0:0:0:
115,351,77524,2,0,L|167:343,1,42.5,2|0,0:0|0:0,0:0:0:0:
381,276,77696,5,10,0:1:0:0:
345,299,77781,1,0,0:0:0:0:
304,305,77867,1,0,0:0:0:0:
263,295,77953,1,0,0:0:0:0:
230,268,78038,1,4,0:0:0:0:
211,230,78124,1,0,0:0:0:0:
210,188,78210,1,2,0:0:0:0:
225,149,78296,1,0,0:0:0:0:
256,120,78382,1,8,0:0:0:0:
286,149,78467,1,0,0:0:0:0:
302,188,78553,1,0,0:0:0:0:
300,230,78639,1,0,0:0:0:0:
281,268,78725,1,4,0:0:0:0:
248,295,78810,1,0,0:0:0:0:
207,305,78896,1,0,0:0:0:0:
166,299,78982,1,0,0:0:0:0:
131,276,79068,5,8,0:0:0:0:
164,249,79153,1,0,0:0:0:0:
205,239,79239,1,0,0:0:0:0:
246,245,79325,1,0,0:0:0:0:
281,268,79411,1,6,0:0:0:0:
316,291,79496,1,0,0:0:0:0:
357,297,79582,1,0,0:0:0:0:
398,287,79668,1,0,0:0:0:0:
431,260,79752,1,8,0:0:0:0:
454,225,79838,1,0,0:0:0:0:
460,184,79924,1,2,0:0:0:0:
450,143,80010,1,0,0:0:0:0:
423,110,80095,1,4,0:0:0:0:
385,91,80181,1,0,0:0:0:0:
343,89,80267,1,2,0:0:0:0:
304,105,80353,1,2,0:0:0:0:
275,135,80439,5,10,0:0:0:0:
246,165,80524,1,0,0:0:0:0:
207,181,80610,1,0,0:0:0:0:
165,179,80696,1,0,0:0:0:0:
127,160,80782,1,4,0:0:0:0:
100,127,80867,1,0,0:0:0:0:
90,86,80953,1,2,0:0:0:0:
96,45,81039,1,0,0:0:0:0:
119,10,81125,1,8,0:0:0:0:
146,43,81210,1,0,0:0:0:0:
156,84,81296,1,0,0:0:0:0:
150,125,81382,1,0,0:0:0:0:
127,160,81467,1,4,0:0:0:0:
104,195,81553,1,0,0:0:0:0:
98,236,81639,1,0,0:0:0:0:
108,277,81725,1,0,0:0:0:0:
135,310,81810,5,8,0:0:0:0:
158,275,81896,1,0,0:0:0:0:
164,234,81982,1,0,0:0:0:0:
154,193,82068,1,0,0:0:0:0:
127,160,82153,6,0,P|214:187|288:133,1,168.299999486389,6|0,0:0|0:0,0:0:0:0:
276,150,82496,2,0,P|248:237|302:311,1,168.299999486389,6|0,0:0|0:0,0:0:0:0:
283,299,82838,2,0,P|195:271|121:325,1,168.299999486389,6|0,0:0|0:0,0:0:0:0:
254,384,83181,5,10,0:1:0:0:
270,382,83266,1,0,0:0:0:0:
287,380,83353,2,0,L|345:371,1,59.4999981842042,0|0,0:0|0:0,0:0:0:0:
297,141,83524,5,4,0:0:0:0:
260,187,83609,1,0,0:0:0:0:
258,245,83696,2,0,P|266:273|282:298,1,59.4999981842042,2|0,0:0|0:0,0:0:0:0:
438,237,83867,5,8,0:0:0:0:
422,235,83952,1,0,0:0:0:0:
405,233,84039,2,0,L|346:224,1,59.4999981842042,0|0,0:0|0:0,0:0:0:0:
218,97,84210,5,4,0:0:0:0:
264,60,84295,1,0,0:0:0:0:
322,58,84382,2,0,P|350:66|375:82,1,59.4999981842042,0|0,0:0|0:0,0:0:0:0:
147,42,84553,5,8,0:0:0:0:
145,58,84638,1,0,0:0:0:0:
143,75,84725,2,0,L|134:133,1,59.4999981842042,0|0,0:0|0:0,0:0:0:0:
39,228,84896,5,6,0:0:0:0:
2,182,84981,1,0,0:0:0:0:
0,124,85068,2,0,P|8:95|24:70,1,59.4999981842042,0|0,0:0|0:0,0:0:0:0:
124,219,85238,5,8,0:0:0:0:
140,217,85323,1,0,0:0:0:0:
157,215,85410,2,0,L|215:206,1,59.4999981842042,2|0,0:0|0:0,0:0:0:0:
299,133,85581,5,4,0:0:0:0:
336,179,85666,1,0,0:0:0:0:
338,237,85753,2,0,P|329:265|313:290,1,59.4999981842042,2|2,0:0|0:0,0:0:0:0:
261,368,85924,5,10,0:0:0:0:
287,380,86009,1,0,0:0:0:0:
317,383,86095,1,2,0:0:0:0:
346,377,86181,1,0,0:0:0:0:
371,362,86267,1,6,0:0:0:0:
396,347,86352,1,0,0:0:0:0:
426,341,86438,1,2,0:0:0:0:
454,346,86524,1,0,0:0:0:0:
482,357,86610,5,8,0:0:0:0:
457,372,86696,1,0,0:0:0:0:
428,378,86782,1,0,0:0:0:0:
398,375,86868,1,0,0:0:0:0:
371,363,86953,1,4,0:0:0:0:
350,342,87039,1,0,0:0:0:0:
335,316,87125,1,0,0:0:0:0:
330,287,87211,1,0,0:0:0:0:
334,258,87296,5,8,0:0:0:0:
338,228,87381,1,0,0:0:0:0:
333,199,87467,1,0,0:0:0:0:
318,173,87553,1,0,0:0:0:0:
297,153,87639,1,6,0:0:0:0:
270,140,87724,1,0,0:0:0:0:
241,137,87810,1,2,0:0:0:0:
212,142,87896,1,0,0:0:0:0:
187,158,87981,5,10,0:0:0:0:
203,183,88067,1,0,0:0:0:0:
209,212,88153,6,0,P|208:260|184:294,1,55.2499974708558,2|0,0:0|0:0,0:0:0:0:
92,180,88324,2,0,P|93:228|117:262,1,55.2499974708558,4|0,0:0|0:0,0:0:0:0:
139,368,88496,2,0,P|145:341|142:314,1,55.2499974708558,2|0,0:0|0:0,0:0:0:0:
302,198,88667,5,10,0:1:0:0:
341,183,88752,1,0,0:0:0:0:
383,183,88838,1,0,0:0:0:0:
424,198,88924,1,0,0:0:0:0:
457,223,89009,1,4,0:0:0:0:
478,260,89095,1,0,0:0:0:0:
489,300,89181,1,2,0:0:0:0:
485,343,89267,1,0,0:0:0:0:
467,379,89352,5,8,0:0:0:0:
445,345,89438,1,0,0:0:0:0:
435,303,89524,1,0,0:0:0:0:
438,260,89610,1,0,0:0:0:0:
457,223,89696,1,4,0:0:0:0:
474,186,89781,1,0,0:0:0:0:
477,144,89867,1,0,0:0:0:0:
468,103,89953,1,0,0:0:0:0:
445,66,90039,5,8,0:0:0:0:
412,41,90124,1,0,0:0:0:0:
372,27,90210,1,0,0:0:0:0:
330,26,90296,1,0,0:0:0:0:
290,40,90381,1,6,0:0:0:0:
249,54,90467,1,0,0:0:0:0:
207,53,90553,1,0,0:0:0:0:
168,39,90639,1,0,0:0:0:0:
135,14,90724,5,8,0:0:0:0:
175,0,90810,1,0,0:0:0:0:
217,0,90896,1,2,0:0:0:0:
257,15,90982,1,0,0:0:0:0:
290,40,91067,1,4,0:0:0:0:
313,77,91153,1,0,0:0:0:0:
322,117,91239,1,2,0:0:0:0:
319,159,91325,1,2,0:0:0:0:
303,197,91410,5,10,0:0:0:0:
272,228,91496,1,0,0:0:0:0:
237,248,91582,1,0,0:0:0:0:
195,255,91668,1,0,0:0:0:0:
155,247,91753,1,4,0:0:0:0:
114,240,91838,1,0,0:0:0:0:
73,247,91924,1,2,0:0:0:0:
37,267,92010,1,0,0:0:0:0:
7,298,92096,5,8,0:0:0:0:
48,306,92181,1,0,0:0:0:0:
89,299,92267,1,0,0:0:0:0:
125,278,92353,1,0,0:0:0:0:
155,247,92438,1,4,0:0:0:0:
185,216,92524,1,0,0:0:0:0:
221,196,92610,1,0,0:0:0:0:
262,189,92696,1,0,0:0:0:0:
303,197,92781,5,8,0:0:0:0:
272,228,92867,1,0,0:0:0:0:
237,248,92953,1,0,0:0:0:0:
195,255,93039,1,0,0:0:0:0:
155,247,93124,6,0,P|120:224|101:81,1,191.250007295609,6|0,0:0|0:0,0:0:0:0:
97,86,93467,2,0,P|132:109|151:252,1,191.250007295609,14|0,0:0|0:0,0:0:0:0:
154,246,93810,2,0,P|142:275|140:307,1,63.7500024318696,6|0,0:0|0:0,0:0:0:0:
230,122,93981,2,0,P|241:151|243:183,1,63.7500024318696,2|0,0:0|0:0,0:0:0:0:
338,267,94153,5,10,0:1:0:0:
335,287,94238,1,0,0:0:0:0:
333,307,94325,2,0,L|322:376,1,68,0|0,0:0|0:0,0:0:0:0:
243,183,94496,5,4,0:0:0:0:
298,139,94581,1,0,0:0:0:0:
367,136,94668,2,0,P|400:145|430:164,1,68,2|0,0:0|0:0,0:0:0:0:
230,111,94838,5,8,0:0:0:0:
227,91,94923,1,0,0:0:0:0:
225,71,95010,2,0,L|214:1,1,68,0|0,0:0|0:0,0:0:0:0:
96,35,95181,5,4,0:0:0:0:
52,90,95266,1,0,0:0:0:0:
49,159,95353,2,0,P|58:192|77:222,1,68,0|0,0:0|0:0,0:0:0:0:
195,290,95524,5,8,0:0:0:0:
198,270,95609,1,0,0:0:0:0:
200,250,95696,2,0,L|210:180,1,68,0|0,0:0|0:0,0:0:0:0:
289,337,95867,5,6,0:0:0:0:
234,381,95952,1,0,0:0:0:0:
165,384,96039,2,0,P|131:374|101:355,1,68,0|0,0:0|0:0,0:0:0:0:
283,233,96210,5,8,0:0:0:0:
298,245,96295,1,0,0:0:0:0:
315,257,96382,2,0,L|369:301,1,68,2|0,0:0|0:0,0:0:0:0:
101,270,96553,5,4,0:0:0:0:
90,201,96638,1,0,0:0:0:0:
122,140,96724,2,0,P|147:115|178:99,1,68,2|2,0:0|0:0,0:0:0:0:
295,67,96896,5,10,0:0:0:0:
304,112,96981,1,0,0:0:0:0:
332,151,97067,1,2,0:0:0:0:
374,173,97153,1,0,0:0:0:0:
421,176,97238,1,6,0:0:0:0:
464,158,97324,1,0,0:0:0:0:
495,121,97410,1,2,0:0:0:0:
508,76,97496,1,0,0:0:0:0:
499,30,97581,5,10,0:0:0:0:
447,52,97667,1,2,0:0:0:0:
409,94,97753,1,2,0:0:0:0:
395,148,97839,1,2,0:0:0:0:
405,204,97925,1,6,0:0:0:0:
414,261,98010,1,2,0:0:0:0:
400,315,98096,1,2,0:0:0:0:
362,357,98182,1,2,0:0:0:0:
44,246,98953,1,0,0:0:0:0:
45,273,99039,1,0,0:0:0:0:
39,299,99124,6,0,P|28:302|48:306,1,68,2|0,0:0|0:0,0:0:0:0:
228,367,99296,2,0,P|239:364|219:360,1,68,10|0,0:0|0:0,0:0:0:0:
93,164,99467,2,0,P|59:164|25:171,1,68,8|0,0:0|0:0,0:0:0:0:
347,95,99638,6,0,P|363:151|350:209,1,118.999996368408,8|2,0:1|0:0,0:0:0:0:
332,229,99981,1,4,0:0:0:0:
251,78,100153,1,2,0:0:0:0:
189,233,100324,1,2,0:0:0:0:
189,233,100410,1,2,0:0:0:0:
189,233,100496,2,0,P|120:236|102:228,1,59.4999981842042,10|0,0:0|0:0,0:0:0:0:
93,164,100667,2,0,P|161:160|179:168,1,59.4999981842042,4|0,0:0|0:0,0:0:0:0:
195,322,100838,6,0,P|139:341|81:331,2,118.999996368408,2|8|2,0:0|0:0|0:0,0:0:0:0:
49,238,101353,1,4,0:0:0:0:
21,374,101524,1,2,0:0:0:0:
195,322,101696,1,2,0:0:0:0:
218,319,101781,1,2,0:0:0:0:
242,321,101867,1,10,0:0:0:0:
49,238,102038,1,4,0:0:0:0:
73,144,102210,2,0,P|96:217|68:271,1,118.999996368408,2|8,0:0|0:0,0:0:0:0:
6,99,102553,5,2,0:0:0:0:
161,36,102724,2,0,B|219:16|269:50|269:50|321:85|388:57,1,237.999992736817,4|2,0:0|0:0,0:0:0:0:
399,52,103153,1,2,0:0:0:0:
409,47,103238,1,10,0:0:0:0:
213,113,103410,6,0,P|195:197|219:271,1,118.999996368408,4|2,0:0|0:0,0:0:0:0:
333,180,103753,1,8,0:0:0:0:
401,295,103924,1,2,0:0:0:0:
401,295,104096,2,0,P|317:313|243:289,1,118.999996368408,4|2,0:0|0:0,0:0:0:0:
303,109,104438,1,2,0:0:0:0:
303,109,104524,1,2,0:0:0:0:
303,109,104610,2,0,P|352:105|401:120,1,59.4999981842042,10|0,0:0|0:0,0:0:0:0:
399,181,104781,2,0,P|349:186|300:171,1,59.4999981842042,4|0,0:0|0:0,0:0:0:0:
203,189,104953,1,2,0:0:0:0:
191,0,105124,6,0,B|178:38|178:38|193:135,1,118.999996368408,8|2,0:0|0:0,0:0:0:0:
216,264,105467,2,0,L|235:382,1,118.999996368408,4|2,0:0|0:0,0:0:0:0:
126,218,105810,1,2,0:0:0:0:
123,235,105896,1,2,0:0:0:0:
120,252,105981,1,10,0:0:0:0:
68,384,106153,2,0,L|57:322,1,59.4999981842042,4|0,0:0|0:0,0:0:0:0:
9,140,106324,2,0,B|-8:198|-8:198|4:270,2,118.999996368408,2|8|2,0:0|0:0|0:0,0:0:0:0:
120,252,106838,6,0,P|189:275|246:255,1,118.999996368408,4|2,0:0|0:0,0:0:0:0:
217,123,107181,1,2,0:0:0:0:
215,147,107267,1,2,0:0:0:0:
218,170,107352,1,10,0:0:0:0:
313,47,107524,1,4,0:0:0:0:
357,237,107696,1,2,0:0:0:0:
422,158,107867,2,0,P|355:137|293:149,1,118.999996368408,8|2,0:0|0:0,0:0:0:0:
43,143,108210,6,0,B|24:100|66:62|66:62|141:50|196:134,1,237.999992736817,4|0,0:0|0:0,0:0:0:0:
221,261,108724,2,0,B|178:280|140:238|140:238|128:163|212:108,1,220.999989883423,8|0,0:0|0:0,0:0:0:0:
425,219,109238,6,0,B|444:176|402:138|402:138|327:126|272:210,1,237.999992736817,4|0,0:0|0:0,0:0:0:0:
246,337,109753,2,0,B|289:356|327:314|327:314|339:239|255:184,1,220.999989883423,8|0,0:0|0:0,0:0:0:0:
97,294,110267,2,0,P|93:251|100:226,1,50.9999984436036,4|0,0:0|0:0,0:0:0:0:
170,384,110438,2,0,P|174:341|167:316,1,50.9999984436036,2|0,0:0|0:0,0:0:0:0:
225,127,110610,6,0,P|282:116|339:133,1,118.999996368408,8|0,0:1|0:0,0:0:0:0:
447,212,110953,1,4,0:0:0:0:
348,244,111124,1,2,0:0:0:0:
393,63,111296,1,2,0:0:0:0:
393,63,111381,1,2,0:0:0:0:
393,63,111467,2,0,P|355:47|324:45,1,59.4999981842042,10|0,0:0|0:0,0:0:0:0:
422,135,111638,2,0,P|451:129|477:116,1,59.4999981842042,4|0,0:0|0:0,0:0:0:0:
279,192,111810,6,0,P|268:249|285:306,2,118.999996368408,2|8|2,0:0|0:0|0:0,0:0:0:0:
347,369,112324,2,0,P|290:385|232:375,1,118.999996368408,4|2,0:0|0:0,0:0:0:0:
164,230,112667,1,2,0:0:0:0:
161,247,112753,1,2,0:0:0:0:
158,264,112838,2,0,L|148:322,1,59.4999981842042,10|0,0:0|0:0,0:0:0:0:
279,192,113010,1,4,0:0:0:0:
108,163,113181,2,0,B|86:189|86:189|70:279,1,118.999996368408,2|8,0:0|0:0,0:0:0:0:
199,177,113524,5,2,0:0:0:0:
60,47,113696,2,0,B|114:28|170:57|170:57|232:86|289:56,1,237.999992736817,4|2,0:0|0:0,0:0:0:0:
305,48,114124,1,2,0:0:0:0:
320,38,114210,1,10,0:0:0:0:
433,152,114381,6,0,P|439:226|402:289,1,118.999996368408,4|2,0:0|0:0,0:0:0:0:
306,369,114724,1,8,0:0:0:0:
232,212,114896,1,2,0:0:0:0:
232,212,115067,2,0,P|226:286|263:349,1,118.999996368408,4|2,0:0|0:0,0:0:0:0:
300,102,115410,1,2,0:0:0:0:
300,102,115496,1,2,0:0:0:0:
300,102,115581,2,0,P|306:143|296:178,1,59.4999981842042,10|0,0:0|0:0,0:0:0:0:
221,130,115753,2,0,P|215:89|225:54,1,59.4999981842042,4|0,0:0|0:0,0:0:0:0:
120,0,115924,2,0,P|61:-10|5:6,2,118.999996368408,2|8|2,0:0|0:0|0:0,0:0:0:0:
64,113,116438,6,0,B|43:151|43:151|50:237,1,118.999996368408,4|2,0:0|0:0,0:0:0:0:
144,314,116781,1,2,0:0:0:0:
161,315,116867,1,2,0:0:0:0:
178,313,116953,1,10,0:0:0:0:
319,300,117124,2,0,L|245:308,1,59.4999981842042,4|0,0:0|0:0,0:0:0:0:
209,136,117296,2,0,P|198:203|226:260,2,118.999996368408,2|8|2,0:0|0:0|0:0,0:0:0:0:
299,55,117810,6,0,L|311:182,1,118.999996368408,4|2,0:0|0:0,0:0:0:0:
319,300,118152,1,2,0:0:0:0:
321,318,118238,1,2,0:0:0:0:
322,336,118324,2,0,L|387:331,1,59.4999981842042,10|0,0:0|0:0,0:0:0:0:
239,232,118496,2,0,L|179:227,1,59.4999981842042,4|0,0:0|0:0,0:0:0:0:
195,381,118667,1,2,0:0:0:0:
105,167,118838,2,0,P|88:229|104:286,1,118.999996368408,8|2,0:0|0:0,0:0:0:0:
306,112,119181,6,0,B|374:162|361:253|361:253|322:236|315:186,1,237.999992736817,4|0,0:0|0:0,0:0:0:0:
252,47,119696,2,0,B|184:97|197:188|197:188|236:171|243:121,1,220.999989883423,8|0,0:0|0:0,0:0:0:0:
379,306,120210,6,0,B|447:256|434:165|434:165|395:182|389:224,1,237.999992736817,4|0,0:0|0:0,0:0:0:0:
323,370,120724,2,0,B|256:320|269:229|269:229|308:246|309:273,1,220.999989883423,8|0,0:0|0:0,0:0:0:0:
202,140,121238,2,0,P|246:122|280:119,1,59.4999981842042,8|0,0:0|0:0,0:0:0:0:
355,56,121410,2,0,P|311:38|277:35,1,59.4999981842042,2|0,0:0|0:0,0:0:0:0:
20,81,121581,6,0,P|76:64|134:77,1,118.999996368408,8|2,0:1|0:0,0:0:0:0:
169,234,121924,1,4,0:0:0:0:
80,144,122096,1,2,0:0:0:0:
29,323,122267,1,2,0:0:0:0:
45,327,122353,1,2,0:0:0:0:
62,327,122438,2,0,P|102:320|122:309,1,59.4999981842042,10|0,0:0|0:0,0:0:0:0:
169,234,122610,2,0,P|142:221|112:219,1,59.4999981842042,4|0,0:0|0:0,0:0:0:0:
276,348,122781,2,0,B|292:361|292:361|296:234,2,118.999996368408,2|8|2,0:0|0:0|0:0,0:0:0:0:
240,179,123296,6,0,P|322:170|367:192,1,118.999996368408,4|2,0:0|0:0,0:0:0:0:
452,121,123638,1,2,0:0:0:0:
455,138,123724,1,2,0:0:0:0:
458,155,123810,2,0,L|467:213,1,59.4999981842042,10|0,0:0|0:0,0:0:0:0:
509,35,123981,1,4,0:0:0:0:
326,46,124153,2,0,B|351:64|351:64|449:49,1,118.999996368408,2|8,0:0|0:0,0:0:0:0:
270,0,124496,5,2,0:0:0:0:
225,128,124667,2,0,B|205:186|239:236|239:236|274:288|246:355,1,237.999992736817,4|2,0:0|0:0,0:0:0:0:
237,371,125096,1,2,0:0:0:0:
226,384,125181,1,10,0:0:0:0:
61,307,125353,6,0,P|117:323|173:308,1,118.999996368408,4|2,0:0|0:0,0:0:0:0:
118,151,125696,1,8,0:0:0:0:
117,249,125867,1,2,0:0:0:0:
57,82,126038,2,0,B|86:62|86:62|184:64,1,118.999996368408,4|2,0:0|0:0,0:0:0:0:
263,187,126381,1,2,0:0:0:0:
267,171,126467,1,2,0:0:0:0:
267,154,126552,2,0,P|260:113|249:93,1,59.4999981842042,10|0,0:0|0:0,0:0:0:0:
329,0,126724,2,0,P|316:26|314:56,1,59.4999981842042,4|0,0:0|0:0,0:0:0:0:
422,160,126896,2,0,P|423:241|363:295,2,118.999996368408,2|8|2,0:0|0:0|0:0,0:0:0:0:
333,303,127410,5,4,0:0:0:0:
267,154,127581,1,2,0:0:0:0:
233,283,127753,1,2,0:0:0:0:
230,300,127839,1,2,0:0:0:0:
227,317,127924,1,10,0:0:0:0:
187,192,128096,2,0,L|174:120,1,59.4999981842042,4|0,0:0|0:0,0:0:0:0:
105,273,128267,2,0,P|61:335|76:395,2,118.999996368408,2|8|2,0:0|0:0|0:0,0:0:0:0:
304,347,128781,2,0,P|303:288|264:245,1,118.999996368408,4|8,0:0|0:0,0:0:0:0:
142,136,129124,5,2,0:0:0:0:
159,131,129210,1,2,0:0:0:0:
176,133,129296,1,10,0:0:0:0:
299,172,129467,2,0,P|343:177|416:157,1,118.999996368408,4|2,0:0|0:0,0:0:0:0:
485,0,129810,2,0,P|490:44|470:117,1,118.999996368408,4|2,0:0|0:0,0:0:0:0:
284,243,130153,6,0,B|247:146|290:74|290:74|261:90|222:85,1,237.999992736817,4|0,0:0|0:0,0:0:0:0:
120,169,130667,2,0,B|157:71|114:0|114:0|143:15|182:10,1,220.999989883423,8|0,0:0|0:0,0:0:0:0:
360,153,131181,6,0,B|322:250|365:322|365:322|336:306|297:311,1,237.999992736817,4|0,0:0|0:0,0:0:0:0:
196,227,131695,2,0,B|233:324|190:396|190:396|219:380|258:385,1,237.999992736817,8|0,0:0|0:0,0:0:0:0:
369,261,132210,2,0,P|386:314|388:332,1,50.9999984436036,4|0,0:0|0:0,0:0:0:0:
212,178,132381,2,0,P|195:231|193:249,1,50.9999984436036,2|0,0:0|0:0,0:0:0:0:
423,92,132553,6,0,P|357:75|289:97,1,118.999996368408,8|2,0:1|0:0,0:0:0:0:
281,242,132896,1,4,0:0:0:0:
362,153,133067,1,2,0:0:0:0:
221,50,133238,1,2,0:0:0:0:
217,66,133324,1,2,0:0:0:0:
217,83,133410,2,0,P|224:124|235:144,1,59.4999981842042,10|0,0:0|0:0,0:0:0:0:
146,219,133581,2,0,P|157:191|161:162,1,59.4999981842042,4|0,0:0|0:0,0:0:0:0:
113,40,133753,2,0,P|65:36|-3:63,2,118.999996368408,2|8|2,0:0|0:0|0:0,0:0:0:0:
232,139,134267,6,0,B|269:158|269:158|363:144,1,118.999996368408,4|2,0:0|0:0,0:0:0:0:
422,14,134610,1,2,0:0:0:0:
428,41,134696,1,2,0:0:0:0:
433,69,134781,1,10,0:0:0:0:
464,216,134953,1,4,0:0:0:0:
345,146,135124,2,0,P|321:224|331:267,2,118.999996368408,2|8|2,0:0|0:0|0:0,0:0:0:0:
360,330,135638,5,4,0:0:0:0:
225,354,135810,1,2,0:0:0:0:
238,169,135981,1,2,0:0:0:0:
236,186,136067,1,2,0:0:0:0:
235,203,136152,2,0,L|231:261,1,59.4999981842042,10|0,0:0|0:0,0:0:0:0:
81,229,136324,1,4,0:0:0:0:
179,113,136496,6,0,B|211:86|211:86|305:97,2,118.999996368408,2|8|2,0:0|0:0|0:0,0:0:0:0:
338,35,137010,2,0,P|364:116|336:159,1,118.999996368408,4|2,0:0|0:0,0:0:0:0:
248,253,137353,1,2,0:0:0:0:
264,257,137439,1,2,0:0:0:0:
281,257,137524,2,0,P|321:250|341:239,1,59.4999981842042,10|0,0:0|0:0,0:0:0:0:
481,218,137696,2,0,P|453:205|424:202,1,59.4999981842042,4|0,0:0|0:0,0:0:0:0:
184,207,137867,2,0,P|169:263|197:314,2,118.999996368408,2|10|2,0:0|0:0|0:0,0:0:0:0:
304,103,138381,5,4,0:0:0:0:
337,241,138553,1,2,0:0:0:0:
181,118,138724,1,2,0:0:0:0:
164,115,138810,1,2,0:0:0:0:
147,112,138895,1,10,0:0:0:0:
77,205,139067,2,0,L|47:258,1,59.4999981842042,4|0,0:0|0:0,0:0:0:0:
242,70,139238,2,0,P|256:112|204:195,2,118.999996368408,2|8|2,0:0|0:0|0:0,0:0:0:0:
77,205,139753,2,0,B|56:242|56:242|65:347,1,118.999996368408,4|2,0:0|0:0,0:0:0:0:
229,178,140096,5,2,0:0:0:0:
239,191,140182,1,2,0:0:0:0:
246,207,140267,2,0,P|256:247|255:269,1,59.4999981842042,10|0,0:0|0:0,0:0:0:0:
332,359,140438,2,0,P|291:348|272:335,1,59.4999981842042,4|0,0:0|0:0,0:0:0:0:
157,359,140610,2,0,P|186:329|206:319,1,59.4999981842042,2|0,0:0|0:0,0:0:0:0:
220,7,141981,2,0,L|243:193,1,178.499994552612,4|0,0:0|0:0,0:0:0:0:
244,195,142324,1,8,0:0:0:0:
132,346,142496,2,0,L|124:286,1,59.4999981842042,4|0,0:0|0:0,0:0:0:0:
40,176,142667,2,0,L|48:117,1,59.4999981842042,4|0,0:0|0:0,0:0:0:0:
258,313,142838,1,0,0:0:0:0:
251,254,142924,1,0,0:0:0:0:
244,195,143010,1,0,0:0:0:0:
224,37,143181,1,8,0:0:0:0:
132,346,143353,1,8,0:1:0:0:
379,172,144896,5,10,0:0:0:0:
382,201,144981,1,2,0:0:0:0:
386,231,145067,1,2,0:0:0:0:
389,260,145153,2,0,L|398:331,2,59.4999981842042,2|4|0,0:0|0:0|0:0,0:0:0:0:
500,91,145411,5,2,0:0:0:0:
496,120,145496,1,2,0:0:0:0:
492,150,145582,2,0,L|483:221,1,59.4999981842042,2|4,0:0|0:0,0:0:0:0:
308,244,145753,6,0,L|317:315,1,59.4999981842042,8|0,0:0|0:0,0:0:0:0:
386,112,145925,2,0,L|377:183,1,59.4999981842042,2|4,0:0|0:0,0:0:0:0:
375,241,165467,6,0,P|408:303|365:279,1,170,8|0,0:1|0:0,0:0:0:0:
287,254,166324,1,2,0:0:0:0:
335,166,166496,1,2,0:0:0:0:
237,171,166667,2,0,P|175:144|139:52,1,170,2|0,0:0|0:0,0:0:0:0:
139,53,167696,5,2,0:0:0:0:
139,53,168038,1,2,0:0:0:0:
139,53,168381,1,2,0:0:0:0:
37,121,168553,2,0,B|10:165|10:165|10:277|10:277|42:325,1,212.5,2|0,0:0|0:0,0:0:0:0:
57,311,169581,6,0,L|57:348,1,34,8|0,0:0|0:0,0:0:0:0:
208,253,170439,5,2,0:0:0:0:
279,317,170610,1,2,0:0:0:0:
337,195,170781,1,2,0:0:0:0:
337,195,170953,2,0,L|511:210,1,170,8|0,0:0|0:0,0:0:0:0:
499,108,171981,5,2,0:0:0:0:
442,34,172153,1,2,0:0:0:0:
442,34,172324,2,0,P|417:90|425:167,1,127.5,8|0,0:0|0:0,0:0:0:0:
421,155,173010,5,2,0:0:0:0:
421,155,173181,1,2,0:0:0:0:
336,120,173353,1,2,0:0:0:0:
353,219,173524,1,2,0:0:0:0:
239,160,173696,2,0,B|226:294|336:368|460:305|460:305|427:321|396:366|396:366|351:342|302:345,1,510,8|0,0:0|0:0,0:0:0:0:
203,365,175924,6,2,L|203:377,2,10.625
202,351,176096,1,2,0:0:0:0:
144,233,176267,1,2,0:0:0:0:
114,354,176438,1,8,0:0:0:0:
146,211,176610,1,2,0:0:0:0:
47,203,176781,2,0,P|91:194|140:204,1,85,2|0,0:0|0:0,0:0:0:0:
228,244,177296,5,2,0:0:0:0:
156,300,177467,1,2,0:0:0:0:
230,366,177638,2,0,B|276:368|308:341|308:341|351:366|390:352,1,170,2|0,0:0|0:0,0:0:0:0:
390,351,178667,5,2,0:0:0:0:
396,362,179010,1,2,0:0:0:0:
470,248,179181,2,0,B|478:231|478:231|478:193,2,42.5,8|2|2,0:0|0:0|0:0,0:0:0:0:
200,76,181410,5,2,0:0:0:0:
126,179,181581,1,2,0:0:0:0:
279,125,181753,1,2,0:0:0:0:
82,109,181924,2,0,B|37:146|38:211|72:240|72:240|102:264|82:306,1,203.999993774414,8|0,0:0|0:0,0:0:0:0:
88,289,182953,5,2,0:0:0:0:
336,312,183125,1,2,0:0:0:0:
336,312,184153,5,2,0:0:0:0:
463,384,184324,5,2,0:0:0:0:
475,352,184438,5,2,0:0:0:0:
478,314,184553,5,2,0:0:0:0:
470,272,184667,5,2,0:0:0:0:
446,231,184781,5,2,0:0:0:0:
406,198,184896,5,2,0:0:0:0:
353,181,185010,5,2,0:0:0:0:
293,188,185124,5,2,0:0:0:0:
238,221,185238,5,2,0:0:0:0:
187,298,185353,5,2,0:0:0:0:
149,301,185467,5,2,0:0:0:0:
107,293,185581,5,2,0:0:0:0:
66,269,185696,5,2,0:0:0:0:
33,229,185810,5,2,0:0:0:0:
16,176,185924,5,2,0:0:0:0:
23,116,186038,5,2,0:0:0:0:
56,61,186153,5,2,0:0:0:0:
114,27,186267,5,2,0:0:0:0:
186,25,186381,5,2,0:0:0:0:
250,57,186496,5,2,0:0:0:0:
295,112,186610,5,2,0:0:0:0:
293,188,186724,5,10,0:0:0:0:
303,251,186810,1,8,0:0:0:0:
342,294,186896,1,8,0:0:0:0:
392,311,186981,1,8,0:0:0:0:
440,303,187067,1,8,0:0:0:0:
476,278,187153,1,8,0:0:0:0:
498,247,187238,1,8,0:0:0:0:
506,214,187324,1,8,0:0:0:0:
504,185,187410,6,0,P|489:128|427:85,1,118.999996368408,10|0,0:1|0:0,0:0:0:0:
421,85,187667,1,0,0:0:0:0:
397,84,187753,1,4,0:0:0:0:
393,197,187924,1,2,0:0:0:0:
232,122,188096,5,8,0:0:0:0:
212,151,188181,1,0,0:0:0:0:
202,185,188267,1,0,0:0:0:0:
204,221,188353,1,0,0:0:0:0:
217,254,188439,1,4,0:0:0:0:
236,224,188524,1,0,0:0:0:0:
246,189,188610,1,0,0:0:0:0:
244,154,188696,1,0,0:0:0:0:
232,122,188782,5,8,0:0:0:0:
196,91,188867,1,0,0:0:0:0:
150,79,188953,1,0,0:0:0:0:
104,90,189039,1,0,0:0:0:0:
68,121,189124,1,4,0:0:0:0:
49,164,189210,1,0,0:0:0:0:
53,211,189296,1,0,0:0:0:0:
77,251,189382,1,0,0:0:0:0:
123,285,189467,1,8,0:0:0:0:
177,286,189552,1,0,0:0:0:0:
229,262,189638,1,2,0:0:0:0:
264,219,189724,1,2,0:0:0:0:
277,165,189811,1,6,0:0:0:0:
222,164,189896,1,2,0:0:0:0:
170,187,189982,1,2,0:0:0:0:
136,231,190068,1,2,0:0:0:0:
123,285,190153,5,10,0:0:0:0:
192,292,190239,1,2,0:0:0:0:
257,265,190325,1,2,0:0:0:0:
302,210,190411,1,0,0:0:0:0:
313,139,190496,1,6,0:0:0:0:
289,73,190582,1,0,0:0:0:0:
237,26,190668,1,0,0:0:0:0:
168,10,190754,1,0,0:0:0:0:
101,32,190838,5,10,0:0:0:0:
120,85,190924,1,0,0:0:0:0:
161,122,191010,1,0,0:0:0:0:
217,136,191096,1,0,0:0:0:0:
270,117,191181,1,0,0:0:0:0:
325,98,191267,1,0,0:0:0:0:
379,121,191352,1,0,0:0:0:0:
405,173,191438,1,0,0:0:0:0:
392,229,191524,5,0,0:0:0:0:
357,196,191610,1,0,0:0:0:0:
354,148,191695,1,0,0:0:0:0:
381,111,191781,1,0,0:0:0:0:
425,100,191867,1,0,0:0:0:0:
465,119,191953,1,0,0:0:0:0:
483,165,192038,1,0,0:0:0:0:
468,207,192124,1,0,0:0:0:0:
429,233,192210,5,0,0:0:0:0:
397,252,192296,1,0,0:0:0:0:
386,286,192382,1,0,0:0:0:0:
400,323,192467,1,0,0:0:0:0:
432,338,192553,1,0,0:0:0:0:
459,328,192639,1,0,0:0:0:0:
475,302,192725,1,0,0:0:0:0:
470,271,192810,1,0,0:0:0:0:
449,255,192896,2,0,P|385:245|321:290,1,118.999996368408
397,217,195211,1,0,0:0:0:0:
352,206,195297,1,2,0:0:0:0:
319,177,195383,1,2,0:0:0:0:
304,134,195467,1,6,0:0:0:0:
290,91,195553,1,0,0:0:0:0:
257,62,195639,1,0,0:0:0:0:
212,51,195725,1,0,0:0:0:0:
169,65,195810,5,10,0:0:0:0:
179,100,195896,1,2,0:0:0:0:
206,123,195982,1,2,0:0:0:0:
243,132,196068,1,0,0:0:0:0:
277,121,196153,1,6,0:0:0:0:
269,93,196239,1,2,0:0:0:0:
248,74,196325,1,2,0:0:0:0:
218,67,196411,1,2,0:0:0:0:
191,76,196497,2,0,P|137:146|141:187,1,118.999996368408,10|0,0:0|0:0,0:0:0:0:
332,232,196839,5,4,0:0:0:0:
333,261,196924,1,0,0:0:0:0:
334,291,197010,1,2,0:0:0:0:
335,321,197096,1,0,0:0:0:0:
336,350,197181,1,8,0:0:0:0:
475,128,197354,1,0,0:0:0:0:
472,156,197439,1,0,0:0:0:0:
472,186,197526,5,4,0:0:0:0:
217,85,197781,1,0,0:0:0:0:
185,103,197867,1,0,0:0:0:0:
147,109,197953,1,0,0:0:0:0:
111,99,198038,1,6,0:0:0:0:
82,91,198124,1,0,0:0:0:0:
52,96,198210,1,0,0:0:0:0:
26,111,198296,1,0,0:0:0:0:
9,135,198381,2,0,P|11:210|47:244,1,118.999996368408,10|0,0:0|0:0,0:0:0:0:
199,311,198724,5,4,0:0:0:0:
227,305,198809,1,0,0:0:0:0:
257,299,198895,1,2,0:0:0:0:
286,295,198981,1,0,0:0:0:0:
316,289,199066,1,8,0:0:0:0:
206,105,199239,1,0,0:0:0:0:
177,99,199324,1,0,0:0:0:0:
147,93,199410,5,4,0:0:0:0:
178,77,199495,1,0,0:0:0:0:
213,72,199581,1,0,0:0:0:0:
248,78,199667,1,0,0:0:0:0:
280,93,199752,1,8,0:0:0:0:
278,110,199838,1,0,0:0:0:0:
276,127,199925,1,0,0:0:0:0:
320,146,200010,1,0,0:0:0:0:
367,146,200096,1,4,0:0:0:0:
410,127,200182,1,0,0:0:0:0:
441,92,200267,1,0,0:0:0:0:
457,48,200353,1,0,0:0:0:0:
453,0,200439,5,8,0:0:0:0:
400,23,200525,1,0,0:0:0:0:
362,64,200610,1,2,0:0:0:0:
343,118,200696,1,2,0:0:0:0:
349,173,200781,1,6,0:0:0:0:
356,239,200867,1,2,0:0:0:0:
334,304,200953,1,2,0:0:0:0:
288,353,201038,1,2,0:0:0:0:
223,380,201124,5,10,0:0:0:0:
140,382,201209,1,2,0:0:0:0:
68,342,201295,1,10,0:0:0:0:
27,271,201381,1,0,0:0:0:0:
27,189,201466,1,4,0:0:0:0:
70,118,201552,1,0,0:0:0:0:
142,79,201638,1,8,0:0:0:0:
225,83,201724,1,0,0:0:0:0:
291,134,201810,5,10,0:0:0:0:
345,175,201896,1,0,0:0:0:0:
414,179,201982,1,8,0:0:0:0:
475,146,202068,1,0,0:0:0:0:
511,86,202153,1,4,0:0:0:0:
469,44,202239,1,0,0:0:0:0:
413,26,202324,1,8,0:0:0:0:
354,34,202410,1,0,0:0:0:0:
306,67,202496,6,0,P|258:74|200:55,2,79.3333309122722,8|8|8,0:0|0:0|0:0,0:0:0:0:
260,147,202838,2,0,P|212:141|160:107,2,79.3333309122722,8|8|8,0:0|0:0|0:0,0:0:0:0:
193,211,203181,2,0,P|165:203|140:187,1,59.4999981842042,8|2,0:0|0:0,0:0:0:0:
57,143,203353,2,0,P|82:127|110:118,1,59.4999981842042,2|0,0:0|0:0,0:0:0:0:
172,297,203524,2,2,P|112:301|60:269,1,118.999996368408
267,253,203868,5,2,0:0:0:0:
288,281,203953,1,2,0:0:0:0:
298,315,204039,1,2,0:0:0:0:
297,350,204125,1,2,0:0:0:0:
285,384,204212,1,2,0:0:0:0:
263,355,204297,1,2,0:0:0:0:
253,321,204383,1,2,0:0:0:0:
254,286,204469,1,2,0:0:0:0:
267,253,204553,1,8,0:0:0:0:
280,220,204638,1,8,0:0:0:0:
281,185,204724,1,8,0:0:0:0:
271,151,204810,1,8,0:0:0:0:
249,122,204895,1,8,0:0:0:0:
202,145,204982,1,8,0:0:0:0:
154,149,205067,1,8,0:0:0:0:
109,136,205153,1,8,0:0:0:0:
72,106,205238,6,0,L|111:131,1,29.7499990921021,10|0,0:0|0:0,0:0:0:0:
94,51,205324,2,0,L|120:89,1,29.7499990921021,10|0,0:0|0:0,0:0:0:0:
138,12,205410,2,0,L|147:58,1,29.7499990921021,10|2,0:0|0:0,0:0:0:0:
196,0,205495,2,0,L|188:45,1,29.7499990921021,10|2,0:0|0:0,0:0:0:0:
253,13,205581,2,0,L|229:52,1,29.7499990921021,10|2,0:0|0:0,0:0:0:0:
297,52,205667,2,0,L|260:80,1,29.7499990921021,10|0,0:0|0:0,0:0:0:0:
319,107,205753,2,0,L|278:119,1,29.7499990921021,10|0,0:0|0:0,0:0:0:0:
312,166,205838,2,0,L|265:160,1,29.7499990921021,10|0,0:0|0:0,0:0:0:0:
285,207,205924,6,0,L|301:182,1,29.7499990921021,2|0,0:0|0:0,0:0:0:0:
325,249,206010,2,0,L|330:219,1,29.7499990921021,2|0,0:0|0:0,0:0:0:0:
380,266,206095,2,0,L|374:236,1,29.7499990921021,2|0,0:0|0:0,0:0:0:0:
439,255,206181,2,0,L|422:230,1,29.7499990921021,2|0,0:0|0:0,0:0:0:0:
486,219,206267,2,0,L|461:201,1,29.7499990921021,2|0,0:0|0:0,0:0:0:0:
509,165,206353,2,0,L|480:158,1,29.7499990921021,2|0,0:0|0:0,0:0:0:0:
507,105,206438,2,0,L|477:109,1,29.7499990921021,2|0,0:0|0:0,0:0:0:0:
477,55,206524,2,0,L|451:70,1,29.7499990921021,2|0,0:0|0:0,0:0:0:0:
428,24,206610,6,2,P|413:17|398:12,15,29.7499990921021
382,85,207296,2,2,P|360:88|339:87,5,39.6666654561361
354,165,207638,2,2,P|324:162|296:153,3,59.4999981842042
298,235,207981,2,2,P|260:221|225:199,3,79.3333309122722
60,288,208496,6,0,B|17:309|17:309|144:338,1,178.499994552612,2|0,0:0|0:0,0:0:0:0:
175,345,208838,1,2,0:0:0:0:
209,352,208924,1,2,0:0:0:0:
244,361,209009,1,2,0:0:0:0:
279,368,209095,1,2,0:0:0:0:
358,322,209181,1,10,0:0:0:0:
183,237,209353,2,0,P|117:231|67:260,1,118.999996368408,2|0,0:0|0:0,0:0:0:0:
413,7,209696,5,8,0:1:0:0:
389,200,209867,2,0,B|382:252|382:252|365:272|365:272|357:328,1,127.500004863739,10|0,0:0|0:0,0:0:0:0:
409,36,210210,1,2,0:0:0:0:
242,193,210381,2,0,L|90:209,1,127.500004863739,4|0,0:0|0:0,0:0:0:0:
380,65,210724,5,8,0:0:0:0:
314,285,210896,1,0,0:0:0:0:
227,98,211067,2,0,L|443:80,1,191.250007295609,6|0,0:0|0:0,0:0:0:0:
442,97,211410,2,0,P|402:159|412:241,2,127.500004863739,8|2|4,0:0|0:0|0:0,0:0:0:0:
307,283,211924,1,2,0:0:0:0:
275,278,212010,1,2,0:0:0:0:
243,274,212096,6,0,P|184:298|166:379,1,127.500004863739,10|0,0:0|0:0,0:0:0:0:
268,109,212438,2,0,P|328:86|346:5,1,127.500004863739,4|2,0:0|0:0,0:0:0:0:
165,167,212781,1,8,0:0:0:0:
393,194,212953,1,0,0:0:0:0:
144,139,213124,2,0,L|129:281,1,127.500004863739,4|0,0:0|0:0,0:0:0:0:
383,348,213467,6,8,L|369:221,1,127.500004863739,8|0,0:0|0:0,0:0:0:0:
126,74,213810,2,0,P|141:168|118:305,1,191.250007295609,6|0,0:0|0:0,0:0:0:0:
108,285,214153,2,0,P|111:214|270:177,1,204,10|0,0:0|0:0,0:0:0:0:
254,165,214496,2,0,P|325:181|422:92,1,152.999995330811,6|0,0:0|0:0,0:0:0:0:
201,269,214838,6,0,P|294:279|344:365,1,191.250007295609,10|0,0:1|0:0,0:0:0:0:
336,368,215181,1,4,0:0:0:0:
323,94,215353,1,2,0:0:0:0:
283,268,215524,2,0,P|221:296|152:287,1,127.500004863739,8|0,0:0|0:0,0:0:0:0:
309,79,215867,2,0,P|371:51|440:60,1,127.500004863739,4|0,0:0|0:0,0:0:0:0:
276,290,216210,6,0,P|193:308|116:272,1,127.500004863739,8|0,0:0|0:0,0:0:0:0:
389,185,216553,1,6,0:0:0:0:
164,142,216724,1,2,0:0:0:0:
409,196,216896,1,8,0:0:0:0:
149,136,217067,1,2,0:0:0:0:
430,210,217238,2,0,L|276:227,1,127.500004863739,4|2,0:0|0:0,0:0:0:0:
209,293,217496,1,2,0:0:0:0:
105,245,217581,6,0,P|101:156|132:110,1,127.500004863739,10|2,0:0|0:0,0:0:0:0:
327,28,217924,1,6,0:0:0:0:
93,272,218096,1,2,0:0:0:0:
310,169,218267,2,0,L|171:194,1,127.500004863739,8|0,0:0|0:0,0:0:0:0:
57,38,218610,2,0,L|196:63,1,127.500004863739,4|0,0:0|0:0,0:0:0:0:
408,106,218953,5,8,0:0:0:0:
307,311,219124,1,0,0:0:0:0:
298,80,219296,2,0,L|322:291,1,191.250007295609,6|0,0:0|0:0,0:0:0:0:
307,311,219638,1,10,0:0:0:0:
307,311,219724,1,2,0:0:0:0:
83,121,219895,1,2,0:0:0:0:
66,140,219981,1,6,0:0:0:0:
46,227,220067,1,2,0:0:0:0:
63,246,220153,1,2,0:0:0:0:
200,280,220324,6,0,L|226:68,1,191.250007295609,10|0,0:1|0:0,0:0:0:0:
236,70,220667,1,4,0:0:0:0:
442,168,220838,2,0,L|429:324,1,127.500004863739,2|8,0:0|0:0,0:0:0:0:
368,73,221181,1,0,0:0:0:0:
315,297,221353,2,0,P|291:229|242:190,1,127.500004863739,4|0,0:0|0:0,0:0:0:0:
39,101,221696,6,0,P|109:114|168:91,1,127.500004863739,8|0,0:0|0:0,0:0:0:0:
376,21,222038,2,0,P|362:91|441:185,1,191.250007295609,6|0,0:0|0:0,0:0:0:0:
457,190,222381,2,0,P|411:143|313:149,1,127.500004863739,8|2,0:0|0:0,0:0:0:0:
123,279,222724,1,4,0:0:0:0:
374,234,222896,1,2,0:0:0:0:
354,231,222981,1,2,0:0:0:0:
338,233,223067,6,0,P|293:256|182:168,1,191.250007295609,10|0,0:0|0:0,0:0:0:0:
198,161,223410,1,4,0:0:0:0:
351,326,223581,2,0,L|504:331,1,127.500004863739,2|8,0:0|0:0,0:0:0:0:
187,141,223924,1,0,0:0:0:0:
396,248,224096,1,4,0:0:0:0:
170,344,224267,1,0,0:0:0:0:
418,243,224438,5,8,0:0:0:0:
169,130,224610,1,0,0:0:0:0:
313,256,224781,2,0,L|101:290,1,191.250007295609,6|0,0:0|0:0,0:0:0:0:
96,272,225124,2,0,P|128:227|277:182,1,204,10|0,0:0|0:0,0:0:0:0:
284,161,225467,2,0,P|219:97|133:94,1,152.999995330811,6|0,0:0|0:0,0:0:0:0:
386,321,225810,6,0,P|450:281|470:147,1,191.250007295609,10|0,0:1|0:0,0:0:0:0:
473,154,226153,1,4,0:0:0:0:
266,55,226324,2,0,P|262:136|313:204,1,127.500004863739,2|8,0:0|0:0,0:0:0:0:
490,274,226667,2,0,P|421:230|337:240,1,127.500004863739,0|4,0:0|0:0,0:0:0:0:
185,355,227010,1,0,0:0:0:0:
362,116,227181,6,0,L|146:136,1,191.250007295609,8|0,0:0|0:0,0:0:0:0:
147,109,227524,2,0,P|135:197|154:251,1,127.500004863739,6|0,0:0|0:0,0:0:0:0:
355,326,227867,1,2,0:0:0:0:
197,71,228038,2,0,P|158:150|159:208,1,127.500004863739,2|4,0:0|0:0,0:0:0:0:
424,289,228381,1,2,0:0:0:0:
405,263,228467,1,2,0:0:0:0:
378,247,228553,6,0,L|203:276,1,127.500004863739,10|2,0:0|0:0,0:0:0:0:
45,101,228896,2,0,L|220:72,1,127.500004863739,6|2,0:0|0:0,0:0:0:0:
424,40,229238,6,0,P|438:47|488:48,2,63.7500024318696,10|2|2,0:0|0:0|0:0,0:0:0:0:
311,94,229496,2,0,P|297:61|302:29,2,63.7500024318696,2|6|2,0:0|0:0|0:0,0:0:0:0:
425,143,229753,2,0,P|466:168|488:205,2,63.7500024318696,2|2|10,0:0|0:0|0:0,0:0:0:0:
380,236,230010,1,2,0:0:0:0:
348,276,230096,1,2,0:0:0:0:
298,287,230181,1,2,0:0:0:0:
251,265,230267,5,6,0:0:0:0:
259,214,230353,1,2,0:0:0:0:
266,164,230438,1,2,0:0:0:0:
272,113,230524,1,2,0:0:0:0:
279,62,230610,2,0,P|314:43|352:58,1,63.7500024318696,10|2,0:0|0:0,0:0:0:0:
153,94,230781,6,0,P|130:39|136:5,1,63.7500024318696,2|2,0:0|0:0,0:0:0:0:
118,232,230953,1,6,0:0:0:0:
119,267,231296,5,8,0:1:0:0:
143,301,231381,1,0,0:0:0:0:
178,324,231467,1,0,0:0:0:0:
219,335,231553,1,0,0:0:0:0:
261,330,231638,1,0,0:0:0:0:
299,311,231724,1,0,0:0:0:0:
328,280,231810,1,0,0:0:0:0:
345,241,231895,1,0,0:0:0:0:
347,199,231981,5,0,0:0:0:0:
308,216,232066,1,0,0:0:0:0:
266,213,232152,1,0,0:0:0:0:
230,191,232238,1,0,0:0:0:0:
209,155,232323,1,0,0:0:0:0:
206,113,232409,1,0,0:0:0:0:
223,74,232495,1,0,0:0:0:0:
256,48,232581,1,0,0:0:0:0:
298,40,232668,5,0,0:0:0:0:
314,78,232753,1,0,0:0:0:0:
311,120,232839,1,0,0:0:0:0:
289,156,232925,1,0,0:0:0:0:
253,178,233010,1,0,0:0:0:0:
211,180,233096,1,0,0:0:0:0:
173,163,233182,1,0,0:0:0:0:
147,130,233268,1,0,0:0:0:0:
139,89,233353,5,0,0:0:0:0:
105,114,233438,1,0,0:0:0:0:
83,150,233524,1,0,0:0:0:0:
76,192,233610,1,0,0:0:0:0:
85,233,233695,1,0,0:0:0:0:
109,268,233781,1,0,0:0:0:0:
144,292,233867,1,0,0:0:0:0:
185,300,233953,1,0,0:0:0:0:
227,293,234039,5,0,0:0:0:0:
251,326,234124,1,0,0:0:0:0:
286,349,234210,1,0,0:0:0:0:
328,357,234296,1,0,0:0:0:0:
369,349,234382,1,0,0:0:0:0:
405,326,234467,1,0,0:0:0:0:
430,293,234553,1,0,0:0:0:0:
440,251,234639,1,0,0:0:0:0:
434,210,234724,5,0,0:0:0:0:
400,235,234809,1,0,0:0:0:0:
359,242,234895,1,0,0:0:0:0:
319,229,234981,1,0,0:0:0:0:
289,199,235066,1,0,0:0:0:0:
277,159,235152,1,0,0:0:0:0:
285,118,235238,1,0,0:0:0:0:
311,85,235324,1,0,0:0:0:0:
349,68,235411,5,0,0:0:0:0:
332,107,235496,1,0,0:0:0:0:
299,133,235582,1,0,0:0:0:0:
258,141,235668,1,0,0:0:0:0:
218,129,235753,6,0,P|178:195|227:295,1,191.250007295609,0|0,0:0|0:0,0:0:0:0:
365,371,236096,2,0,P|326:302|215:294,1,191.250007295609,0|0,0:0|0:0,0:0:0:0:
82,377,236438,2,0,P|160:377|222:284,1,191.250007295609,0|0,0:0|0:0,0:0:0:0:
123,207,236781,6,0,L|93:278,1,42.5,0|0,0:0|0:0,0:0:0:0:
221,134,236953,2,0,L|251:205,1,42.5,0|0,0:0|0:0,0:0:0:0:
135,47,237124,1,0,0:0:0:0:
90,103,237210,1,0,0:0:0:0:
45,159,237296,2,0,L|-3:223,1,42.5,0|0,0:0|0:0,0:0:0:0:
200,252,237467,6,0,P|244:270|267:289,1,42.5,0|0,0:0|0:0,0:0:0:0:
354,342,237638,2,0,P|398:324|421:305,1,42.5,0|0,0:0|0:0,0:0:0:0:
356,203,237810,1,0,0:0:0:0:
383,134,237896,1,0,0:0:0:0:
389,58,237981,2,0,P|381:11|368:-15,1,42.5,0|0,0:0|0:0,0:0:0:0:
218,133,238153,6,0,L|156:132,1,42.5,0|0,0:0|0:0,0:0:0:0:
236,249,238324,2,0,L|278:249,1,42.5,0|0,0:0|0:0,0:0:0:0:
146,344,238496,1,0,0:0:0:0:
107,283,238581,1,0,0:0:0:0:
65,227,238667,2,0,L|40:186,1,42.5,0|0,0:0|0:0,0:0:0:0:
289,158,238838,6,0,P|292:103|285:83,1,42.5,0|0,0:0|0:0,0:0:0:0:
298,252,239010,2,0,P|339:215|348:196,1,42.5,0|0,0:0|0:0,0:0:0:0:
286,352,239181,1,0,0:0:0:0:
215,366,239267,1,0,0:0:0:0:
146,344,239353,2,0,P|104:321|90:307,1,42.5,0|0,0:0|0:0,0:0:0:0:
3,254,239525,5,0,0:0:0:0:
38,230,239610,1,0,0:0:0:0:
78,215,239696,1,0,0:0:0:0:
120,210,239782,1,0,0:0:0:0:
162,215,239867,1,0,0:0:0:0:
202,229,239953,1,0,0:0:0:0:
238,252,240039,1,0,0:0:0:0:
267,283,240125,1,0,0:0:0:0:
288,320,240210,5,0,0:0:0:0:
245,311,240295,1,0,0:0:0:0:
207,294,240381,1,0,0:0:0:0:
173,267,240467,1,0,0:0:0:0:
147,234,240552,1,0,0:0:0:0:
128,196,240638,1,0,0:0:0:0:
120,155,240724,1,0,0:0:0:0:
121,112,240810,1,0,0:0:0:0:
133,71,240896,5,0,0:0:0:0:
149,109,240981,1,0,0:0:0:0:
178,140,241067,1,0,0:0:0:0:
216,160,241153,1,0,0:0:0:0:
258,165,241238,1,0,0:0:0:0:
299,157,241324,1,0,0:0:0:0:
335,135,241410,1,0,0:0:0:0:
361,102,241496,1,0,0:0:0:0:
375,62,241582,5,0,0:0:0:0:
333,70,241667,1,0,0:0:0:0:
291,64,241753,6,0,P|257:51|225:24,1,42.5,2|0,0:1|0:0,0:0:0:0:
363,206,241924,1,4,0:0:0:0:
178,140,242096,2,0,P|144:153|112:180,1,42.5,2|0,0:1|0:0,0:0:0:0:
86,252,242267,5,8,0:1:0:0:
103,290,242352,1,0,0:0:0:0:
134,318,242438,1,0,0:0:0:0:
174,332,242524,1,0,0:0:0:0:
216,330,242609,1,0,0:0:0:0:
254,311,242695,1,0,0:0:0:0:
281,279,242781,1,0,0:0:0:0:
293,238,242867,1,0,0:0:0:0:
289,196,242953,5,0,0:0:0:0:
262,229,243038,1,0,0:0:0:0:
251,270,243124,1,0,0:0:0:0:
256,311,243210,1,0,0:0:0:0:
278,348,243295,1,0,0:0:0:0:
312,373,243381,1,0,0:0:0:0:
353,382,243467,1,0,0:0:0:0:
395,375,243553,1,0,0:0:0:0:
430,351,243639,5,0,0:0:0:0:
403,318,243724,1,0,0:0:0:0:
385,280,243810,1,0,0:0:0:0:
375,239,243896,1,0,0:0:0:0:
376,196,243981,1,0,0:0:0:0:
386,155,244067,1,0,0:0:0:0:
405,117,244153,1,0,0:0:0:0:
432,85,244239,1,0,0:0:0:0:
466,59,244325,5,0,0:0:0:0:
461,101,244410,1,0,0:0:0:0:
442,139,244496,1,0,0:0:0:0:
412,169,244582,1,0,0:0:0:0:
374,187,244667,1,0,0:0:0:0:
332,191,244753,1,0,0:0:0:0:
291,181,244839,1,0,0:0:0:0:
256,158,244925,1,0,0:0:0:0:
230,124,245010,5,0,0:0:0:0:
231,166,245095,1,0,0:0:0:0:
218,206,245181,1,0,0:0:0:0:
193,240,245267,1,0,0:0:0:0:
158,263,245352,1,0,0:0:0:0:
118,274,245438,1,0,0:0:0:0:
76,270,245524,1,0,0:0:0:0:
36,253,245610,1,0,0:0:0:0:
6,224,245696,5,0,0:0:0:0:
41,200,245781,1,0,0:0:0:0:
82,188,245867,1,0,0:0:0:0:
124,188,245953,1,0,0:0:0:0:
165,200,246038,1,0,0:0:0:0:
200,223,246124,1,0,0:0:0:0:
228,255,246210,1,0,0:0:0:0:
245,294,246296,1,0,0:0:0:0:
251,335,246382,5,0,0:0:0:0:
267,295,246467,1,0,0:0:0:0:
293,263,246553,1,0,0:0:0:0:
329,239,246639,1,0,0:0:0:0:
368,227,246724,6,0,P|323:146|364:63,1,191.250007295609,0|0,0:0|0:0,0:0:0:0:
368,226,247067,2,0,P|320:305|228:312,1,191.250007295609,0|0,0:0|0:0,0:0:0:0:
367,226,247410,2,0,P|460:228|510:305,1,191.250007295609,0|0,0:0|0:0,0:0:0:0:
268,222,247753,6,0,L|213:204,1,42.5,0|0,0:0|0:0,0:0:0:0:
175,83,247924,2,0,L|157:138,1,42.5,0|0,0:0|0:0,0:0:0:0:
60,205,248096,1,0,0:0:0:0:
103,264,248181,1,0,0:0:0:0:
171,291,248267,2,0,L|226:309,1,42.5,0|0,0:0|0:0,0:0:0:0:
334,179,248438,6,0,P|292:149|279:144,1,42.5,0|0,0:0|0:0,0:0:0:0:
297,285,248610,2,0,P|339:315|352:320,1,42.5,0|0,0:0|0:0,0:0:0:0:
218,197,248781,1,0,0:0:0:0:
160,155,248867,1,0,0:0:0:0:
91,132,248953,2,0,P|72:127|46:128,1,42.5,0|0,0:0|0:0,0:0:0:0:
268,73,249124,6,0,L|330:70,1,42.5,0|0,0:0|0:0,0:0:0:0:
410,157,249296,2,0,L|413:219,1,42.5,0|0,0:0|0:0,0:0:0:0:
326,299,249467,1,0,0:0:0:0:
255,302,249553,1,0,0:0:0:0:
183,306,249639,2,0,L|121:309,1,42.5,0|0,0:0|0:0,0:0:0:0:
7,265,249810,6,0,P|24:253|39:238,1,42.5,0|0,0:0|0:0,0:0:0:0:
92,129,249981,2,0,P|74:117|59:102,1,42.5,0|0,0:0|0:0,0:0:0:0:
202,97,250153,1,0,0:0:0:0:
274,119,250238,1,0,0:0:0:0:
232,295,250496,5,4,0:0:0:0:
235,293,250581,1,2,0:0:0:0:
244,287,250667,1,2,0:0:0:0:
251,270,250753,1,2,0:0:0:0:
239,249,250838,1,4,0:0:0:0:
209,247,250924,1,2,0:0:0:0:
182,275,251010,1,2,0:0:0:0:
186,319,251096,1,2,0:0:0:0:
230,346,251181,1,4,0:0:0:0:
283,326,251267,1,2,0:0:0:0:
311,276,251353,1,2,0:0:0:0:
300,219,251438,1,2,0:0:0:0:
253,186,251524,1,4,0:3:0:0:
184,161,251610,1,4,0:3:0:0:
165,88,251696,1,4,0:3:0:0:
217,36,251781,1,4,0:3:0:0:
289,52,251867,1,0,0:0:0:0:
265,246,252553,1,4,0:3:0:0:
