osu file format v14

[General]
AudioFilename: audio.ogg
AudioLeadIn: 0
PreviewTime: 63019
Countdown: 0
SampleSet: Normal
StackLeniency: 0.7
Mode: 1
LetterboxInBreaks: 0
WidescreenStoryboard: 0

[Editor]
DistanceSpacing: 2.7
BeatDivisor: 8
GridSize: 32
TimelineZoom: 2.5

[Metadata]
Title:Kitty Kat
TitleUnicode:Kitty Kat
Artist:Megan Thee Stallion
ArtistUnicode:Megan Thee Stallion
Creator:Nifty
Version:L.I.T.E. O.N.I.
Source:
Tags:english hip hop rap cat catgirl something for thee hotties
BeatmapID:4322175
BeatmapSetID:1789639

[Difficulty]
HPDrainRate:5.5
CircleSize:2
OverallDifficulty:5.5
ApproachRate:10
SliderMultiplier:1.4
SliderTickRate:3

[Events]
//Background and Video events
0,0,"anime-girl-cat-ears-neko-wink-blue-hair.jpg",0,-40
//Break Periods
//Storyboard Layer 0 (Background)
//Storyboard Layer 1 (Fail)
//Storyboard Layer 2 (Pass)
//Storyboard Layer 3 (Foreground)
//Storyboard Layer 4 (Overlay)
//Storyboard Sound Samples

[TimingPoints]
480,476.190476190476,4,1,0,80,1,0
480,-62.5,4,1,0,80,0,0
2384,-55.5555555555556,4,1,0,80,0,0
32860,-55.5555555555556,4,1,0,80,0,1
48099,-55.5555555555556,4,1,0,80,0,0
61432,-40,4,1,0,80,0,0
61591,-55.5555555555556,4,1,0,80,0,0
61788,-40,4,1,0,80,0,0
61947,-55.5555555555556,4,1,0,80,0,0
62297,-40,4,1,0,80,0,0
62456,-55.5555555555556,4,1,0,80,0,0
78575,-55.5555555555556,4,1,0,80,0,1
93813,-55.5555555555556,4,1,0,80,0,0
95420,-50,4,1,0,80,0,0
95688,-55.5555555555556,4,1,0,80,0,0
95747,-10,4,1,0,80,0,0
95926,-33.3333333333333,4,1,0,80,0,0
96372,-20,4,1,0,80,0,0
96849,-12.5,4,1,0,80,0,0
97325,-10,4,1,0,80,0,0
97595,-55.5555555555556,4,1,0,80,0,0
97654,-10,4,1,0,80,0,0
98099,-55.5555555555556,4,1,0,80,0,0
99259,-50,4,1,0,80,0,0
99527,-55.5555555555556,4,1,0,80,0,0
99586,-10,4,1,0,80,0,0
99765,-33.3333333333333,4,1,0,80,0,0
100211,-20,4,1,0,80,0,0
100688,-12.5,4,1,0,80,0,0
101164,-10,4,1,0,80,0,0
101396,-55.5555555555556,4,1,0,80,0,0
103069,-50,4,1,0,80,0,0
103337,-55.5555555555556,4,1,0,80,0,0
103396,-10,4,1,0,80,0,0
103575,-33.3333333333333,4,1,0,80,0,0
104021,-20,4,1,0,80,0,0
104498,-12.5,4,1,0,80,0,0
104974,-10,4,1,0,80,0,0
105212,-55.5555555555556,4,1,0,80,0,0

[HitObjects]
347,113,480,5,0,0:0:0:0:
347,113,599,1,0,0:0:0:0:
347,113,718,1,12,0:0:0:0:
354,100,1194,1,8,0:0:0:0:
354,100,1313,1,0,0:0:0:0:
352,102,1432,1,8,0:0:0:0:
349,101,1670,1,8,0:0:0:0:
354,100,1908,1,0,0:0:0:0:
354,100,2027,1,0,0:0:0:0:
354,100,2146,1,0,0:0:0:0:
281,107,2385,1,8,0:0:0:0:
349,91,2444,1,8,0:0:0:0:
351,90,2503,1,8,0:0:0:0:
354,91,2622,1,0,0:0:0:0:
355,91,2741,1,0,0:0:0:0:
355,80,2860,1,8,0:0:0:0:
350,85,3099,1,0,0:0:0:0:
348,83,3218,1,8,0:0:0:0:
347,98,3337,1,0,0:0:0:0:
351,99,3456,1,8,0:0:0:0:
351,99,3575,1,0,0:0:0:0:
351,99,3694,1,0,0:0:0:0:
351,99,3813,1,8,0:0:0:0:
350,85,4051,1,0,0:0:0:0:
346,108,4289,1,0,0:0:0:0:
346,77,4349,1,0,0:0:0:0:
345,78,4408,1,0,0:0:0:0:
362,85,4527,1,8,0:0:0:0:
362,88,4646,1,0,0:0:0:0:
358,109,4765,1,8,0:0:0:0:
357,91,5003,1,0,0:0:0:0:
359,91,5122,1,8,0:0:0:0:
343,95,5241,1,0,0:0:0:0:
342,96,5360,1,8,0:0:0:0:
354,82,5479,1,0,0:0:0:0:
354,84,5599,1,0,0:0:0:0:
356,102,5718,1,8,0:0:0:0:
356,75,5956,1,8,0:0:0:0:
371,98,6194,1,0,0:0:0:0:
354,86,6253,1,0,0:0:0:0:
350,89,6313,1,0,0:0:0:0:
357,90,6432,1,8,0:0:0:0:
354,84,6551,1,0,0:0:0:0:
360,84,6670,1,8,0:0:0:0:
356,75,6908,1,0,0:0:0:0:
355,75,7027,1,0,0:0:0:0:
355,76,7146,1,8,0:0:0:0:
354,86,7265,1,0,0:0:0:0:
359,83,7384,1,8,0:0:0:0:
361,79,7503,1,0,0:0:0:0:
360,84,7622,1,8,0:0:0:0:
299,106,7860,1,0,0:0:0:0:
329,88,10003,1,8,0:0:0:0:
347,88,10063,1,8,0:0:0:0:
343,79,10122,1,8,0:0:0:0:
334,82,10241,1,0,0:0:0:0:
329,88,10479,1,8,0:0:0:0:
363,78,10599,1,0,0:0:0:0:
356,78,10718,1,8,0:0:0:0:
351,80,10837,1,8,0:0:0:0:
346,81,10956,1,0,0:0:0:0:
334,82,11194,1,8,0:0:0:0:
334,82,11313,1,8,0:0:0:0:
348,85,11432,1,0,0:0:0:0:
336,92,11491,1,0,0:0:0:0:
345,88,11551,1,0,0:0:0:0:
333,93,11670,1,8,0:0:0:0:
343,86,11908,1,8,0:0:0:0:
345,87,12027,1,0,0:0:0:0:
345,87,12146,1,8,0:0:0:0:
353,78,12265,1,0,0:0:0:0:
353,78,12384,1,8,0:0:0:0:
350,77,12622,1,0,0:0:0:0:
350,77,12741,1,0,0:0:0:0:
351,72,12860,1,8,0:0:0:0:
345,74,12979,1,8,0:0:0:0:
354,72,13099,1,0,0:0:0:0:
353,78,13337,1,0,0:0:0:0:
346,94,13396,1,0,0:0:0:0:
372,76,13456,1,0,0:0:0:0:
354,71,13575,1,8,0:0:0:0:
351,72,13813,1,0,0:0:0:0:
352,57,13932,1,8,0:0:0:0:
348,59,14051,1,0,0:0:0:0:
352,58,14289,1,8,0:0:0:0:
345,56,14408,1,0,0:0:0:0:
351,51,14527,1,8,0:0:0:0:
360,58,14646,1,8,0:0:0:0:
357,57,14765,1,0,0:0:0:0:
325,69,15003,1,8,0:0:0:0:
340,51,15122,1,0,0:0:0:0:
340,51,15241,1,8,0:0:0:0:
345,56,15360,1,0,0:0:0:0:
340,54,15479,1,0,0:0:0:0:
354,97,17622,1,0,0:0:0:0:
367,82,17682,1,0,0:0:0:0:
362,91,17741,1,0,0:0:0:0:
361,91,17860,1,8,0:0:0:0:
371,91,18099,1,8,0:0:0:0:
367,91,18218,1,8,0:0:0:0:
365,83,18337,1,0,0:0:0:0:
369,83,18456,1,8,0:0:0:0:
366,83,18575,1,0,0:0:0:0:
366,83,18813,1,8,0:0:0:0:
377,84,18932,1,0,0:0:0:0:
371,91,19051,1,8,0:0:0:0:
371,91,19110,1,8,0:0:0:0:
367,91,19170,1,8,0:0:0:0:
365,83,19289,1,0,0:0:0:0:
359,81,19527,1,8,0:0:0:0:
366,75,19765,1,8,0:0:0:0:
367,81,19884,1,0,0:0:0:0:
366,75,20003,1,8,0:0:0:0:
366,82,20241,1,0,0:0:0:0:
365,83,20360,1,0,0:0:0:0:
359,81,20479,1,8,0:0:0:0:
357,79,20599,1,8,0:0:0:0:
357,79,20718,1,0,0:0:0:0:
354,80,20956,1,8,0:0:0:0:
366,82,21194,1,0,0:0:0:0:
360,76,22860,1,8,0:0:0:0:
360,76,23099,1,0,0:0:0:0:
360,76,23337,1,8,0:0:0:0:
369,73,23456,1,0,0:0:0:0:
360,76,23575,1,8,0:0:0:0:
367,68,23694,1,0,0:0:0:0:
367,68,23813,1,8,0:0:0:0:
363,68,24051,1,8,0:0:0:0:
363,59,24170,1,8,0:0:0:0:
359,57,24289,1,0,0:0:0:0:
351,60,24408,1,8,0:0:0:0:
368,63,24527,1,0,0:0:0:0:
356,61,24765,1,8,0:0:0:0:
375,72,24884,1,8,0:0:0:0:
375,72,25003,1,8,0:0:0:0:
346,58,25241,1,8,0:0:0:0:
354,55,25479,1,0,0:0:0:0:
367,68,25599,1,0,0:0:0:0:
356,61,25718,1,8,0:0:0:0:
364,56,25837,1,0,0:0:0:0:
355,59,25956,1,8,0:0:0:0:
361,51,26194,1,8,0:0:0:0:
369,60,26432,1,0,0:0:0:0:
367,61,26551,1,0,0:0:0:0:
369,60,26670,1,8,0:0:0:0:
356,61,26789,1,8,0:0:0:0:
340,62,26908,1,0,0:0:0:0:
361,51,27146,1,8,0:0:0:0:
365,49,27384,1,8,0:0:0:0:
343,58,27503,1,0,0:0:0:0:
342,58,27622,1,8,0:0:0:0:
358,51,27741,1,8,0:0:0:0:
353,57,27860,1,0,0:0:0:0:
359,62,29051,1,0,0:0:0:0:
359,62,29289,1,8,0:0:0:0:
359,62,29408,1,0,0:0:0:0:
359,62,29527,1,8,0:0:0:0:
364,66,29646,1,0,0:0:0:0:
359,62,29765,1,8,0:0:0:0:
371,60,30003,1,8,0:0:0:0:
368,51,30241,1,0,0:0:0:0:
363,55,30360,1,0,0:0:0:0:
363,55,30479,1,8,0:0:0:0:
370,55,30599,1,8,0:0:0:0:
371,55,30718,1,0,0:0:0:0:
379,54,30956,1,0,0:0:0:0:
379,54,31075,1,0,0:0:0:0:
380,53,31194,1,12,0:0:0:0:
370,54,31670,1,8,0:0:0:0:
378,58,31789,1,8,0:0:0:0:
302,89,32860,1,8,0:0:0:0:
302,89,33099,1,0,0:0:0:0:
315,75,33218,1,8,0:0:0:0:
302,89,33337,1,0,0:0:0:0:
320,84,33456,1,0,0:0:0:0:
320,84,33575,1,8,0:0:0:0:
311,84,33813,1,0,0:0:0:0:
317,74,33932,1,8,0:0:0:0:
311,84,34051,1,0,0:0:0:0:
311,84,34170,1,0,0:0:0:0:
302,79,34289,1,8,0:0:0:0:
320,84,34527,1,0,0:0:0:0:
319,81,34646,1,0,0:0:0:0:
329,78,34765,1,8,0:0:0:0:
324,76,35003,1,0,0:0:0:0:
311,84,35122,1,8,0:0:0:0:
325,77,35241,1,0,0:0:0:0:
325,77,35360,1,0,0:0:0:0:
320,84,35479,1,8,0:0:0:0:
349,79,35718,1,0,0:0:0:0:
317,81,35837,1,8,0:0:0:0:
347,73,35956,1,0,0:0:0:0:
349,72,36075,1,0,0:0:0:0:
320,84,36194,1,8,0:0:0:0:
349,79,36670,1,8,0:0:0:0:
347,73,36908,1,0,0:0:0:0:
331,78,37027,1,8,0:0:0:0:
346,77,37146,1,0,0:0:0:0:
349,79,37265,1,0,0:0:0:0:
332,78,37384,1,8,0:0:0:0:
349,79,37622,1,0,0:0:0:0:
331,78,37741,1,8,0:0:0:0:
347,73,37860,1,0,0:0:0:0:
346,73,37979,1,0,0:0:0:0:
340,72,38099,1,8,0:0:0:0:
346,72,38337,1,0,0:0:0:0:
346,69,38456,1,0,0:0:0:0:
348,69,38575,1,8,0:0:0:0:
347,73,38813,1,0,0:0:0:0:
346,73,38932,1,8,0:0:0:0:
342,68,39051,1,0,0:0:0:0:
346,72,39170,1,0,0:0:0:0:
346,72,39289,1,8,0:0:0:0:
348,69,39527,1,0,0:0:0:0:
346,73,39646,1,8,0:0:0:0:
347,73,39765,1,0,0:0:0:0:
346,73,39884,1,0,0:0:0:0:
346,72,40003,1,8,0:0:0:0:
354,71,40122,1,8,0:0:0:0:
354,70,40241,1,8,0:0:0:0:
359,72,40479,1,8,0:0:0:0:
346,73,40599,1,0,0:0:0:0:
357,63,40718,1,8,0:0:0:0:
343,64,40956,1,8,0:0:0:0:
360,73,41075,1,8,0:0:0:0:
354,70,41194,1,0,0:0:0:0:
364,67,41432,1,8,0:0:0:0:
355,60,41551,1,8,0:0:0:0:
372,63,41670,1,0,0:0:0:0:
370,62,41789,1,0,0:0:0:0:
320,78,41908,1,8,0:0:0:0:
366,50,41968,1,8,0:0:0:0:
359,55,42027,1,8,0:0:0:0:
361,57,42146,1,0,0:0:0:0:
371,63,42384,1,8,0:0:0:0:
355,60,42503,1,0,0:0:0:0:
360,61,42622,1,8,0:0:0:0:
379,68,42860,1,8,0:0:0:0:
373,67,43099,1,0,0:0:0:0:
371,63,43337,1,8,0:0:0:0:
356,55,43456,1,0,0:0:0:0:
357,54,43575,1,8,0:0:0:0:
372,63,43694,1,0,0:0:0:0:
372,63,43813,1,8,0:0:0:0:
379,68,43932,1,0,0:0:0:0:
376,68,43991,1,0,0:0:0:0:
384,67,44051,1,0,0:0:0:0:
380,69,44289,1,0,0:0:0:0:
375,64,44527,1,0,0:0:0:0:
369,62,44646,1,0,0:0:0:0:
363,62,44765,1,8,0:0:0:0:
359,63,45003,1,8,0:0:0:0:
352,66,45122,1,8,0:0:0:0:
352,66,45241,1,0,0:0:0:0:
372,57,45479,1,0,0:0:0:0:
381,68,45599,1,8,0:0:0:0:
380,61,45718,1,0,0:0:0:0:
363,62,45777,1,0,0:0:0:0:
377,64,45837,1,0,0:0:0:0:
376,66,45956,1,8,0:0:0:0:
367,66,46194,1,0,0:0:0:0:
371,54,46313,1,0,0:0:0:0:
372,58,46432,1,12,0:0:0:0:
367,63,46908,1,8,0:0:0:0:
366,63,47027,1,0,0:0:0:0:
379,60,47146,1,8,0:0:0:0:
369,73,47384,1,8,0:0:0:0:
378,70,47622,1,0,0:0:0:0:
384,72,47741,1,0,0:0:0:0:
384,74,47860,1,0,0:0:0:0:
318,94,48099,1,8,0:0:0:0:
370,68,48218,1,0,0:0:0:0:
369,73,48337,1,8,0:0:0:0:
378,66,48456,1,0,0:0:0:0:
378,70,48575,1,8,0:0:0:0:
388,81,48694,1,8,0:0:0:0:
387,80,48813,1,0,0:0:0:0:
376,93,49051,1,8,0:0:0:0:
378,92,49170,1,8,0:0:0:0:
376,90,49289,1,0,0:0:0:0:
376,90,49408,1,0,0:0:0:0:
383,85,49527,1,8,0:0:0:0:
376,93,50003,1,0,0:0:0:0:
376,87,50122,1,0,0:0:0:0:
376,90,50241,1,8,0:0:0:0:
376,90,50360,1,0,0:0:0:0:
377,96,50479,1,8,0:0:0:0:
384,100,50718,1,0,0:0:0:0:
384,100,50837,1,8,0:0:0:0:
376,93,50956,1,0,0:0:0:0:
376,90,51194,1,8,0:0:0:0:
376,90,51313,1,0,0:0:0:0:
375,86,51432,1,8,0:0:0:0:
373,88,51551,1,8,0:0:0:0:
372,80,51670,1,8,0:0:0:0:
379,80,51908,1,0,0:0:0:0:
363,98,52265,1,0,0:0:0:0:
362,87,52384,1,8,0:0:0:0:
373,86,52503,1,0,0:0:0:0:
373,84,52622,1,8,0:0:0:0:
375,88,52741,1,0,0:0:0:0:
379,89,52860,1,8,0:0:0:0:
380,97,53099,1,0,0:0:0:0:
379,97,53218,1,8,0:0:0:0:
365,110,53337,1,0,0:0:0:0:
373,95,53396,1,0,0:0:0:0:
374,95,53456,1,0,0:0:0:0:
374,94,53575,1,0,0:0:0:0:
380,89,55718,1,8,0:0:0:0:
352,93,55837,1,0,0:0:0:0:
386,101,55956,1,8,0:0:0:0:
380,89,56075,1,0,0:0:0:0:
371,86,56194,1,8,0:0:0:0:
380,89,56432,1,0,0:0:0:0:
380,89,56551,1,0,0:0:0:0:
380,89,56670,1,8,0:0:0:0:
370,93,56908,1,0,0:0:0:0:
378,91,57027,1,0,0:0:0:0:
378,91,57146,1,8,0:0:0:0:
368,94,57265,1,8,0:0:0:0:
371,71,57384,1,0,0:0:0:0:
365,86,59527,1,8,0:0:0:0:
355,77,59646,1,0,0:0:0:0:
355,77,59765,1,0,0:0:0:0:
354,77,59884,1,0,0:0:0:0:
351,85,60003,1,8,0:0:0:0:
348,85,60122,1,8,0:0:0:0:
365,86,60241,1,0,0:0:0:0:
346,89,60479,1,8,0:0:0:0:
355,77,60718,1,0,0:0:0:0:
358,69,60956,1,8,0:0:0:0:
371,60,61075,1,8,0:0:0:0:
347,74,61194,1,0,0:0:0:0:
365,70,61432,1,12,0:0:0:0:
360,69,61670,1,0,0:0:0:0:
355,64,61908,1,12,0:0:0:0:
356,68,62146,1,0,0:0:0:0:
376,64,62384,1,12,0:0:0:0:
339,77,63337,1,4,0:0:0:0:
345,73,63694,1,0,0:0:0:0:
351,75,63813,1,8,0:0:0:0:
346,68,63932,1,8,0:0:0:0:
340,65,64051,1,0,0:0:0:0:
330,74,64170,1,0,0:0:0:0:
339,77,64289,1,8,0:0:0:0:
351,82,64527,1,0,0:0:0:0:
345,73,64765,1,8,0:0:0:0:
341,60,64884,1,8,0:0:0:0:
340,65,65003,1,0,0:0:0:0:
343,61,65122,1,0,0:0:0:0:
337,67,65241,1,8,0:0:0:0:
345,63,65301,1,8,0:0:0:0:
342,65,65360,1,8,0:0:0:0:
341,66,65479,1,0,0:0:0:0:
344,57,66432,1,0,0:0:0:0:
344,57,66551,1,0,0:0:0:0:
344,57,66670,1,8,0:0:0:0:
341,67,66789,1,0,0:0:0:0:
341,67,66908,1,8,0:0:0:0:
344,57,67146,1,0,0:0:0:0:
334,62,67265,1,0,0:0:0:0:
327,66,67384,1,8,0:0:0:0:
327,66,67503,1,0,0:0:0:0:
338,70,67622,1,8,0:0:0:0:
329,79,67741,1,8,0:0:0:0:
329,79,67860,1,0,0:0:0:0:
335,71,68099,1,8,0:0:0:0:
344,57,68158,1,8,0:0:0:0:
340,83,68218,1,8,0:0:0:0:
326,78,68337,1,0,0:0:0:0:
339,57,68456,1,0,0:0:0:0:
336,57,68575,1,8,0:0:0:0:
319,62,68813,1,8,0:0:0:0:
338,56,68932,1,0,0:0:0:0:
335,54,69051,1,8,0:0:0:0:
340,62,69289,1,0,0:0:0:0:
339,57,69408,1,0,0:0:0:0:
339,57,69527,1,8,0:0:0:0:
331,72,69765,1,0,0:0:0:0:
331,72,69884,1,8,0:0:0:0:
326,68,70003,1,0,0:0:0:0:
317,71,70122,1,8,0:0:0:0:
321,67,70241,1,0,0:0:0:0:
314,74,70479,1,8,0:0:0:0:
328,64,70599,1,8,0:0:0:0:
328,64,70718,1,8,0:0:0:0:
317,59,70956,1,0,0:0:0:0:
322,57,71015,1,0,0:0:0:0:
325,68,71075,1,0,0:0:0:0:
321,67,71194,1,8,0:0:0:0:
316,73,71313,1,8,0:0:0:0:
314,74,71432,1,0,0:0:0:0:
306,70,71551,1,0,0:0:0:0:
300,69,71670,1,8,0:0:0:0:
323,63,71908,1,0,0:0:0:0:
314,74,72146,1,8,0:0:0:0:
323,72,72265,1,0,0:0:0:0:
332,73,72384,1,8,0:0:0:0:
319,66,72503,1,0,0:0:0:0:
318,66,72622,1,8,0:0:0:0:
303,72,72860,1,8,0:0:0:0:
306,71,72920,1,8,0:0:0:0:
303,72,72979,1,8,0:0:0:0:
322,72,73099,1,0,0:0:0:0:
323,72,73218,1,0,0:0:0:0:
319,73,73337,1,8,0:0:0:0:
319,74,73456,1,8,0:0:0:0:
326,71,73575,1,0,0:0:0:0:
333,65,73813,1,8,0:0:0:0:
332,66,73932,1,0,0:0:0:0:
330,68,74051,1,8,0:0:0:0:
320,63,74170,1,0,0:0:0:0:
320,63,74289,1,8,0:0:0:0:
346,73,74408,1,8,0:0:0:0:
337,61,74527,1,0,0:0:0:0:
333,65,74765,1,0,0:0:0:0:
331,73,74825,1,0,0:0:0:0:
349,58,74884,1,0,0:0:0:0:
333,61,75003,1,8,0:0:0:0:
336,68,75122,1,0,0:0:0:0:
320,63,75241,1,8,0:0:0:0:
343,62,75360,1,8,0:0:0:0:
337,62,75479,1,0,0:0:0:0:
333,65,75718,1,8,0:0:0:0:
326,63,75837,1,0,0:0:0:0:
333,61,75956,1,8,0:0:0:0:
322,64,76075,1,8,0:0:0:0:
320,63,76194,1,0,0:0:0:0:
312,67,76313,1,8,0:0:0:0:
312,67,76432,1,0,0:0:0:0:
330,71,76551,1,0,0:0:0:0:
302,89,78575,5,8,0:0:0:0:
302,89,78814,1,0,0:0:0:0:
315,75,78933,1,8,0:0:0:0:
302,89,79052,1,0,0:0:0:0:
320,84,79171,1,0,0:0:0:0:
320,84,79290,1,8,0:0:0:0:
311,84,79528,1,0,0:0:0:0:
317,74,79647,1,8,0:0:0:0:
311,84,79766,1,0,0:0:0:0:
311,84,79885,1,0,0:0:0:0:
302,79,80004,1,8,0:0:0:0:
320,84,80242,1,0,0:0:0:0:
319,81,80361,1,0,0:0:0:0:
329,78,80480,1,8,0:0:0:0:
324,76,80718,1,0,0:0:0:0:
311,84,80837,1,8,0:0:0:0:
325,77,80956,1,0,0:0:0:0:
325,77,81075,1,0,0:0:0:0:
320,84,81194,1,8,0:0:0:0:
349,79,81433,1,0,0:0:0:0:
317,81,81552,1,8,0:0:0:0:
347,73,81671,1,0,0:0:0:0:
349,72,81790,1,0,0:0:0:0:
320,84,81909,1,8,0:0:0:0:
349,79,82385,1,8,0:0:0:0:
347,73,82623,1,0,0:0:0:0:
331,78,82742,1,8,0:0:0:0:
346,77,82861,1,0,0:0:0:0:
349,79,82980,1,0,0:0:0:0:
316,68,83099,1,8,0:0:0:0:
349,79,83337,1,0,0:0:0:0:
331,78,83456,1,8,0:0:0:0:
347,73,83575,1,0,0:0:0:0:
346,73,83694,1,0,0:0:0:0:
332,78,83814,1,8,0:0:0:0:
346,72,84052,1,0,0:0:0:0:
346,69,84171,1,0,0:0:0:0:
348,69,84290,1,8,0:0:0:0:
347,73,84528,1,0,0:0:0:0:
346,73,84647,1,8,0:0:0:0:
342,68,84766,1,0,0:0:0:0:
346,72,84885,1,0,0:0:0:0:
346,72,85004,1,8,0:0:0:0:
348,69,85242,1,0,0:0:0:0:
346,73,85361,1,8,0:0:0:0:
347,73,85480,1,0,0:0:0:0:
346,73,85599,1,0,0:0:0:0:
346,72,85718,1,8,0:0:0:0:
354,71,85837,1,8,0:0:0:0:
354,70,85956,1,8,0:0:0:0:
359,72,86194,1,8,0:0:0:0:
346,73,86314,1,0,0:0:0:0:
357,63,86433,1,8,0:0:0:0:
343,64,86671,1,8,0:0:0:0:
360,73,86790,1,8,0:0:0:0:
354,70,86909,1,0,0:0:0:0:
364,67,87147,1,8,0:0:0:0:
355,60,87265,1,8,0:0:0:0:
372,63,87385,1,0,0:0:0:0:
370,62,87504,1,0,0:0:0:0:
320,78,87623,1,8,0:0:0:0:
366,50,87683,1,8,0:0:0:0:
359,55,87742,1,8,0:0:0:0:
361,57,87861,1,0,0:0:0:0:
371,63,88099,1,8,0:0:0:0:
355,60,88218,1,0,0:0:0:0:
360,61,88337,1,8,0:0:0:0:
379,68,88575,1,8,0:0:0:0:
373,67,88814,1,0,0:0:0:0:
371,63,89052,1,8,0:0:0:0:
356,55,89170,1,0,0:0:0:0:
357,54,89290,1,8,0:0:0:0:
372,63,89409,1,0,0:0:0:0:
372,63,89528,1,8,0:0:0:0:
379,68,89646,1,0,0:0:0:0:
376,68,89706,1,0,0:0:0:0:
384,67,89766,1,0,0:0:0:0:
380,69,90004,1,0,0:0:0:0:
375,64,90242,1,0,0:0:0:0:
381,68,90361,1,0,0:0:0:0:
363,62,90480,1,8,0:0:0:0:
359,63,90718,1,0,0:0:0:0:
352,66,90837,1,8,0:0:0:0:
352,66,90956,1,0,0:0:0:0:
372,57,91194,1,8,0:0:0:0:
381,68,91314,1,8,0:0:0:0:
380,61,91433,1,0,0:0:0:0:
363,62,91492,1,0,0:0:0:0:
377,64,91552,1,0,0:0:0:0:
376,66,91671,1,8,0:0:0:0:
367,66,91909,1,0,0:0:0:0:
371,54,92028,1,0,0:0:0:0:
372,58,92147,1,12,0:0:0:0:
367,63,92623,1,8,0:0:0:0:
366,63,92742,1,0,0:0:0:0:
379,60,92861,1,8,0:0:0:0:
369,73,93099,1,8,0:0:0:0:
378,70,93337,1,0,0:0:0:0:
384,72,93456,5,0,0:0:0:0:
384,74,93575,1,0,0:0:0:0:
318,94,93814,1,8,0:0:0:0:
352,92,94289,1,0,0:0:0:0:
368,81,94527,1,0,0:0:0:0:
368,81,94765,1,8,0:0:0:0:
367,74,95003,1,0,0:0:0:0:
212,130,95479,2,4,B|211:216|211:216|212:171|239:169|238:217|239:129,1,140
256,85,95956,2,4,B|256:196|256:196|256:209|256:226|256:244|256:266|256:299|256:299|256:294,1,210.000008010865
166,95,96432,2,4,B|253:248|253:248|346:78,1,350
255,35,96908,2,4,B|255:329|255:329|255:191|255:191|256:314|256:314|255:292|256:251|254:211,1,560
405,46,97384,2,4,B|107:46|107:46|107:176|107:176|369:176|369:176|107:176|107:176|107:327|107:327|441:327,1,1400
366,120,98337,1,0,0:0:0:0:
357,114,98575,1,8,0:0:0:0:
357,114,98813,1,0,0:0:0:0:
212,130,99289,2,4,B|211:216|211:216|212:171|239:169|238:217|239:129,1,140
256,85,99766,2,4,B|256:196|256:196|256:209|256:226|256:244|256:266|256:299|256:299|256:294,1,210.000008010865
166,95,100242,2,4,B|253:248|253:248|346:78,1,350
255,35,100718,2,4,B|255:329|255:329|255:191|255:191|256:314|256:314|255:292|256:251|254:211,1,560
405,46,101194,2,4,B|107:46|107:46|107:176|107:176|369:176|369:176|107:176|107:176|107:327|107:327|441:327,1,1400
354,89,102146,1,0,0:0:0:0:
354,89,102384,1,8,0:0:0:0:
366,92,102622,1,0,0:0:0:0:
212,130,103099,2,4,B|211:216|211:216|212:171|239:169|238:217|239:129,1,140
256,85,103576,2,4,B|256:196|256:196|256:209|256:226|256:244|256:266|256:299|256:299|256:294,1,210.000008010865
166,95,104052,2,4,B|253:248|253:248|346:78,1,350
255,35,104528,2,4,B|255:329|255:329|255:191|255:191|256:314|256:314|255:292|256:251|254:211,1,560
405,46,105004,2,4,B|107:46|107:46|107:176|107:176|369:176|369:176|107:176|107:176|107:327|107:327|441:327,1,1400
271,112,105956,1,0,0:0:0:0:
310,105,106194,1,8,0:0:0:0:
297,111,106432,1,0,0:0:0:0:
297,111,106670,1,0,0:0:0:0:
306,93,107146,1,0,0:0:0:0:
310,95,107265,1,0,0:0:0:0:
310,96,107384,1,12,0:0:0:0:
322,97,107860,1,8,0:0:0:0:
306,93,107979,1,0,0:0:0:0:
322,95,108099,1,8,0:0:0:0:
298,90,108337,1,8,0:0:0:0:
320,86,108575,1,0,0:0:0:0:
320,86,108694,1,0,0:0:0:0:
322,86,108813,1,0,0:0:0:0:
322,95,109051,1,0,0:0:0:0:
