osu file format v14

[General]
AudioFilename: audio.mp3
AudioLeadIn: 0
PreviewTime: 59453
Countdown: 0
SampleSet: Soft
StackLeniency: 0.3
Mode: 0
LetterboxInBreaks: 0
WidescreenStoryboard: 1

[Editor]
Bookmarks: 75564
DistanceSpacing: 1
BeatDivisor: 2
GridSize: 16
TimelineZoom: 1.7

[Metadata]
Title:Naughty Love (TV Size)
TitleUnicode:Naughty Love (TV Size)
Artist:Megami Ryousei
ArtistUnicode:女神寮生
Creator:Twil_Furano
Version:Normal
Source:女神寮の寮母くん。
Tags:megami-ryou no ryoubo-kun mother of the goddess dormitory anime アニメ opening theme j-pop jpop japanese pop saotome atena 早乙女あてな nagumo koushi 南雲孝士 hozumi serene 八月朔日せれね frey フレイ kouroya sutea 香炉野すてあ senshou kiriya 戦咲きりや wachi mineru 和知みねる Ashu Nekota 猫田あしゅ Nairu ないる Kururu Kurasaka 倉坂くるる Freya ふれいあ Yuki Yomichi 夜道雪 airiesu mujina yukizura-
BeatmapID:3194355
BeatmapSetID:1554036

[Difficulty]
HPDrainRate:3
CircleSize:3
OverallDifficulty:4
ApproachRate:4.5
SliderMultiplier:1.1
SliderTickRate:1

[Events]
//Background and Video events
0,0,"bk.jpeg",0,0
//Break Periods
//Storyboard Layer 0 (Background)
//Storyboard Layer 1 (Fail)
//Storyboard Layer 2 (Pass)
//Storyboard Layer 3 (Foreground)
//Storyboard Layer 4 (Overlay)
//Storyboard Sound Samples

[TimingPoints]
750,370.37037037037,4,2,1,50,1,0
750,-133.333333333333,4,2,1,50,0,0
12601,-111.111111111111,4,2,1,50,0,0
17786,-111.111111111111,4,2,1,70,0,0
17972,-111.111111111111,4,2,1,50,0,0
19268,-111.111111111111,4,2,1,70,0,0
19453,-111.111111111111,4,2,1,50,0,0
20935,-111.111111111111,4,2,1,50,0,0
22231,-111.111111111111,4,2,1,70,0,0
22416,-111.111111111111,4,2,1,50,0,0
23712,-111.111111111111,4,2,1,70,0,0
23898,-111.111111111111,4,2,1,50,0,0
24268,-111.111111111111,4,2,1,70,0,0
24453,-111.111111111111,4,2,1,50,0,0
27231,-111.111111111111,4,2,1,70,0,0
27416,-111.111111111111,4,2,1,50,0,0
30194,-111.111111111111,4,2,1,70,0,0
30379,-111.111111111111,4,2,1,50,0,0
34638,-111.111111111111,4,2,1,50,0,0
35193,-111.111111111111,4,2,1,30,0,0
35564,-111.111111111111,4,2,1,30,0,0
35935,-111.111111111111,4,2,2,30,0,0
36305,-100,4,2,1,60,0,0
37787,-100,4,2,1,60,0,0
38157,-100,4,2,1,60,0,0
39268,-100,4,2,1,60,0,0
39638,-100,4,2,1,60,0,0
45379,-100,4,2,1,70,0,0
45564,-100,4,2,1,60,0,0
45749,-100,4,2,1,70,0,0
45935,-100,4,2,1,60,0,0
49638,-100,4,2,1,60,0,0
50009,-100,4,2,1,60,0,0
51120,-100,4,2,1,60,0,0
51490,-100,4,2,1,60,0,0
54083,-100,4,2,1,65,0,0
55009,-100,4,2,1,65,0,0
55564,-100,4,2,1,70,0,0
57046,-111.111111111111,4,2,1,75,0,0
58342,-111.111111111111,4,2,1,80,0,0
58712,-111.111111111111,4,2,1,60,0,0
59638,-111.111111111111,4,2,1,50,0,0
60009,-90.9090909090909,4,2,1,80,0,1
61675,-90.9090909090909,4,2,1,80,0,1
62972,-90.9090909090909,4,2,1,80,0,1
65379,-90.9090909090909,4,2,1,80,0,1
67601,-90.9090909090909,4,2,1,80,0,1
68898,-90.9090909090909,4,2,1,80,0,1
72046,-90.9090909090909,4,2,1,70,0,1
72231,-90.9090909090909,4,2,1,80,0,1
72601,-90.9090909090909,4,2,1,70,0,1
72787,-90.9090909090909,4,2,1,80,0,1
73157,-90.9090909090909,4,2,1,70,0,1
73342,-90.9090909090909,4,2,1,80,0,1
74638,-90.9090909090909,4,2,1,70,0,1
74824,-90.9090909090909,4,2,1,80,0,1
77972,-90.9090909090909,4,2,1,70,0,1
78157,-90.9090909090909,4,2,1,80,0,1
78527,-90.9090909090909,4,2,1,70,0,1
78712,-90.9090909090909,4,2,1,80,0,1
79083,-90.9090909090909,4,2,1,70,0,1
79268,-90.9090909090909,4,2,1,80,0,1
80564,-90.9090909090909,4,2,1,70,0,1
80749,-90.9090909090909,4,2,1,80,0,1
82231,-90.9090909090909,4,2,1,70,0,1
82416,-90.9090909090909,4,2,1,80,0,1
82786,-90.9090909090909,4,2,1,70,0,1
82972,-90.9090909090909,4,2,1,80,0,1
83712,-111.111111111111,4,2,1,50,0,0
86490,-111.111111111111,4,2,1,70,0,0
86675,-111.111111111111,4,2,1,50,0,0
89453,-111.111111111111,4,2,1,70,0,0
89638,-111.111111111111,4,2,1,50,0,0

[Colours]
Combo1 : 237,234,112
Combo2 : 49,197,33
Combo3 : 241,124,209
Combo4 : 224,215,225
Combo5 : 238,26,79
Combo6 : 219,156,40

[HitObjects]
49,71,750,5,2,3:2:0:0:
206,22,1490,2,0,P|275:22|326:64,2,123.750004720688,2|2|0,0:0|0:0|1:2,0:0:0:0:
138,69,2972,2,0,L|130:167,1,82.5000031471254,0|0,0:0|1:2,0:0:0:0:
123,233,3712,5,2,3:2:0:0:
227,361,4453,2,0,P|296:361|347:319,2,123.750004720688,2|2|0,0:0|0:0|1:2,0:0:0:0:
163,308,5935,2,0,L|171:210,1,82.5000031471254,0|0,0:0|1:2,0:0:0:0:
176,143,6675,5,2,3:2:0:0:
336,104,7416,2,0,P|352:170|335:228,2,123.750004720688,2|2|0,0:0|0:0|1:2,0:0:0:0:
256,80,8898,2,0,L|169:77,1,82.5000031471254,0|0,0:0|1:2,0:0:0:0:
256,192,9638,12,2,10935,0:0:0:0:
110,111,12601,6,0,P|142:110|174:122,1,49.4999984893799,6|2,3:2|0:0,0:0:0:0:
198,146,12972,1,8,0:0:0:0:
241,171,13157,2,0,P|297:172|341:128,1,98.9999969787599,2|0,0:0|3:2,0:0:0:0:
350,102,13712,1,8,0:0:0:0:
447,81,14083,2,0,L|452:138,1,49.4999984893799,0|2,3:2|0:0,0:0:0:0:
470,175,14453,1,8,0:0:0:0:
480,223,14638,2,0,L|469:334,1,98.9999969787599,2|0,0:0|3:2,0:0:0:0:
448,365,15194,1,8,0:0:0:0:
349,365,15564,6,0,P|316:366|274:353,1,49.4999984893799,2|2,3:2|0:0,0:0:0:0:
262,332,15935,1,8,0:0:0:0:
223,302,16120,2,0,P|171:305|126:338,1,98.9999969787599,2|0,0:0|3:2,0:0:0:0:
97,365,16675,1,8,0:0:0:0:
25,295,17046,2,0,L|20:226,1,49.4999984893799,0|2,3:2|0:0,0:0:0:0:
28,198,17416,1,8,0:0:0:0:
37,150,17601,2,0,L|45:42,1,98.9999969787599,2|0,0:0|3:2,0:0:0:0:
75,12,18157,1,8,0:0:0:0:
173,10,18527,6,0,P|228:12|270:49,1,98.9999969787599,2|8,3:2|0:0,0:0:0:0:
283,82,19083,2,0,P|289:138|268:186,1,98.9999969787599,2|0,0:0|3:2,0:0:0:0:
236,208,19638,1,8,0:0:0:0:
143,243,20009,2,0,L|135:317,1,49.4999984893799,0|2,3:2|0:0,0:0:0:0:
153,338,20379,1,8,0:0:0:0:
195,364,20564,2,0,L|297:359,1,98.9999969787599,2|0,0:0|3:2,0:0:0:0:
343,356,21120,1,8,0:0:0:0:
441,366,21490,6,0,P|448:337|448:297,1,49.4999984893799,2|2,3:2|0:0,0:0:0:0:
425,274,21861,1,8,0:0:0:0:
395,242,22046,2,0,P|341:223|290:233,1,98.9999969787599,2|0,0:0|3:2,0:0:0:0:
262,260,22601,1,8,0:0:0:0:
198,335,22972,2,0,L|95:331,1,98.9999969787599,0|8,3:2|0:0,0:0:0:0:
51,317,23527,2,0,L|45:219,1,98.9999969787599,2|0,0:0|3:2,0:0:0:0:
40,168,24083,1,8,0:0:0:0:
102,90,24453,5,6,3:2:0:0:
197,116,24824,1,8,0:0:0:0:
278,60,25194,2,0,L|273:-4,2,49.4999984893799,2|0|8,0:0|3:2|0:0,0:0:0:0:
313,93,25749,1,2,0:0:0:0:
379,175,26120,1,2,0:0:0:0:
379,175,26305,2,0,L|378:237,1,49.4999984893799,8|2,0:0|0:0,0:0:0:0:
393,271,26675,2,0,L|394:333,1,49.4999984893799,2|0,0:0|3:2,0:0:0:0:
377,367,27046,1,8,0:0:0:0:
278,374,27416,5,2,3:2:0:0:
178,373,27787,1,8,0:0:0:0:
92,323,28157,2,0,L|31:328,2,49.4999984893799,2|0|8,0:0|3:2|0:0,0:0:0:0:
131,292,28712,1,2,0:0:0:0:
176,206,29083,1,2,0:0:0:0:
176,206,29268,2,0,L|178:140,1,49.4999984893799,8|2,0:0|0:0,0:0:0:0:
168,107,29638,2,0,L|166:41,1,49.4999984893799,2|0,0:0|3:2,0:0:0:0:
191,14,30009,1,8,0:0:0:0:
287,36,30379,5,2,3:2:0:0:
265,132,30749,1,8,0:0:0:0:
278,230,31120,2,0,L|334:225,2,49.4999984893799,2|0|8,0:0|3:2|0:0,0:0:0:0:
242,264,31675,1,2,0:0:0:0:
244,367,32046,1,2,0:0:0:0:
244,367,32231,2,0,L|183:364,1,49.4999984893799,8|2,0:0|0:0,0:0:0:0:
148,346,32601,2,0,L|87:349,1,49.4999984893799,2|0,0:0|3:2,0:0:0:0:
52,365,32972,1,8,0:0:0:0:
22,270,33342,6,0,L|20:204,1,49.4999984893799,2|2,3:2|0:0,0:0:0:0:
35,173,33712,2,0,L|37:107,1,49.4999984893799,8|2,0:0|0:0,0:0:0:0:
29,74,34083,1,2,0:0:0:0:
29,74,34268,1,0,3:2:0:0:
111,19,34638,1,2,3:2:0:0:
182,254,35564,2,0,L|182:316,1,49.4999984893799,2|0,0:0|3:2,0:0:0:0:
182,353,35935,1,8,0:0:0:0:
291,333,36305,6,0,B|453:364|453:364|496:317,1,220,6|2,3:2|0:0,0:0:0:0:
470,214,37416,1,10,0:0:0:0:
492,106,37787,2,0,B|421:80|388:8|388:8|351:28|290:28,1,220,2|2,3:2|0:0,0:0:0:0:
215,66,38898,1,10,0:0:0:0:
119,11,39268,6,0,B|55:52|55:52|88:206,1,220,2|2,3:2|0:0,0:0:0:0:
174,257,40379,1,10,0:0:0:0:
142,362,40749,2,0,P|212:363|247:322,1,110,2|10,3:2|0:0,0:0:0:0:
270,292,41305,2,0,P|323:284|367:315,1,110,2|2,3:2|3:2,0:0:0:0:
390,365,41861,1,10,0:0:0:0:
476,297,42231,6,0,L|482:178,1,110,2|10,3:2|0:0,0:0:0:0:
502,135,42787,2,0,P|505:74|470:17,1,110,2|2,0:0|3:2,0:0:0:0:
433,9,43342,1,10,0:0:0:0:
348,79,43712,2,0,P|281:89|234:60,1,110,2|10,3:2|0:0,0:0:0:0:
208,29,44268,2,0,L|91:37,1,110,2|2,0:0|3:2,0:0:0:0:
43,39,44824,1,10,0:0:0:0:
23,147,45194,5,2,3:2:0:0:
85,237,45564,1,10,0:0:0:0:
194,226,45935,1,2,0:0:0:0:
214,118,46305,1,10,0:0:0:0:
188,11,46675,2,0,P|251:11|303:64,1,110,2|10,3:2|0:0,0:0:0:0:
317,83,47231,2,0,L|310:205,1,110,2|2,3:2|3:2,0:0:0:0:
326,245,47787,2,0,L|323:312,1,55,10|10,0:0|0:0,0:0:0:0:
310,353,48157,6,0,B|237:320|181:362|181:362|161:323|91:313,1,220,6|2,3:2|0:0,0:0:0:0:
49,227,49268,1,10,0:0:0:0:
96,127,49638,2,0,B|260:106|260:106|308:140,1,220,2|2,3:2|0:0,0:0:0:0:
393,202,50749,1,10,0:0:0:0:
482,137,51120,6,0,B|438:80|446:10|446:10|403:37|358:20,1,220,2|2,3:2|0:0,0:0:0:0:
263,65,52231,1,10,0:0:0:0:
164,15,52601,2,0,B|145:71|145:71|158:125,1,110,2|10,3:2|0:0,0:0:0:0:
197,157,53157,2,0,B|216:213|216:213|203:267,1,110,2|2,3:2|3:2,0:0:0:0:
174,308,53712,1,10,0:0:0:0:
82,369,54083,6,0,P|43:328|47:271,1,110,6|10,3:2|0:0,0:0:0:0:
59,223,54638,2,0,B|73:148|73:148|48:111,1,110,2|2,3:2|3:2,0:0:0:0:
12,84,55194,1,10,0:0:0:0:
96,13,55564,2,0,B|179:15|179:15|199:45,1,110,2|10,3:2|0:0,0:0:0:0:
225,82,56120,2,0,P|283:92|337:60,1,110,2|2,3:2|3:2,0:0:0:0:
352,21,56675,1,10,0:0:0:0:
451,50,57046,5,10,3:2:0:0:
451,50,57231,2,0,L|457:157,1,98.9999969787599,10|10,0:0|3:2,0:0:0:0:
423,186,57787,2,0,P|367:187|321:166,1,98.9999969787599,10|10,0:0|3:2,0:0:0:0:
289,139,58342,1,14,0:0:0:0:
24,46,59638,2,0,L|96:53,1,49.4999984893799,10|2,0:0|0:0,0:0:0:0:
131,32,60009,6,0,P|195:17|250:51,1,121.000003692627,6|10,3:2|0:0,0:0:0:0:
272,93,60564,1,2,3:2:0:0:
332,85,60749,2,0,L|458:89,1,121.000003692627,2|10,3:2|0:0,0:0:0:0:
504,121,61305,2,0,P|513:189|488:240,1,121.000003692627,2|2,3:2|3:2,0:0:0:0:
453,282,61861,1,10,0:0:0:0:
364,363,62231,2,0,L|292:363,1,60.5000018463135,2|2,0:0|3:2,0:0:0:0:
243,363,62601,1,10,0:0:0:0:
122,353,62972,6,0,L|118:291,1,60.5000018463135,0|2,3:2|0:0,0:0:0:0:
155,244,63342,2,0,L|159:182,1,60.5000018463135,10|2,0:0|3:2,0:0:0:0:
116,140,63712,2,0,L|112:78,1,60.5000018463135,2|2,3:2|0:0,0:0:0:0:
127,20,64083,1,10,0:0:0:0:
127,20,64268,6,0,P|191:11|236:43,1,121.000003692627,2|2,3:2|3:2,0:0:0:0:
259,102,64824,1,10,0:0:0:0:
259,102,65009,1,2,3:2:0:0:
438,73,65564,2,0,L|444:154,1,60.5000018463135,10|2,0:0|0:0,0:0:0:0:
480,180,65935,6,0,L|474:306,1,121.000003692627,2|10,3:2|0:0,0:0:0:0:
459,359,66490,1,2,3:2:0:0:
399,367,66675,2,0,P|334:371|287:334,1,121.000003692627,2|10,3:2|0:0,0:0:0:0:
255,289,67231,2,0,L|261:163,1,121.000003692627,2|2,3:2|3:2,0:0:0:0:
264,107,67787,1,10,0:0:0:0:
185,15,68157,2,0,P|150:13|111:18,1,60.5000018463135,2|0,0:0|3:2,0:0:0:0:
65,29,68527,1,10,0:0:0:0:
36,146,68898,6,0,L|105:151,1,60.5000018463135,2|2,3:2|0:0,0:0:0:0:
142,189,69268,2,0,L|211:184,1,60.5000018463135,10|2,0:0|3:2,0:0:0:0:
248,145,69638,2,0,L|317:150,1,60.5000018463135,2|2,0:0|3:2,0:0:0:0:
368,176,70009,1,10,0:0:0:0:
368,176,70194,6,0,P|388:229|364:300,1,121.000003692627,2|2,3:2|3:2,2:2:0:0:
342,342,70749,1,10,0:0:0:0:
223,367,71120,2,0,L|143:361,1,60.5000018463135,2|10,0:0|0:0,0:0:0:0:
109,332,71490,2,0,L|31:335,1,60.5000018463135,10|10,0:0|0:0,0:0:0:0:
14,283,71861,6,0,B|19:195|19:195|51:166,1,121.000003692627,6|10,3:2|0:0,0:0:0:0:
97,146,72416,2,0,P|161:141|209:181,1,121.000003692627,2|2,0:0|3:2,0:0:0:0:
249,214,72972,2,0,B|335:220|335:220|367:202,1,121.000003692627,10|2,0:0|3:2,0:0:0:0:
406,159,73527,2,0,P|410:88|379:43,1,121.000003692627,2|2,0:0|0:0,0:0:0:0:
333,14,74083,1,2,0:0:0:0:
217,51,74453,1,10,0:0:0:0:
100,17,74824,6,0,P|60:64|97:190,1,181.500005538941,2|2,3:2|0:0,0:0:0:0:
123,217,75564,2,0,P|197:244|275:155,1,181.500005538941,2|2,0:0|0:0,0:0:0:0:
326,159,76305,6,0,L|401:159,1,60.5000018463135,2|2,3:2|0:0,0:0:0:0:
445,170,76675,2,0,L|451:242,1,60.5000018463135,10|2,0:0|0:0,0:0:0:0:
445,290,77046,1,2,0:0:0:0:
349,364,77416,1,10,0:0:0:0:
227,367,77787,6,0,P|160:362|102:316,1,121.000003692627,2|10,3:2|0:0,0:0:0:0:
91,278,78342,2,0,L|95:151,1,121.000003692627,2|2,0:0|3:2,0:0:0:0:
123,103,78898,2,0,P|196:103|246:151,1,121.000003692627,10|2,0:0|3:2,0:0:0:0:
284,162,79453,2,0,L|405:161,1,121.000003692627,2|2,0:0|0:0,0:0:0:0:
465,163,80009,1,2,0:0:0:0:
492,280,80379,1,8,0:0:0:0:
405,364,80749,6,0,L|333:362,1,60.5000018463135,2|2,3:2|0:0,0:0:0:0:
287,340,81120,2,0,L|215:342,1,60.5000018463135,10|2,0:0|0:0,0:0:0:0:
169,361,81490,2,0,P|94:364|46:325,1,121.000003692627,2|10,0:0|0:0,0:0:0:0:
36,282,82046,2,0,L|45:154,1,121.000003692627,10|10,0:0|3:2,0:0:0:0:
48,100,82601,1,10,0:0:0:0:
135,15,82972,1,10,0:0:0:0:
368,57,83712,5,2,3:2:0:0:
265,226,84453,2,0,L|248:67,2,148.49999546814,2|2|0,0:0|0:0|1:2,0:0:0:0:
249,323,85935,2,0,P|198:335|134:315,1,98.9999969787599,2|2,0:0|1:2,0:0:0:0:
99,242,86675,5,2,3:2:0:0:
219,84,87416,2,0,P|152:71|61:58,2,148.49999546814,2|2|0,0:0|0:0|1:2,0:0:0:0:
303,135,88898,2,0,P|350:135|421:129,1,98.9999969787599,2|2,0:0|1:2,0:0:0:0:
472,61,89638,1,0,3:2:0:0:
