osu file format v14

[General]
AudioFilename: audio.mp3
AudioLeadIn: 0
PreviewTime: 59453
Countdown: 0
SampleSet: Soft
StackLeniency: 0.7
Mode: 0
LetterboxInBreaks: 0
WidescreenStoryboard: 0

[Editor]
Bookmarks: 88342
DistanceSpacing: 1.5
BeatDivisor: 4
GridSize: 16
TimelineZoom: 1.7

[Metadata]
Title:Naughty Love (TV Size)
TitleUnicode:Naughty Love (TV Size)
Artist:Megami Ryousei
ArtistUnicode:女神寮生
Creator:Twil_Furano
Version:Dormitory
Source:女神寮の寮母くん。
Tags:megami-ryou no ryoubo-kun mother of the goddess dormitory anime アニメ opening theme j-pop jpop japanese pop saotome atena 早乙女あてな nagumo koushi 南雲孝士 hozumi serene 八月朔日せれね frey フレイ kouroya sutea 香炉野すてあ senshou kiriya 戦咲きりや wachi mineru 和知みねる Ashu Nekota 猫田あしゅ Nairu ないる Kururu Kurasaka 倉坂くるる Freya ふれいあ Yuki Yomichi 夜道雪 airiesu mujina yukizura-
BeatmapID:3175003
BeatmapSetID:1554036

[Difficulty]
HPDrainRate:5
CircleSize:3.8
OverallDifficulty:7.8
ApproachRate:9
SliderMultiplier:1.6
SliderTickRate:1

[Events]
//Background and Video events
0,0,"bk.jpeg",0,0
//Break Periods
//Storyboard Layer 0 (Background)
//Storyboard Layer 1 (Fail)
//Storyboard Layer 2 (Pass)
//Storyboard Layer 3 (Foreground)
//Storyboard Layer 4 (Overlay)
//Storyboard Sound Samples

[TimingPoints]
750,370.37037037037,4,2,1,50,1,0
750,-133.333333333333,4,2,1,50,0,0
12601,-100,4,2,1,50,0,0
17972,-100,4,2,1,50,0,0
19268,-100,4,2,1,70,0,0
19453,-100,4,2,1,50,0,0
20749,-100,4,2,1,70,0,0
20935,-100,4,2,1,50,0,0
22231,-100,4,2,1,70,0,0
22416,-100,4,2,1,50,0,0
23712,-100,4,2,1,70,0,0
23898,-100,4,2,1,50,0,0
24268,-100,4,2,1,70,0,0
24453,-100,4,2,1,50,0,0
27231,-100,4,2,1,70,0,0
27416,-100,4,2,1,50,0,0
30194,-100,4,2,1,70,0,0
30379,-100,4,2,1,50,0,0
34638,-133.333333333333,4,2,1,50,0,0
35564,-133.333333333333,4,2,1,30,0,0
35935,-133.333333333333,4,2,2,30,0,0
36305,-133.333333333333,4,2,1,60,0,0
36583,-133.333333333333,4,2,1,5,0,0
36675,-133.333333333333,4,2,1,60,0,0
38064,-133.333333333333,4,2,1,5,0,0
38157,-133.333333333333,4,2,1,60,0,0
39546,-133.333333333333,4,2,1,5,0,0
39638,-133.333333333333,4,2,1,60,0,0
45379,-133.333333333333,4,2,1,70,0,0
45564,-133.333333333333,4,2,1,60,0,0
45749,-133.333333333333,4,2,1,70,0,0
45935,-133.333333333333,4,2,1,60,0,0
48435,-133.333333333333,4,2,1,5,0,0
48527,-133.333333333333,4,2,1,60,0,0
49916,-133.333333333333,4,2,1,5,0,0
50009,-133.333333333333,4,2,1,60,0,0
51398,-133.333333333333,4,2,1,5,0,0
51490,-133.333333333333,4,2,1,60,0,0
54083,-117.647058823529,4,2,1,65,0,0
54823,-117.647058823529,4,2,1,70,0,0
55009,-117.647058823529,4,2,1,65,0,0
55564,-105.263157894737,4,2,1,70,0,0
57046,-105.263157894737,4,2,1,75,0,0
58342,-105.263157894737,4,2,1,80,0,0
58712,-105.263157894737,4,2,1,60,0,0
59638,-105.263157894737,4,2,1,50,0,0
60009,-86.9565217391303,4,2,1,80,0,1
61490,-86.9565217391303,4,2,1,70,0,1
61583,-86.9565217391303,4,2,1,5,0,1
61675,-86.9565217391303,4,2,1,80,0,1
62786,-86.9565217391303,4,2,1,70,0,1
62879,-86.9565217391303,4,2,1,5,0,1
62972,-86.9565217391303,4,2,1,80,0,1
65194,-86.9565217391303,4,2,1,70,0,1
65379,-86.9565217391303,4,2,1,80,0,1
67416,-86.9565217391303,4,2,1,70,0,1
67509,-86.9565217391303,4,2,1,5,0,1
67601,-86.9565217391303,4,2,1,80,0,1
68712,-86.9565217391303,4,2,1,70,0,1
68805,-86.9565217391303,4,2,1,5,0,1
68898,-86.9565217391303,4,2,1,80,0,1
72046,-86.9565217391303,4,2,1,70,0,1
72231,-86.9565217391303,4,2,1,80,0,1
72601,-86.9565217391303,4,2,1,70,0,1
72787,-86.9565217391303,4,2,1,80,0,1
73157,-86.9565217391303,4,2,1,70,0,1
73342,-86.9565217391303,4,2,1,80,0,1
74638,-86.9565217391303,4,2,1,70,0,1
74824,-86.9565217391303,4,2,1,80,0,1
77972,-86.9565217391303,4,2,1,70,0,1
78157,-86.9565217391303,4,2,1,80,0,1
78527,-86.9565217391303,4,2,1,70,0,1
78712,-86.9565217391303,4,2,1,80,0,1
79083,-86.9565217391303,4,2,1,70,0,1
79268,-86.9565217391303,4,2,1,80,0,1
80564,-86.9565217391303,4,2,1,70,0,1
80749,-86.9565217391303,4,2,1,80,0,1
82046,-76.9230769230769,4,2,1,80,0,1
82231,-76.9230769230769,4,2,1,70,0,1
82324,-76.9230769230769,4,2,1,5,0,1
82416,-76.9230769230769,4,2,1,80,0,1
82786,-76.9230769230769,4,2,1,70,0,1
82879,-76.9230769230769,4,2,1,5,0,1
82972,-76.9230769230769,4,2,1,80,0,1
83712,-133.333333333333,4,2,1,50,0,0
86490,-133.333333333333,4,2,1,70,0,0
86675,-133.333333333333,4,2,1,50,0,0
89453,-133.333333333333,4,2,1,70,0,0
89638,-133.333333333333,4,2,1,50,0,0

[Colours]
Combo1 : 237,234,112
Combo2 : 49,197,33
Combo3 : 241,124,209
Combo4 : 224,215,225
Combo5 : 238,26,79
Combo6 : 219,156,40

[HitObjects]
83,147,750,6,0,L|69:274,1,120.000004577637,2|0,3:2|1:2,0:0:0:0:
200,194,1305,1,0,1:2:0:0:
181,365,1490,2,0,L|189:291,1,60.0000022888184,2|0,0:0|3:2,0:0:0:0:
317,241,1861,1,0,1:2:0:0:
114,163,2046,2,0,L|127:36,1,120.000004577637,2|0,0:0|2:2,2:2:0:0:
285,158,2601,6,0,L|354:153,1,60.0000022888184,0|0,1:2|1:2,2:2:0:0:
382,47,2972,2,0,L|313:42,1,60.0000022888184,0|0,0:0|3:2,0:0:0:0:
199,143,3342,1,0,1:2:0:0:
199,143,3712,6,0,P|190:69|221:20,1,120.000004577637,2|0,3:2|1:2,0:0:0:0:
321,139,4268,1,0,1:2:0:0:
263,245,4453,2,0,L|187:252,1,60.0000022888184,2|0,0:0|3:2,0:0:0:0:
365,232,4824,1,0,1:2:0:0:
185,358,5009,2,0,L|310:345,1,120.000004577637,2|0,0:0|2:2,2:2:0:0:
266,185,5564,6,0,L|261:262,1,60.0000022888184,0|0,1:2|1:2,2:2:0:0:
368,291,5935,2,0,L|363:214,1,60.0000022888184,0|0,0:0|3:2,0:0:0:0:
444,135,6305,1,0,1:2:0:0:
444,135,6675,6,0,P|381:123|337:166,1,120.000004577637,2|0,3:2|1:2,0:0:0:0:
285,81,7231,1,0,1:2:0:0:
189,160,7416,2,0,L|177:226,1,60.0000022888184,2|0,0:0|3:2,0:0:0:0:
206,42,7787,1,0,1:2:0:0:
62,204,7972,2,0,L|85:87,1,120.000004577637,2|0,0:0|2:2,2:2:0:0:
208,231,8527,6,0,P|172:229|132:239,1,60.0000022888184,0|0,1:2|1:2,2:2:0:0:
90,329,8898,2,0,P|126:327|166:337,1,60.0000022888184,0|0,0:0|3:2,0:0:0:0:
254,373,9268,1,0,1:2:0:0:
256,192,9638,12,2,10935,0:0:0:0:
185,140,12046,5,2,3:2:0:0:
119,208,12231,1,10,0:0:0:0:
94,45,12416,1,10,0:0:0:0:
94,45,12509,1,8,0:0:0:0:
94,45,12601,6,0,L|83:136,1,80,6|2,3:2|0:0,0:0:0:0:
161,282,12972,1,8,0:0:0:0:
266,177,13157,2,0,B|347:139|349:226|434:177,1,160,2|0,0:0|3:2,0:0:0:0:
306,247,13712,1,8,0:0:0:0:
172,209,13898,1,2,0:0:0:0:
259,91,14083,6,0,P|258:139|255:184,1,80,0|2,3:2|0:0,0:0:0:0:
357,54,14453,1,8,0:0:0:0:
441,227,14638,2,0,P|366:202|303:251,1,160,2|0,0:0|3:2,0:0:0:0:
250,361,15194,1,8,0:0:0:0:
172,209,15379,1,2,0:0:0:0:
152,371,15564,6,0,L|160:282,1,80,2|2,3:2|0:0,0:0:0:0:
255,263,15935,1,8,0:0:0:0:
92,148,16120,2,0,L|75:315,1,160,2|0,0:0|3:2,0:0:0:0:
265,175,16675,1,8,0:0:0:0:
165,288,16861,1,2,0:0:0:0:
360,371,17046,6,0,L|352:291,1,80,0|2,3:2|0:0,0:0:0:0:
255,263,17416,1,8,0:0:0:0:
420,148,17601,2,0,L|437:315,1,160,2|0,0:0|3:2,0:0:0:0:
346,109,18157,1,8,0:0:0:0:
347,251,18342,1,2,0:0:0:0:
367,27,18527,6,0,P|435:101|414:155,1,160,2|8,3:2|0:0,0:0:0:0:
186,116,19083,2,0,L|358:108,1,160,2|0,0:0|3:2,2:2:0:0:
426,229,19638,1,8,0:0:0:0:
321,334,19824,1,2,0:0:0:0:
237,206,20009,6,0,P|188:202|142:212,1,80,0|2,3:2|0:0,2:2:0:0:
49,227,20379,1,8,0:0:0:0:
105,366,20564,2,0,P|65:371|26:367,1,80,2|0,0:0|2:2,0:0:0:0:
205,309,20935,1,0,3:2:0:0:
169,173,21120,1,8,0:0:0:0:
90,289,21305,1,2,0:0:0:0:
308,326,21490,6,0,P|317:287|324:247,1,80,2|2,3:2|0:0,0:0:0:0:
353,153,21861,1,8,0:0:0:0:
413,298,22046,2,0,P|406:337|397:376,1,80,2|2,0:0|0:0,0:0:0:0:
244,264,22416,1,0,3:2:0:0:
399,214,22601,1,8,0:0:0:0:
250,127,22787,1,2,0:0:0:0:
280,49,22972,6,0,P|334:110|314:184,1,160,0|8,3:2|0:0,0:0:0:0:
175,164,23527,1,2,0:0:0:0:
175,164,23712,1,0,0:0:0:0:
120,36,23898,1,0,3:2:0:0:
33,131,24083,2,0,L|25:210,1,80,8|0,0:0|0:0,0:0:0:0:
238,282,24453,6,0,B|162:238|158:315|74:269,2,160,6|8|2,3:2|0:0|0:0,0:0:0:0:
314,354,25379,1,0,3:2:0:0:
340,248,25564,1,8,0:0:0:0:
426,338,25749,2,0,P|455:309|459:264,1,80,2|0,0:0|3:2,0:0:0:0:
254,279,26120,5,2,0:0:0:0:
222,135,26305,1,8,0:0:0:0:
351,166,26490,1,2,0:0:0:0:
189,211,26675,1,2,0:0:0:0:
297,89,26861,1,0,3:2:0:0:
340,248,27046,1,8,0:0:0:0:
368,37,27416,6,0,P|440:45|508:96,2,160,2|8|2,3:2|0:0|0:0,0:0:0:0:
298,107,28342,1,0,3:2:0:0:
285,0,28527,1,8,0:0:0:0:
196,49,28712,2,0,P|163:75|159:125,1,80,2|0,0:0|3:2,0:0:0:0:
363,40,29083,5,2,0:0:0:0:
455,154,29268,1,8,0:0:0:0:
308,185,29453,1,2,0:0:0:0:
443,74,29638,1,2,0:0:0:0:
385,229,29824,1,0,3:2:0:0:
298,107,30009,1,8,0:0:0:0:
54,139,30379,6,0,B|-5:79|35:2|101:36|94:87,2,160,2|8|2,3:2|0:0|0:0,0:0:0:0:
130,201,31305,1,0,3:2:0:0:
29,233,31490,1,8,0:0:0:0:
86,309,31675,2,0,P|138:333|177:329,1,80,2|0,0:0|3:2,0:0:0:0:
58,151,32046,5,2,0:0:0:0:
158,36,32231,1,8,0:0:0:0:
207,173,32416,1,2,0:0:0:0:
64,62,32601,1,2,0:0:0:0:
240,87,32787,1,0,3:2:0:0:
130,201,32972,2,0,P|127:247|144:293,1,80,8|2,0:0|0:0,0:0:0:0:
306,372,33342,5,2,3:2:0:0:
351,234,33527,1,2,0:0:0:0:
441,354,33712,1,8,0:0:0:0:
415,171,33898,1,2,0:0:0:0:
364,314,34083,1,2,0:0:0:0:
272,190,34268,2,0,P|223:199|184:212,1,80,0|8,3:2|0:0,0:0:0:0:
113,374,34638,5,2,3:2:0:0:
500,197,35564,5,2,0:0:0:0:
404,143,35749,1,0,3:2:0:0:
499,85,35935,1,8,0:0:0:0:
330,25,36305,6,0,L|322:135,1,90.0000034332277,6|0,3:2|0:0,0:0:0:0:
322,135,36675,1,10,0:0:0:0:
214,206,36861,1,2,0:0:0:0:
208,87,37046,1,2,0:0:0:0:
322,135,37231,2,2,P|357:137|390:119,1,60.0000022888184,2|10,3:2|0:0,2:2:0:0:
456,245,37601,2,0,P|387:231|351:297,1,150.000005722046,2|0,0:0|0:0,0:0:0:0:
355,311,38157,5,10,0:0:0:0:
253,248,38342,1,2,0:0:0:0:
236,367,38527,1,2,0:0:0:0:
154,173,38712,2,2,P|121:177|90:156,1,60.0000022888184,2|10,3:2|0:0,2:2:0:0:
25,319,39083,2,0,P|75:260|145:292,1,150.000005722046,2|0,0:0|0:0,0:0:0:0:
146,297,39638,5,10,0:0:0:0:
256,247,39824,1,2,0:0:0:0:
154,173,40009,1,2,0:0:0:0:
345,232,40194,2,0,L|333:305,1,60.0000022888184,2|10,3:2|0:0,2:2:0:0:
243,160,40564,1,2,0:0:0:0:
394,76,40749,6,0,P|457:73|502:113,1,120.000004577637,2|10,3:2|0:0,0:0:0:0:
318,114,41305,2,0,P|309:52|342:2,1,120.000004577637,2|2,3:2|3:2,0:0:0:0:
402,161,41861,1,10,0:0:0:0:
228,145,42046,1,2,0:0:0:0:
88,0,42231,6,0,P|129:45|185:37,1,120.000004577637,2|10,3:2|0:0,0:0:0:0:
127,138,42787,2,0,L|0:126,1,120.000004577637,2|2,0:0|3:2,0:0:0:0:
125,227,43342,2,0,B|163:210|207:216,1,60.0000022888184,10|2,0:0|0:0,0:0:0:0:
377,281,43712,6,0,P|319:286|281:242,1,120.000004577637,2|10,3:2|0:0,0:0:0:0:
200,368,44268,2,0,L|319:379,1,120.000004577637,2|2,0:0|3:2,0:0:0:0:
205,275,44824,1,10,0:0:0:0:
205,275,45009,1,2,0:0:0:0:
4,235,45194,6,0,L|80:240,1,60.0000022888184,2|0,3:2|0:0,0:0:0:0:
180,130,45564,2,0,L|104:135,1,60.0000022888184,10|0,0:0|0:0,0:0:0:0:
24,79,45935,2,0,L|27:138,1,60.0000022888184,2|0,0:0|3:2,0:0:0:0:
146,286,46305,2,0,L|150:226,1,60.0000022888184,10|2,0:0|0:0,2:2:0:0:
266,103,46675,6,0,P|323:109|358:156,1,120.000004577637,2|10,3:2|0:0,0:0:0:0:
409,255,47231,2,0,P|339:247|279:250,1,120.000004577637,2|2,3:2|3:2,0:0:0:0:
148,229,47787,1,10,0:0:0:0:
106,364,47972,1,10,0:0:0:0:
218,333,48157,6,0,L|325:337,1,90.0000034332277,6|0,3:2|0:0,0:0:0:0:
328,337,48527,1,10,0:0:0:0:
349,207,48712,1,2,0:0:0:0:
450,295,48898,1,2,0:0:0:0:
443,148,49083,2,0,L|435:216,1,60.0000022888184,2|10,3:2|0:0,0:0:0:0:
306,35,49453,2,0,P|227:24|153:52,1,150.000005722046,2|0,0:0|0:0,0:0:0:0:
146,59,50009,5,10,0:0:0:0:
127,169,50194,1,2,0:0:0:0:
28,101,50379,1,2,0:0:0:0:
30,247,50564,2,0,L|39:174,1,60.0000022888184,2|10,3:2|0:0,2:2:0:0:
118,255,50935,2,0,B|196:229|194:289|273:260,1,150.000005722046,2|0,0:0|0:0,0:0:0:0:
283,258,51490,5,10,0:0:0:0:
395,199,51675,1,2,0:0:0:0:
383,325,51861,1,2,0:0:0:0:
316,187,52046,1,2,3:2:0:0:
444,264,52231,1,10,0:0:0:0:
304,331,52416,1,2,0:0:0:0:
219,113,52601,6,0,L|208:238,1,120.000004577637,2|10,3:2|0:0,0:0:0:0:
123,332,53157,2,0,B|222:319|222:319|199:337,1,120.000004577637,2|2,3:2|3:2,0:0:0:0:
68,222,53712,1,10,0:0:0:0:
211,175,53898,1,2,3:2:0:0:
312,296,54083,5,6,3:2:0:0:
284,144,54268,1,2,0:0:0:0:
202,279,54453,1,10,0:0:0:0:
359,201,54638,2,0,P|403:198|433:183,1,68.0000012969971,2|0,3:2|0:0,0:0:0:0:
201,83,55009,1,2,3:2:0:0:
284,220,55194,1,10,0:0:0:0:
339,75,55379,1,2,3:2:0:0:
193,179,55564,5,2,3:2:0:0:
268,27,55749,1,2,0:0:0:0:
367,168,55935,1,10,0:0:0:0:
201,83,56120,2,0,P|160:81|115:92,1,75.9999979705811,2|0,3:2|0:0,0:0:0:0:
150,289,56490,1,2,3:2:0:0:
257,141,56675,1,10,0:0:0:0:
310,327,56861,1,2,3:2:0:0:
417,179,57046,5,10,3:2:0:0:
176,123,57231,1,10,0:0:0:0:
176,123,57601,5,10,3:2:0:0:
410,24,57786,1,10,0:0:0:0:
410,24,58157,5,10,3:2:0:0:
340,303,58342,1,14,0:0:0:0:
340,303,58712,5,8,0:3:0:0:
340,303,58805,1,8,0:3:0:0:
340,303,58898,1,8,0:3:0:0:
243,158,59083,1,8,0:3:0:0:
186,315,59268,1,4,0:3:0:0:
337,199,59453,1,0,3:2:0:0:
178,59,59638,5,10,0:0:0:0:
257,247,59824,1,2,0:0:0:0:
435,129,60009,6,0,P|380:60|293:72,1,184.000003509522,6|10,3:2|0:0,0:0:0:0:
165,217,60564,1,2,3:2:0:0:
333,371,60749,2,0,L|359:172,1,184.000003509522,2|10,3:2|0:0,0:0:0:0:
209,152,61305,6,0,P|129:144|91:195,1,138.000002632141,2|0,3:2|0:0,0:0:0:0:
93,265,61675,1,2,3:2:0:0:
72,85,61861,1,10,0:0:0:0:
181,236,62046,1,0,3:2:0:0:
7,289,62231,1,2,0:0:0:0:
109,170,62416,1,2,3:2:0:0:
167,320,62601,2,0,P|222:320|259:204,1,184.000003509522,10|0,0:0|3:2,0:0:0:0:
309,374,63157,5,2,0:0:0:0:
368,168,63342,1,10,0:0:0:0:
176,207,63527,1,2,3:2:0:0:
347,250,63712,1,2,3:2:0:0:
260,103,63898,1,2,0:0:0:0:
242,263,64083,1,10,0:0:0:0:
125,134,64268,6,0,B|77:86|17:108|17:108|-3:163|43:195,1,184.000003509522,2|2,3:2|3:2,0:0:0:0:
157,296,64824,1,10,0:0:0:0:
348,200,65009,2,0,P|345:96|303:25,1,184.000003509522,2|0,3:2|3:2,0:0:0:0:
203,80,65564,1,10,0:0:0:0:
291,267,65749,1,2,0:0:0:0:
133,144,65935,6,0,P|51:122|12:211,1,184.000003509522,2|10,3:2|0:0,0:0:0:0:
32,384,66490,1,2,3:2:0:0:
210,258,66675,2,0,B|229:201|229:201|202:77,1,184.000003509522,2|10,3:2|0:0,0:0:0:0:
323,147,67231,6,0,P|388:150|429:91,1,138.000002632141,2|0,3:2|0:0,0:0:0:0:
430,13,67601,1,2,3:2:0:0:
475,199,67787,1,10,0:0:0:0:
331,59,67972,1,2,3:2:0:0:
489,110,68157,1,2,0:0:0:0:
357,217,68342,1,0,3:2:0:0:
236,103,68527,2,0,P|174:87|123:191,1,184.000003509522,10|2,0:0|3:2,0:0:0:0:
54,75,69083,5,2,0:0:0:0:
197,170,69268,1,10,0:0:0:0:
29,256,69453,1,2,3:2:0:0:
140,107,69638,1,2,0:0:0:0:
194,276,69824,1,2,3:2:0:0:
41,163,70009,1,10,0:0:0:0:
221,86,70194,6,0,B|256:54|299:59|333:82|333:82|339:119|316:148,1,184.000003509522,2|2,3:2|3:2,0:0:0:0:
194,276,70749,2,0,P|158:250|147:192,1,92.0000017547608,10|0,0:0|3:2,0:0:0:0:
162,30,71120,5,2,0:0:0:0:
280,200,71305,1,10,0:0:0:0:
310,3,71490,1,10,0:0:0:0:
161,149,71675,1,10,0:0:0:0:
161,149,71768,1,10,0:0:0:0:
161,149,71861,6,0,P|112:150|61:160,1,92.0000017547608,6|0,3:2|0:0,0:0:0:0:
134,293,72231,1,10,0:0:0:0:
198,227,72416,2,0,P|161:259|128:299,1,92.0000017547608,2|0,0:0|0:0,0:0:0:0:
268,353,72787,1,2,3:2:0:0:
276,262,72972,2,0,P|268:310|269:362,1,92.0000017547608,10|0,0:0|0:0,0:0:0:0:
409,311,73342,1,2,3:2:0:0:
356,237,73527,2,0,P|381:278|415:318,1,92.0000017547608,2|8,0:0|0:0,0:0:0:0:
489,188,73898,1,2,0:0:0:0:
401,165,74083,2,0,P|447:180|498:188,1,92.0000017547608,2|0,0:0|3:2,0:0:0:0:
336,72,74453,2,0,P|290:80|247:95,1,92.0000017547608,10|0,0:0|0:0,0:0:0:0:
95,243,74824,6,0,P|169:263|203:170,1,184.000003509522,2|8,3:2|0:0,0:0:0:0:
122,67,75379,1,2,0:0:0:0:
15,182,75564,2,0,B|-3:315|-3:315|47:349,1,184.000003509522,2|10,0:0|0:0,0:0:0:0:
168,376,76120,1,2,0:0:0:0:
244,216,76305,5,2,3:2:0:0:
323,365,76490,1,2,0:0:0:0:
160,264,76675,1,10,0:0:0:0:
325,170,76861,1,2,0:0:0:0:
448,349,77046,2,0,P|495:304|437:207,1,184.000003509522,2|10,0:0|0:0,0:0:0:0:
287,290,77601,1,2,0:0:0:0:
161,149,77787,6,0,P|112:150|61:160,1,92.0000017547608,2|0,3:2|0:0,0:0:0:0:
134,293,78157,1,10,0:0:0:0:
198,227,78342,2,0,P|161:259|128:299,1,92.0000017547608,2|0,0:0|0:0,0:0:0:0:
269,353,78713,1,2,3:2:0:0:
276,262,78898,2,0,P|268:310|269:362,1,92.0000017547608,10|0,0:0|0:0,0:0:0:0:
409,311,79268,1,2,3:2:0:0:
356,237,79453,2,0,P|381:278|415:318,1,92.0000017547608,2|8,0:0|0:0,0:0:0:0:
489,188,79824,1,2,0:0:0:0:
401,165,80009,2,0,P|447:180|498:188,1,92.0000017547608,2|0,0:0|3:2,0:0:0:0:
336,72,80379,2,0,P|252:68|219:126,1,138.000002632141,8|0,0:0|0:0,0:0:0:0:
234,191,80749,5,2,3:2:0:0:
138,60,80935,1,2,0:0:0:0:
307,143,81120,1,10,0:0:0:0:
159,244,81305,1,2,0:0:0:0:
355,307,81490,2,0,P|360:253|321:206,1,92.0000017547608,2|0,0:0|3:2,0:0:0:0:
225,94,81861,1,10,0:0:0:0:
141,329,82046,6,0,L|16:342,1,103.999995239258,10|0,0:0|0:0,0:0:0:0:
3,146,82416,1,10,3:2:0:0:
200,174,82601,2,0,L|325:187,1,103.999995239258,10|0,0:0|0:0,0:0:0:0:
341,0,82972,1,10,0:0:0:0:
375,289,83342,1,8,0:0:0:0:
341,0,83712,6,0,P|409:33|413:76,1,120.000004577637,2|0,3:2|1:2,0:0:0:0:
356,140,84268,1,0,1:2:0:0:
268,118,84453,2,0,P|223:120|188:129,1,60.0000022888184,2|0,0:0|3:2,0:0:0:0:
136,177,84824,1,0,1:2:0:0:
136,177,85009,2,0,P|117:120|123:48,2,120.000004577637,2|2|2,0:0|0:0|1:2,0:0:0:0:
183,254,85935,2,0,P|179:294|169:328,1,60.0000022888184,2|0,0:0|3:2,0:0:0:0:
106,372,86305,1,2,1:2:0:0:
315,368,86675,6,0,P|372:358|380:282,1,120.000004577637,2|0,3:2|1:2,0:0:0:0:
371,215,87231,1,0,1:2:0:0:
285,242,87416,2,0,P|253:237|206:218,1,60.0000022888184,2|0,0:0|3:2,0:0:0:0:
159,176,87787,1,0,1:2:0:0:
159,176,87972,2,0,P|132:224|125:302,2,120.000004577637,2|2|2,0:0|0:0|1:2,0:0:0:0:
231,121,88898,2,0,P|230:83|221:47,1,60.0000022888184,2|0,0:0|3:2,0:0:0:0:
154,6,89268,1,2,1:2:0:0:
363,33,89638,5,0,3:2:0:0:
