osu file format v14

[General]
AudioFilename: audio.mp3
AudioLeadIn: 0
PreviewTime:59453
Countdown: 0
SampleSet: Soft
StackLeniency: 0.5
Mode: 0
LetterboxInBreaks: 0
WidescreenStoryboard: 1

[Editor]
Bookmarks:12601,36305,60009,83712
DistanceSpacing: 1
BeatDivisor: 4
GridSize: 16
TimelineZoom: 1.7

[Metadata]
Title:Naughty Love (TV Size)
TitleUnicode:Naughty Love (TV Size)
Artist:Megami Ryousei
ArtistUnicode:女神寮生
Creator:Twil_Furano
Version:Airiesu's Hard
Source:女神寮の寮母くん。
Tags:megami-ryou no ryoubo-kun mother of the goddess dormitory anime アニメ opening theme j-pop jpop japanese pop saotome atena 早乙女あてな nagumo koushi 南雲孝士 hozumi serene 八月朔日せれね frey フレイ kouroya sutea 香炉野すてあ senshou kiriya 戦咲きりや wachi mineru 和知みねる Ashu Nekota 猫田あしゅ Nairu ないる Kururu Kurasaka 倉坂くるる Freya ふれいあ Yuki Yomichi 夜道雪 airiesu mujina yukizura-
BeatmapID:3192211
BeatmapSetID:1554036

[Difficulty]
HPDrainRate:4
CircleSize:3.8
OverallDifficulty:6.5
ApproachRate:8
SliderMultiplier:1.4
SliderTickRate:1

[Events]
//Background and Video events
0,0,"bk.jpeg",0,0
//Break Periods
//Storyboard Layer 0 (Background)
//Storyboard Layer 1 (Fail)
//Storyboard Layer 2 (Pass)
//Storyboard Layer 3 (Foreground)
//Storyboard Layer 4 (Overlay)
//Storyboard Sound Samples

[TimingPoints]
750,370.37037037037,4,2,1,50,1,0
750,-125,4,2,1,50,0,0
11305,-125,4,2,1,30,0,0
12046,-125,4,2,1,50,0,0
12601,-111.111111111111,4,2,1,50,0,0
19268,-111.111111111111,4,2,1,50,0,0
19453,-111.111111111111,4,2,1,50,0,0
22231,-111.111111111111,4,2,1,50,0,0
22416,-111.111111111111,4,2,1,50,0,0
23712,-111.111111111111,4,2,1,50,0,0
23898,-111.111111111111,4,2,1,50,0,0
35009,-111.111111111111,4,2,1,30,0,0
35564,-111.111111111111,4,2,1,30,0,0
35935,-111.111111111111,4,2,2,30,0,0
36305,-100,4,2,1,60,0,0
37787,-100,4,2,1,60,0,0
38157,-100,4,2,1,60,0,0
39268,-100,4,2,1,60,0,0
39638,-100,4,2,1,60,0,0
42972,-100,4,2,1,60,0,0
43157,-100,4,2,1,60,0,0
45472,-100,4,2,1,5,0,0
45564,-100,4,2,1,60,0,0
45749,-100,4,2,1,60,0,0
45935,-100,4,2,1,60,0,0
48064,-100,4,2,1,60,0,0
48157,-100,4,2,1,60,0,0
49638,-100,4,2,1,60,0,0
50008,-100,4,2,1,60,0,0
51120,-100,4,2,1,60,0,0
51490,-100,4,2,1,60,0,0
53990,-100,4,2,1,60,0,0
54083,-100,4,2,1,65,0,0
55564,-100,4,2,1,70,0,0
57046,-100,4,2,1,75,0,0
58342,-100,4,2,1,80,0,0
58712,-100,4,2,1,60,0,0
59638,-100,4,2,1,50,0,0
60009,-90.9090909090908,4,2,1,80,0,1
60934,-90.9090909090908,4,2,1,80,0,1
61027,-90.9090909090908,4,2,1,5,0,1
61120,-90.9090909090908,4,2,1,80,0,1
62879,-90.9090909090908,4,2,1,5,0,1
62972,-90.9090909090908,4,2,1,80,0,1
66953,-90.9090909090908,4,2,1,5,0,1
67046,-90.9090909090908,4,2,1,80,0,1
68805,-90.9090909090908,4,2,1,5,0,1
68898,-90.9090909090908,4,2,1,80,0,1
72046,-90.9090909090908,4,2,1,80,0,1
72231,-90.9090909090908,4,2,1,80,0,1
72601,-90.9090909090908,4,2,1,80,0,1
72787,-90.9090909090908,4,2,1,80,0,1
73157,-90.9090909090908,4,2,1,80,0,1
73342,-90.9090909090908,4,2,1,80,0,1
74731,-90.9090909090908,4,2,1,5,0,1
74824,-90.9090909090908,4,2,1,80,0,1
75749,-90.9090909090908,4,2,1,80,0,1
75842,-90.9090909090908,4,2,1,5,0,1
75935,-90.9090909090908,4,2,1,80,0,1
77972,-90.9090909090908,4,2,1,80,0,1
78157,-90.9090909090908,4,2,1,80,0,1
78527,-90.9090909090908,4,2,1,80,0,1
78713,-90.9090909090908,4,2,1,80,0,1
79083,-90.9090909090908,4,2,1,80,0,1
79268,-90.9090909090908,4,2,1,80,0,1
80657,-90.9090909090908,4,2,1,5,0,1
80749,-90.9090909090908,4,2,1,80,0,1
83712,-125,4,2,1,50,0,0

[Colours]
Combo1 : 237,234,112
Combo2 : 49,197,33
Combo3 : 241,124,209
Combo4 : 224,215,225
Combo5 : 238,26,79
Combo6 : 219,156,40

[HitObjects]
41,208,750,6,0,P|108:196|123:145,1,112,2|0,3:2|1:2,0:0:0:0:
135,82,1305,1,0,1:2:0:0:
135,82,1490,2,0,P|170:73|200:68,1,56,2|0,0:0|3:2,0:0:0:0:
261,117,1861,1,0,1:2:0:0:
261,117,2046,1,2,0:0:0:0:
330,57,2231,6,0,B|361:42|361:42|435:74,1,112,0|0,3:2|1:2,0:0:0:0:
503,117,2787,2,0,P|492:156|485:185,1,56,0|0,1:2|0:0,0:0:0:0:
417,210,3157,1,0,3:2:0:0:
451,287,3342,1,0,1:2:0:0:
305,375,3712,6,0,P|255:360|233:298,1,112,2|0,3:2|1:2,0:0:0:0:
256,232,4268,1,0,1:2:0:0:
256,232,4453,2,0,P|219:222|189:214,1,56,2|0,0:0|3:2,0:0:0:0:
137,269,4824,1,0,1:2:0:0:
137,269,5009,1,2,0:0:0:0:
56,313,5194,6,0,P|32:270|64:196,1,112,0|0,3:2|1:2,0:0:0:0:
114,162,5749,2,0,P|121:130|126:107,1,56,0|0,1:2|0:0,0:0:0:0:
96,31,6120,1,0,3:2:0:0:
22,77,6305,1,0,1:2:0:0:
210,148,6675,6,0,P|267:138|291:89,1,112,2|0,3:2|1:2,0:0:0:0:
329,21,7231,1,0,1:2:0:0:
329,21,7416,2,0,P|366:33|387:42,1,56,2|0,0:0|3:2,0:0:0:0:
433,106,7787,1,0,1:2:0:0:
433,106,7972,1,2,0:0:0:0:
388,184,8157,6,0,B|373:235|373:235|377:246|377:246|360:306,1,112,0|0,3:2|1:2,0:0:0:0:
316,353,8712,2,0,P|282:358|249:345,1,56,0|0,1:2|0:0,0:0:0:0:
200,300,9083,1,0,3:2:0:0:
138,363,9268,1,0,1:2:0:0:
9,306,9638,6,0,L|-1:183,1,112,2|0,3:2|1:2,0:0:0:0:
56,137,10194,1,0,1:2:0:0:
56,137,10379,2,0,P|70:107|72:70,1,56,2|0,0:0|3:2,0:0:0:0:
43,9,10749,1,0,1:2:0:0:
143,39,10935,5,2,0:0:0:0:
249,202,11305,1,0,1:2:0:0:
249,202,11490,1,0,1:2:0:0:
395,323,11861,1,0,1:2:0:0:
465,370,12046,1,2,3:2:0:0:
512,300,12231,1,10,0:0:0:0:
442,254,12416,1,10,0:0:0:0:
442,254,12509,1,8,0:0:0:0:
442,254,12601,6,0,P|429:204|456:136,1,125.999996154785,6|8,3:2|0:0,0:0:0:0:
506,76,13157,2,0,P|477:63|447:53,1,62.9999980773926,0|2,0:0|0:0,0:0:0:0:
377,95,13527,1,0,3:2:0:0:
377,95,13712,2,0,P|347:104|318:117,1,62.9999980773926,8|2,0:0|0:0,0:0:0:0:
243,174,14083,6,0,B|235:208|235:208|247:249,2,62.9999980773926,0|0|8,3:2|0:0|0:0,0:0:0:0:
204,101,14638,2,0,P|175:74|85:87,1,125.999996154785,0|0,0:0|3:2,0:0:0:0:
37,139,15194,2,0,P|51:182|61:215,1,62.9999980773926,8|0,0:0|0:0,0:0:0:0:
23,275,15564,6,0,B|102:295|50:311|133:333,1,125.999996154785,2|8,3:2|0:0,0:0:0:0:
200,384,16120,2,0,P|230:372|261:367,1,62.9999980773926,0|2,0:0|0:0,0:0:0:0:
323,316,16490,1,0,3:2:0:0:
323,316,16675,2,0,P|368:331|395:332,1,62.9999980773926,8|2,0:0|0:0,0:0:0:0:
463,319,17046,6,0,B|466:389,2,62.9999980773926,0|0|8,3:2|0:0|0:0,0:0:0:0:
503,246,17601,2,0,P|491:210|406:196,1,125.999996154785,0|0,0:0|3:2,0:0:0:0:
344,239,18157,2,0,P|308:231|257:223,1,62.9999980773926,8|0,0:0|0:0,0:0:0:0:
193,269,18527,6,0,P|186:209|200:139,1,125.999996154785,2|8,3:2|0:0,0:0:0:0:
237,75,19083,2,0,P|268:83|299:88,1,62.9999980773926,0|2,0:0|0:0,0:0:0:0:
376,111,19453,1,0,3:2:0:0:
376,111,19638,2,0,P|367:151|363:176,1,62.9999980773926,8|2,0:0|0:0,0:0:0:0:
402,245,20009,6,0,P|449:243|479:256,2,62.9999980773926,0|0|8,3:2|0:0|0:0,0:0:0:0:
343,310,20564,2,0,P|312:323|226:274,1,125.999996154785,0|0,0:0|3:2,0:0:0:0:
208,210,21120,2,0,P|165:218|127:227,1,62.9999980773926,8|0,0:0|0:0,0:0:0:0:
83,275,21490,5,2,3:2:0:0:
83,275,21675,1,0,0:0:0:0:
16,204,21861,1,8,0:0:0:0:
16,204,22046,2,0,P|34:165|42:139,1,62.9999980773926,0|2,0:0|0:0,0:0:0:0:
26,67,22416,1,0,3:2:0:0:
103,103,22601,1,8,0:0:0:0:
154,39,22787,1,2,0:0:0:0:
223,109,22972,6,0,P|253:121|334:83,1,125.999996154785,0|8,3:2|0:0,0:0:0:0:
413,117,23527,2,0,L|393:266,1,125.999996154785,0|0,0:0|3:2,0:0:0:0:
420,321,24083,1,8,0:0:0:0:
258,365,24453,6,0,P|231:320|251:243,1,125.999996154785,6|8,3:2|0:0,0:0:0:0:
115,171,25194,1,2,0:0:0:0:
115,171,25379,2,0,P|107:201|92:228,1,62.9999980773926,0|8,3:2|0:0,0:0:0:0:
31,283,25749,2,0,P|52:326|57:353,1,62.9999980773926,2|0,0:0|3:2,0:0:0:0:
141,383,26120,5,0,0:0:0:0:
205,330,26305,1,8,0:0:0:0:
177,254,26490,1,0,0:0:0:0:
238,193,26675,2,0,P|274:184|316:174,1,62.9999980773926,0|0,0:0|3:2,0:0:0:0:
177,130,27046,1,8,0:0:0:0:
349,109,27416,6,0,P|379:158|356:232,1,125.999996154785,2|8,3:2|0:0,0:0:0:0:
419,384,28157,1,2,0:0:0:0:
419,384,28342,2,0,P|427:353|438:324,1,62.9999980773926,0|8,3:2|0:0,0:0:0:0:
487,259,28712,2,0,P|466:221|455:195,1,62.9999980773926,2|0,0:0|3:2,0:0:0:0:
410,123,29083,5,0,0:0:0:0:
394,37,29268,1,8,0:0:0:0:
308,53,29453,1,0,0:0:0:0:
324,139,29638,2,0,P|326:183|328:213,1,62.9999980773926,0|0,0:0|3:2,0:0:0:0:
245,113,30009,1,8,0:0:0:0:
30,163,30379,6,0,P|28:95|91:63,1,125.999996154785,2|8,3:2|0:0,0:0:0:0:
98,224,31120,1,2,0:0:0:0:
98,224,31305,2,0,P|68:236|41:251,1,62.9999980773926,0|8,3:2|0:0,0:0:0:0:
29,337,31675,2,0,P|61:350|89:366,1,62.9999980773926,2|0,0:0|3:2,0:0:0:0:
156,320,32046,5,0,0:0:0:0:
228,368,32231,1,8,0:0:0:0:
289,312,32416,1,0,0:0:0:0:
373,281,32601,2,0,P|412:278|449:283,1,62.9999980773926,0|0,0:0|3:2,0:0:0:0:
322,214,32972,1,8,0:0:0:0:
322,214,33157,1,0,0:0:0:0:
227,230,33342,6,0,P|188:233|151:228,1,62.9999980773926,2|0,3:2|0:0,0:0:0:0:
290,160,33712,2,0,P|312:192|326:226,1,62.9999980773926,8|0,0:0|0:0,0:0:0:0:
198,141,34083,1,2,0:0:0:0:
198,141,34268,2,0,P|214:105|237:76,1,62.9999980773926,0|8,3:2|0:0,0:0:0:0:
227,230,34638,1,2,3:2:0:0:
258,312,35564,5,0,0:0:0:0:
172,297,35749,1,0,3:2:0:0:
157,383,35935,1,8,0:0:0:0:
107,151,36305,6,0,P|140:98|229:94,1,140,6|10,3:2|0:0,0:0:0:0:
288,144,36861,2,0,P|279:179|275:213,1,70
370,234,37231,2,0,P|378:201|382:166,1,70,2|10,3:2|0:0,0:0:0:0:
469,175,37601,1,0,0:0:0:0:
475,89,37787,6,0,P|408:67|341:47,1,140,2|10,3:2|0:0,0:0:0:0:
275,115,38342,2,0,P|242:101|208:97,1,70
146,25,38713,2,0,P|113:38|79:42,1,70,2|10,3:2|0:0,0:0:0:0:
0,71,39083,1,0,0:0:0:0:
16,157,39268,6,0,B|51:199|51:199|25:294,1,140,2|10,3:2|0:0,0:0:0:0:
11,374,39824,1,0,0:0:0:0:
102,336,40009,1,0,0:0:0:0:
102,336,40194,2,0,P|143:324|179:333,1,70,2|10,3:2|0:0,0:0:0:0:
237,373,40564,1,0,0:0:0:0:
317,297,40749,6,0,B|376:290|376:290|399:303|399:303|456:295,1,140,2|10,3:2|0:0,0:0:0:0:
499,212,41305,2,0,P|482:165|401:198,1,140,2|2,3:2|3:2,0:0:0:0:
317,158,41861,2,0,P|280:176|238:169,1,70,10|2,0:0|0:0,0:0:0:0:
145,211,42231,6,0,L|170:58,1,140,2|10,3:2|0:0,0:0:0:0:
245,8,42787,2,0,P|268:39|265:75,1,70,2|0,0:0|0:0,0:0:0:0:
182,115,43157,1,2,3:2:0:0:
93,79,43342,1,10,0:0:0:0:
93,79,43527,1,2,0:0:0:0:
0,150,43712,6,0,P|47:191|51:273,1,140,2|10,3:2|0:0,0:0:0:0:
26,357,44268,2,0,B|65:342|102:359|90:372|123:387|165:368,1,140,2|2,0:0|3:2,0:0:0:0:
222,303,44824,1,10,0:0:0:0:
222,303,45009,1,0,0:0:0:0:
318,240,45194,6,0,L|303:353,1,105,2|0,3:2|0:0,0:0:0:0:
304,366,45564,2,0,P|342:371|376:352,1,70,10|0,0:0|0:0,0:0:0:0:
462,372,45935,2,0,P|466:334|447:300,1,70,2|0,0:0|3:2,0:0:0:0:
490,223,46305,1,10,0:0:0:0:
490,223,46490,1,2,0:0:0:0:
405,169,46675,6,0,B|366:151|366:151|267:177,1,140,2|10,3:2|0:0,0:0:0:0:
209,243,47231,2,0,P|183:208|206:114,1,140,2|2,3:2|3:2,0:0:0:0:
289,138,47787,1,10,0:0:0:0:
286,38,47972,1,10,0:0:0:0:
193,3,48157,6,0,P|128:42|63:31,1,140,6|10,3:2|0:0,0:0:0:0:
0,103,48712,2,0,P|17:132|25:167,1,70
66,253,49082,2,0,P|48:282|40:317,1,70,2|10,3:2|0:0,0:0:0:0:
97,384,49453,1,2,0:0:0:0:
182,341,49638,6,0,B|271:326|217:303|313:284,1,140,2|10,3:2|0:0,0:0:0:0:
372,357,50194,2,0,P|406:362|439:374,1,70
465,281,50564,2,0,P|431:276|398:264,1,70,2|10,3:2|0:0,0:0:0:0:
424,182,50934,1,2,0:0:0:0:
338,177,51120,6,0,B|247:194|301:217|212:232,1,140,2|10,3:2|0:0,0:0:0:0:
132,182,51675,1,0,0:0:0:0:
49,133,51861,2,0,P|54:98|67:66,1,70,0|2,0:0|3:2,0:0:0:0:
155,29,52231,1,10,0:0:0:0:
155,29,52416,1,2,0:0:0:0:
232,84,52601,6,0,B|313:67|286:106|370:85,1,140,2|10,3:2|0:0,0:0:0:0:
453,159,53157,2,0,P|407:175|407:259,1,140,2|2,3:2|3:2,0:0:0:0:
458,333,53712,1,10,0:0:0:0:
370,376,53898,1,2,3:2:0:0:
370,376,53990,1,2,3:2:0:0:
370,376,54083,6,0,P|318:350|283:350,1,70,6|0,3:2|0:0,0:0:0:0:
217,378,54453,1,10,0:0:0:0:
217,378,54638,2,0,L|234:231,1,140,2|2,3:2|3:2,0:0:0:0:
189,161,55194,1,10,0:0:0:0:
189,161,55379,1,2,3:2:0:0:
89,211,55564,6,0,P|55:214|12:198,1,70,2|0,3:2|0:0,0:0:0:0:
7,108,55935,1,10,0:0:0:0:
7,108,56120,2,0,B|61:96|61:96|77:71|77:71|136:61,1,140,2|2,3:2|3:2,0:0:0:0:
202,0,56675,1,10,0:0:0:0:
275,69,56861,1,2,3:2:0:0:
348,138,57046,5,10,3:2:0:0:
348,138,57231,1,10,0:0:0:0:
207,267,57601,5,10,3:2:0:0:
207,267,57786,1,10,0:0:0:0:
397,354,58157,5,10,3:2:0:0:
429,275,58342,1,14,0:0:0:0:
245,175,58712,5,8,0:3:0:0:
245,175,58805,1,8,0:3:0:0:
245,175,58898,1,8,0:3:0:0:
174,230,59083,2,0,P|188:265|191:302,1,70,8|4,0:3|0:3,0:0:0:0:
146,362,59453,1,0,3:2:0:0:
63,334,59638,2,0,P|49:299|46:262,1,70,10|2,0:0|0:0,0:0:0:0:
4,168,60009,6,0,B|105:150|47:123|148:105,1,154.000004699707,6|10,3:2|0:0,0:0:0:0:
196,22,60564,1,2,3:2:0:0:
281,77,60749,2,0,P|335:96|392:90,1,115.50000352478,2|0,3:2|0:0,0:0:0:0:
419,69,61120,1,10,0:0:0:0:
502,167,61305,6,0,L|468:324,1,154.000004699707,2|2,3:2|3:2,0:0:0:0:
374,351,61861,1,10,0:0:0:0:
398,254,62046,1,0,3:2:0:0:
306,295,62231,2,0,B|271:308|271:308|214:295,1,77.0000023498536,2|2,0:0|3:2,0:0:0:0:
145,362,62601,2,0,L|128:211,1,115.50000352478,10|0,0:0|0:0,0:0:0:0:
130,224,62972,6,0,P|89:206|41:215,1,77.0000023498536,0|2,3:2|0:0,0:0:0:0:
81,103,63342,2,0,P|122:121|170:112,1,77.0000023498536,10|2,0:0|3:2,0:0:0:0:
217,49,63712,1,2,3:2:0:0:
265,136,63898,1,2,0:0:0:0:
317,53,64083,1,10,0:0:0:0:
365,141,64268,6,0,P|410:92|405:8,1,154.000004699707,2|2,3:2|3:2,0:0:0:0:
317,53,64824,1,10,0:0:0:0:
265,136,65009,2,0,P|278:222|277:292,1,154.000004699707,2|0,3:2|3:2,0:0:0:0:
182,322,65564,1,10,0:0:0:0:
166,207,65749,1,2,0:0:0:0:
42,264,65935,6,0,P|37:324|113:386,1,154.000004699707,2|10,3:2|0:0,0:0:0:0:
182,322,66490,1,2,3:2:0:0:
277,288,66675,2,0,B|333:269|333:269|403:292,1,115.50000352478,2|0,3:2|0:0,0:0:0:0:
396,298,67046,1,10,0:0:0:0:
507,342,67231,6,0,L|513:175,1,154.000004699707,2|2,3:2|3:2,0:0:0:0:
478,94,67787,1,10,0:0:0:0:
416,170,67972,1,2,3:2:0:0:
351,97,68157,2,0,P|312:95|277:110,1,77.0000023498536,2|0,0:0|3:2,0:0:0:0:
219,186,68527,2,0,B|176:196|176:196|102:147,1,115.50000352478,10|0,0:0|0:0,0:0:0:0:
105,134,68898,6,0,P|105:95|122:61,1,77.0000023498536,2|2,3:2|0:0,0:0:0:0:
202,4,69268,1,10,0:0:0:0:
236,102,69453,1,2,3:2:0:0:
336,45,69638,2,0,P|380:27|425:33,2,77.0000023498536,2|2|10,0:0|3:2|0:0,0:0:0:0:
302,167,70194,6,0,P|316:241|374:289,1,154.000004699707,2|2,3:2|3:2,0:0:0:0:
460,288,70749,2,0,P|457:333|436:357,1,77.0000023498536,10|0,0:0|3:2,0:0:0:0:
345,373,71120,1,2,0:0:0:0:
292,287,71305,5,10,0:0:0:0:
245,375,71490,1,10,0:0:0:0:
201,296,71675,1,10,0:0:0:0:
201,296,71768,1,10,0:0:0:0:
201,296,71861,6,0,P|162:294|121:271,1,77.0000023498536,6|0,3:2|0:0,0:0:0:0:
78,207,72231,1,10,0:0:0:0:
78,207,72417,2,0,P|67:169|77:123,1,77.0000023498536,2|0,0:0|0:0,0:0:0:0:
124,62,72786,1,2,3:2:0:0:
124,62,72972,2,0,P|156:40|203:35,1,77.0000023498536,10|0,0:0|0:0,0:0:0:0:
276,60,73341,1,2,3:2:0:0:
276,60,73527,2,0,P|306:84|326:127,1,77.0000023498536,2|8,0:0|0:0,0:0:0:0:
324,203,73897,1,2,0:0:0:0:
324,203,74083,2,0,P|310:239|275:271,1,77.0000023498536,2|0,0:0|3:2,0:0:0:0:
323,117,74453,2,0,P|386:113|426:165,1,115.50000352478,10|0,0:0|0:0,0:0:0:0:
437,161,74824,6,0,L|405:341,1,154.000004699707,2|8,3:2|0:0,0:0:0:0:
340,378,75379,1,2,0:0:0:0:
280,289,75564,2,0,P|247:271|188:317,1,115.50000352478,2|0,0:0|0:0,0:0:0:0:
169,337,75935,2,0,P|126:356|66:352,1,77.0000023498536,10|2,0:0|0:0,0:0:0:0:
19,302,76305,5,2,3:2:0:0:
19,302,76490,1,0,0:0:0:0:
103,248,76675,1,10,0:0:0:0:
27,182,76861,1,2,0:0:0:0:
116,136,77046,2,0,B|211:117|176:168|281:140,1,154.000004699707,2|10,0:0|0:0,0:0:0:0:
347,94,77601,1,2,0:0:0:0:
429,186,77787,6,0,L|409:277,1,77.0000023498536,2|0,3:2|0:0,0:0:0:0:
392,362,78157,1,10,0:0:0:0:
392,362,78342,2,0,L|301:342,1,77.0000023498536,2|0,0:0|0:0,0:0:0:0:
216,325,78713,1,2,3:2:0:0:
216,325,78898,2,0,L|236:234,1,77.0000023498536,10|0,0:0|0:0,0:0:0:0:
253,149,79268,1,2,3:2:0:0:
253,149,79453,2,0,L|344:169,1,77.0000023498536,2|8,0:0|0:0,0:0:0:0:
429,186,79824,1,2,0:0:0:0:
429,186,80009,2,0,L|449:95,1,77.0000023498536,2|0,0:0|3:2,0:0:0:0:
386,30,80379,2,0,L|243:-1,1,115.50000352478,8|0,0:0|0:0,0:0:0:0:
246,3,80749,6,0,P|225:50|235:100,1,77.0000023498536,2|2,3:2|0:0,0:0:0:0:
267,166,81120,1,10,0:0:0:0:
358,125,81305,1,2,0:0:0:0:
426,197,81490,2,0,L|421:285,1,77.0000023498536,2|0,0:0|3:2,0:0:0:0:
417,374,81861,1,10,0:0:0:0:
341,308,82046,5,10,0:0:0:0:
191,175,82416,1,10,3:2:0:0:
128,253,82601,1,10,0:0:0:0:
323,209,82972,2,0,B|296:123|351:157|322:50,1,154.000004699707,10|8,0:0|0:0,0:0:0:0:
152,54,83712,6,0,P|191:94|255:93,1,112,2|0,3:2|1:2,0:0:0:0:
324,58,84268,1,0,1:2:0:0:
324,58,84453,2,0,P|373:66|402:77,1,56,2|0,0:0|3:2,0:0:0:0:
456,109,84824,1,0,1:2:0:0:
456,109,85009,6,0,P|447:152|444:175,1,56,2|0,0:0|3:2,0:0:0:0:
384,221,85379,2,0,P|393:264|396:287,1,56,2|0,0:0|1:2,0:0:0:0:
366,352,85749,1,2,1:2:0:0:
366,352,85935,2,0,P|321:372|292:367,1,56,2|0,0:0|3:2,0:0:0:0:
246,325,86305,1,2,1:2:0:0:
107,369,86675,6,0,P|82:329|107:258,1,112,2|0,3:2|1:2,0:0:0:0:
167,227,87231,1,0,1:2:0:0:
167,227,87416,2,0,P|182:190|192:165,1,56,2|0,0:0|3:2,0:0:0:0:
151,101,87787,1,0,1:2:0:0:
151,101,87972,6,0,P|187:85|212:74,1,56,2|0,0:0|3:2,0:0:0:0:
228,0,88342,2,0,P|265:14|290:24,1,56,2|0,0:0|1:2,0:0:0:0:
353,61,88712,1,2,1:2:0:0:
353,61,88898,2,0,P|345:99|344:126,1,56,2|0,0:0|3:2,0:0:0:0:
291,178,89268,2,0,P|340:200|392:182,1,112,2|0,1:2|3:2,0:0:0:0:
