osu file format v14

[General]
AudioFilename: audio.mp3
AudioLeadIn: 0
PreviewTime: 63185
Countdown: 2
SampleSet: Soft
StackLeniency: 0.4
Mode: 0
LetterboxInBreaks: 0
WidescreenStoryboard: 1

[Editor]
Bookmarks: 32512
DistanceSpacing: 2.6
BeatDivisor: 4
GridSize: 8
TimelineZoom: 3.099999

[Metadata]
Title:Back on the Rocks
TitleUnicode:Back on the Rocks
Artist:Mega NRG Man
ArtistUnicode:Mega NRG Man
Creator:Haganenno
Version:Extra Rocks!
Source:Initial D
Tags:super eurobeat anime english xChorse squirrelpascals Monarch j1nx1337 xtrem3x Shinsekai-
BeatmapID:1048338
BeatmapSetID:492069

[Difficulty]
HPDrainRate:5
CircleSize:4
OverallDifficulty:8.6
ApproachRate:9.1
SliderMultiplier:1.4
SliderTickRate:1

[Events]
//Background and Video events
0,0,"initiald.jpg",0,0
//Break Periods
//Storyboard Layer 0 (Background)
//Storyboard Layer 1 (Fail)
//Storyboard Layer 2 (Pass)
//Storyboard Layer 3 (Foreground)
//Storyboard Sound Samples

[TimingPoints]
11071,384.615384615385,4,2,1,100,1,0
13763,-100,4,2,1,20,0,0
14051,384.615384615385,4,1,1,60,1,0
14243,-100,4,2,1,40,0,0
16358,-50,4,1,1,60,0,0
16647,-50,4,1,1,20,0,0
16743,-50,4,1,1,60,0,0
17031,-50,4,1,1,20,0,0
17127,-50,4,1,1,60,0,0
17320,-100,4,2,1,40,0,0
18666,-58.8235294117647,4,1,1,60,0,0
19339,-58.8235294117647,4,1,1,5,0,0
19435,-58.8235294117647,4,1,1,60,0,0
19916,-58.8235294117647,4,1,1,5,0,0
20012,-58.8235294117647,4,1,1,60,0,0
20397,-100,4,2,1,40,0,0
22512,-50,4,1,1,60,0,0
22801,-50,4,1,1,20,0,0
22897,-50,4,1,1,60,0,0
23185,-50,4,1,1,20,0,0
23281,-50,4,1,1,60,0,0
23474,-100,4,2,1,40,0,0
24724,-100,4,2,1,10,0,0
24820,-58.8235294117647,4,1,1,70,0,0
25397,-58.8235294117647,4,2,1,10,0,0
25589,-58.8235294117647,4,1,1,70,0,0
26070,-58.8235294117647,4,2,1,10,0,0
26358,-76.9230769230769,4,1,1,65,0,1
35397,-100,4,1,1,65,0,1
36935,-76.9230769230769,4,1,1,65,0,1
38666,-76.9230769230769,4,1,1,50,0,0
41935,-76.9230769230769,4,1,1,50,0,0
50974,-68.9655172413793,4,1,1,55,0,0
58858,-68.9655172413793,4,2,1,55,0,0
60204,-71.4285714285714,4,1,1,55,0,0
61743,-74.0740740740741,4,1,1,55,0,0
62127,-74.0740740740741,4,1,1,5,0,0
62320,-76.9230769230769,4,1,1,55,0,0
63089,-55.5555555555556,4,1,1,5,0,0
63281,-55.5555555555556,4,1,1,65,0,1
65204,-55.5555555555556,4,1,1,40,0,1
65397,-55.5555555555556,4,1,1,65,0,1
65589,-55.5555555555556,4,1,1,50,0,1
65781,-55.5555555555556,4,1,1,65,0,1
65974,-54.054054054054,4,1,1,80,0,1
69435,-55.5555555555556,4,1,1,65,0,1
71358,-55.5555555555556,4,1,1,50,0,1
71743,-55.5555555555556,4,1,1,65,0,1
72127,-55.5555555555556,4,1,1,75,0,1
72512,-54.054054054054,4,1,1,65,0,1
73281,-54.054054054054,4,1,1,80,0,1
73858,-54.054054054054,4,1,1,65,0,1
74820,-52.6315789473684,4,1,1,73,0,0
75204,-52.6315789473684,4,1,1,78,0,0
75589,-76.9230769230769,4,1,1,70,0,1
82512,-55.5555555555556,4,1,1,70,0,1
84627,-100,4,1,1,70,0,1
86157,-51.2820512820513,4,1,1,70,0,1
87704,-60.6060606060606,4,1,1,70,0,0

[Colours]
Combo1 : 169,180,184
Combo2 : 247,237,172
Combo3 : 157,157,210
Combo4 : 218,177,173

[HitObjects]
256,192,11071,5,0,0:0:0:0:
256,192,11167,12,0,13763,0:0:0:0:
373,354,14051,5,0,0:0:0:0:
224,296,14244,1,0,0:0:0:0:
221,262,14340,1,0,0:0:0:0:
227,227,14436,1,0,0:0:0:0:
237,193,14532,1,0,0:0:0:0:
251,161,14628,1,0,0:0:0:0:
336,103,14821,1,2,0:0:0:0:
376,264,15013,1,0,0:0:0:0:
446,169,15204,1,2,0:0:0:0:
486,330,15397,1,0,0:0:0:0:
168,336,15782,5,0,0:0:0:0:
202,330,15878,1,0,0:0:0:0:
237,325,15974,1,0,0:0:0:0:
271,319,16071,1,0,0:0:0:0:
306,314,16167,1,0,0:0:0:0:
419,274,16359,6,0,P|475:290|411:242,1,210,8|0,0:0|0:0,0:0:0:0:
351,209,16744,2,0,P|383:133|436:206,1,210,8|0,0:0|0:0,0:0:0:0:
436,205,17127,5,0,0:0:0:0:
262,49,17321,1,0,0:0:0:0:
301,44,17417,1,0,0:0:0:0:
340,40,17513,1,0,0:0:0:0:
380,35,17609,1,0,0:0:0:0:
419,31,17705,1,0,0:0:0:0:
217,149,17897,1,2,0:0:0:0:
301,44,18089,1,0,0:0:0:0:
350,188,18280,1,2,0:0:0:0:
419,31,18473,1,0,0:0:0:0:
445,249,18666,6,0,P|267:269|320:80,1,416.500007944107,8|0,0:0|0:0,0:0:0:0:
350,188,19435,2,0,P|232:193|232:18,1,297.500005674362,8|0,0:0|0:0,0:0:0:0:
205,42,20012,1,0,0:0:0:0:
350,188,20204,5,0,0:0:0:0:
358,54,20397,1,0,0:0:0:0:
320,45,20494,1,0,0:0:0:0:
282,40,20590,1,0,0:0:0:0:
244,40,20686,1,0,0:0:0:0:
206,43,20782,1,0,0:0:0:0:
140,153,20974,1,2,0:0:0:0:
206,43,21166,1,0,0:0:0:0:
306,126,21357,1,2,0:0:0:0:
367,3,21550,1,0,0:0:0:0:
359,283,21935,5,2,0:0:0:0:
363,321,22032,1,0,0:0:0:0:
445,259,22224,1,2,0:0:0:0:
441,221,22321,1,0,0:0:0:0:
437,183,22417,1,2,0:0:0:0:
433,147,22513,6,0,P|336:83|299:177,1,210,8|0,0:0|0:0,0:0:0:0:
218,136,22897,2,0,P|250:200|363:163,1,210,8|0,0:0|0:0,0:0:0:0:
362,164,23282,5,0,0:0:0:0:
293,56,23474,1,0,0:0:0:0:
250,43,23570,1,0,0:0:0:0:
206,42,23666,1,0,0:0:0:0:
161,51,23762,1,0,0:0:0:0:
118,68,23858,2,0,P|125:108|139:120,1,35
216,127,24051,1,2,0:0:0:0:
360,194,24244,1,0,0:0:0:0:
216,261,24436,1,2,0:0:0:0:
360,60,24627,6,0,B|360:23,1,35
360,60,24821,6,0,B|360:244|360:244|216:212|216:212|216:124,1,416.500007944107,8|0,0:0|0:0,0:0:0:0:
288,148,25590,2,0,B|288:81|288:81|220:48|220:48|145:75|145:75|143:213,1,357.000006809235,8|0,0:0|0:0,0:0:0:0:
280,336,26359,5,4,0:0:0:0:
325,334,26455,1,0,0:0:0:0:
370,332,26551,1,8,0:0:0:0:
416,330,26647,1,0,0:0:0:0:
461,328,26744,1,2,0:0:0:0:
341,254,26936,1,8,0:0:0:0:
383,253,27032,1,2,0:0:0:0:
252,186,27224,1,2,0:0:0:0:
294,185,27320,1,8,0:0:0:0:
461,328,27513,5,4,0:0:0:0:
217,350,27704,1,8,0:0:0:0:
423,255,27897,1,4,0:0:0:0:
377,250,27994,1,0,0:0:0:0:
332,245,28090,1,8,0:0:0:0:
287,240,28186,1,0,0:0:0:0:
242,235,28282,1,0,0:0:0:0:
95,88,28474,5,8,0:0:0:0:
140,93,28571,1,0,0:0:0:0:
185,98,28667,1,4,0:0:0:0:
230,103,28763,1,0,0:0:0:0:
276,108,28858,1,8,0:0:0:0:
113,318,29051,5,4,0:0:0:0:
149,320,29147,1,0,0:0:0:0:
185,322,29243,1,8,0:0:0:0:
220,327,29339,1,0,0:0:0:0:
250,357,29436,5,6,0:0:0:0:
302,352,29532,1,0,0:0:0:0:
355,348,29628,1,8,0:0:0:0:
407,343,29724,1,0,0:0:0:0:
460,338,29820,1,2,0:0:0:0:
262,244,30012,1,8,0:0:0:0:
314,239,30108,1,2,0:0:0:0:
166,148,30301,1,2,0:0:0:0:
218,143,30397,1,8,0:0:0:0:
94,109,30590,5,4,0:0:0:0:
337,75,30782,1,10,0:0:0:0:
127,222,30974,1,6,0:0:0:0:
179,229,31070,1,0,0:0:0:0:
231,236,31166,1,8,0:0:0:0:
284,241,31262,1,0,0:0:0:0:
336,248,31358,1,2,0:0:0:0:
344,36,31551,5,8,0:0:0:0:
378,100,31647,1,0,0:0:0:0:
408,169,31744,1,4,0:0:0:0:
447,234,31840,1,0,0:0:0:0:
476,300,31936,1,8,0:0:0:0:
408,327,32032,1,0,0:0:0:0:
340,352,32127,1,6,0:0:0:0:
378,100,32321,1,10,0:0:0:0:
308,252,32512,5,6,0:0:0:0:
269,190,32608,1,0,0:0:0:0:
221,134,32704,1,10,0:0:0:0:
166,85,32801,1,2,0:0:0:0:
106,42,32897,1,2,0:0:0:0:
207,271,33089,1,10,0:0:0:0:
149,311,33186,1,0,0:0:0:0:
82,333,33281,2,0,L|66:290,1,45.4999979171754
106,42,33474,1,14,0:0:0:0:
326,32,33666,5,4,0:0:0:0:
344,102,33762,1,0,0:0:0:0:
311,167,33858,1,10,0:0:0:0:
267,225,33954,1,0,0:0:0:0:
278,297,34051,1,6,0:0:0:0:
334,342,34147,1,2,0:0:0:0:
406,333,34243,1,10,0:0:0:0:
444,268,34339,1,2,0:0:0:0:
425,200,34435,1,6,0:0:0:0:
117,158,34627,5,8,0:0:0:0:
107,192,34723,1,2,0:0:0:0:
334,342,34915,1,2,0:0:0:0:
324,307,35011,1,8,0:0:0:0:
139,353,35205,1,8,0:0:0:0:
367,212,35397,6,8,L|377:246,1,35
452,292,35590,1,6,0:0:0:0:
476,229,35686,1,0,0:0:0:0:
456,166,35782,1,8,0:0:0:0:
401,128,35878,1,0,0:0:0:0:
335,132,35974,1,2,0:0:0:0:
150,261,36167,5,2,0:0:0:0:
144,216,36263,1,8,0:0:0:0:
395,83,36455,1,8,0:0:0:0:
401,128,36551,1,2,0:0:0:0:
170,85,36744,1,12,0:0:0:0:
368,304,36936,6,2,L|391:337,4,22.7499989585877,2|2|2|2|10,0:0|0:0|0:0|0:0|0:0,0:0:0:0:
348,256,37224,1,10,0:0:0:0:
326,190,37320,1,10,0:0:0:0:
260,213,37416,1,10,0:0:0:0:
283,279,37512,1,10,0:0:0:0:
96,64,37704,5,10,0:0:0:0:
104,120,37801,1,8,0:0:0:0:
440,232,37994,1,10,0:0:0:0:
432,176,38090,1,2,0:0:0:0:
225,326,38282,5,6,0:0:0:0:
304,16,38474,1,10,0:0:0:0:
399,297,38666,6,0,P|340:298|284:282,1,90.9999958343508
208,185,39051,2,0,P|163:183|118:191,1,90.9999958343508
196,314,39435,1,4,0:0:0:0:
56,246,39627,1,0,0:0:0:0:
290,205,39820,1,4,0:0:0:0:
454,344,40012,6,0,L|436:231,1,90.9999958343508,12|0,0:0|0:0,0:0:0:0:
474,161,40397,2,0,L|489:72,1,90.9999958343508,8|0,0:0|0:0,0:0:0:0:
454,344,40781,1,8,0:0:0:0:
446,299,40877,1,0,0:0:0:0:
439,254,40973,1,0,0:0:0:0:
308,337,41166,1,0,0:0:0:0:
118,191,41358,1,12,0:0:0:0:
54,332,41551,1,2,0:0:0:0:
253,194,41743,5,6,0:0:0:0:
253,194,41935,1,0,0:0:0:0:
360,96,42127,1,0,0:0:0:0:
393,238,42320,1,0,0:0:0:0:
231,65,42512,1,4,0:0:0:0:
297,291,42704,1,0,0:0:0:0:
484,144,42897,1,4,0:0:0:0:
175,123,43089,2,0,P|161:212|189:298,1,181.999991668702,4|0,0:0|0:0,0:0:0:0:
308,92,43666,1,6,0:0:0:0:
361,227,43858,1,0,0:0:0:0:
434,26,44051,5,2,0:0:0:0:
430,71,44147,1,0,0:0:0:0:
416,114,44243,2,0,P|403:141|389:161,1,45.4999979171754,2|0,0:0|0:0,0:0:0:0:
152,112,44435,1,2,0:0:0:0:
176,75,44531,1,0,0:0:0:0:
214,51,44627,2,0,P|233:35|258:23,1,45.4999979171754,2|0,0:0|0:0,0:0:0:0:
319,164,44820,5,4,0:0:0:0:
343,11,45012,1,0,0:0:0:0:
222,294,45204,2,0,L|208:205,1,90.9999958343508,8|0,0:0|0:0,0:0:0:0:
11,70,45589,2,12,B|53:56|53:56|100:54,1,90.9999958343508
237,117,45974,1,0,0:0:0:0:
237,117,46166,1,0,0:0:0:0:
190,264,46358,1,0,0:0:0:0:
83,151,46551,1,0,0:0:0:0:
312,200,46743,6,0,B|336:208|336:208|360:224,1,45.4999979171754,8|0,0:0|0:0,0:0:0:0:
384,336,46935,2,0,B|360:328|360:328|336:312,1,45.4999979171754
384,64,47127,2,0,B|360:72|360:72|336:88,1,45.4999979171754,8|0,0:0|0:0,0:0:0:0:
312,200,47319,2,0,B|336:192|336:192|360:176,1,45.4999979171754,8|0,0:0|0:0,0:0:0:0:
184,16,47513,1,2,0:0:0:0:
156,51,47609,1,2,0:0:0:0:
149,96,47705,1,2,0:0:0:0:
165,138,47801,1,2,0:0:0:0:
197,164,47897,6,0,P|192:232|176:272,1,90.9999958343508,6|0,0:0|0:0,0:0:0:0:
56,184,48281,1,4,0:0:0:0:
272,288,48474,2,0,L|384:296,1,90.9999958343508,6|0,0:0|0:0,0:0:0:0:
407,156,48858,1,0,0:0:0:0:
503,372,49051,2,0,B|455:388|455:388|383:380,1,90.9999958343508,2|0,0:0|0:0,0:0:0:0:
260,197,49435,6,0,L|276:325,1,90.9999958343508,6|0,0:0|0:0,0:0:0:0:
122,331,49820,1,4,0:0:0:0:
238,119,50012,1,4,0:0:0:0:
119,171,50204,1,0,0:0:0:0:
48,56,50397,2,0,L|40:0,2,45.4999979171754
48,56,50974,6,0,P|104:40|160:48,1,101.500003097534,6|0,0:0|0:0,0:0:0:0:
317,61,51358,1,0,0:0:0:0:
109,225,51551,2,0,P|101:169|109:113,1,101.500003097534,2|0,0:0|0:0,0:0:0:0:
284,162,51935,1,0,0:0:0:0:
454,72,52127,1,0,0:0:0:0:
348,253,52320,6,0,P|293:273|237:270,1,101.500003097534,0|2,0:0|0:0,0:0:0:0:
181,115,52704,2,0,P|177:166|185:216,1,101.500003097534,0|2,0:0|0:0,0:0:0:0:
442,278,53089,2,0,P|406:323|356:350,1,101.500003097534,0|2,0:0|0:0,0:0:0:0:
197,367,53474,1,2,0:0:0:0:
304,126,53666,2,0,L|338:221,1,101.500003097534,6|0,0:0|0:0,0:0:0:0:
129,253,54050,5,6,0:0:0:0:
297,295,54244,1,0,0:0:0:0:
117,104,54435,1,2,0:0:0:0:
222,241,54628,1,0,0:0:0:0:
380,50,54821,1,6,0:0:0:0:
274,186,55013,1,0,0:0:0:0:
443,201,55205,1,2,0:0:0:0:
341,340,55397,1,6,0:0:0:0:
380,50,55589,5,6,0:0:0:0:
443,201,55782,2,0,B|400:233|400:233|318:255,1,101.500003097534
91,283,56167,1,0,0:0:0:0:
211,192,56359,2,0,L|309:168,1,101.500003097534,6|0,0:0|0:0,0:0:0:0:
321,26,56743,2,0,P|265:86|193:100,1,152.250004646301,6|0,0:0|0:0,0:0:0:0:
117,128,57127,5,4,0:0:0:0:
223,244,57321,2,0,P|259:208|279:163,1,101.500003097534
221,1,57705,1,0,0:0:0:0:
409,184,57897,1,0,0:0:0:0:
146,145,58090,1,0,0:0:0:0:
312,52,58281,1,0,0:0:0:0:
220,302,58475,2,0,L|231:202,1,101.500003097534,4|0,0:0|0:0,0:0:0:0:
348,32,58859,5,2,0:0:0:0:
284,117,59051,1,0,0:0:0:0:
443,97,59244,1,0,0:0:0:0:
351,37,59435,1,2,0:0:0:0:
383,223,59627,1,0,0:0:0:0:
284,117,59820,1,2,0:0:0:0:
284,117,60013,1,0,0:0:0:0:
154,339,60204,5,0,0:0:0:0:
237,185,60397,2,0,L|223:283,1,97.9999970092774,4|0,0:0|0:0,0:0:0:0:
204,97,60781,2,0,L|108:82,1,97.9999970092774,4|0,0:0|0:0,0:0:0:0:
26,251,61167,2,0,P|26:202|47:158,1,97.9999970092774,4|0,0:0|0:0,0:0:0:0:
184,0,61551,1,0,0:0:0:0:
275,104,61743,6,2,P|229:164|304:159,1,189.000000720978,0|0,0:0|0:0,0:0:0:0:
208,175,62320,2,0,P|306:91|245:205,1,363.999983337403
128,233,63282,5,14,0:0:0:0:
365,208,63474,1,0,0:0:0:0:
162,80,63666,1,8,0:0:0:0:
162,339,63858,2,0,B|221:357|221:357|310:343,1,125.999996154785,8|0,0:0|0:0,0:0:0:0:
212,20,64244,1,8,0:0:0:0:
72,253,64436,2,0,B|110:306|110:306|165:340,1,125.999996154785,8|0,0:0|0:0,0:0:0:0:
464,81,64820,2,0,L|328:95,1,125.999996154785,8|0,0:0|0:0,0:0:0:0:
248,176,65205,5,8,0:0:0:0:
378,273,65397,1,0,0:0:0:0:
338,93,65589,5,8,0:0:0:0:
171,248,65782,1,2,0:0:0:0:
133,104,65974,5,8,0:0:0:0:
400,184,66167,1,0,0:0:0:0:
211,319,66358,2,0,L|78:328,1,129.499999505997,10|0,0:0|0:0,0:0:0:0:
325,186,66744,1,0,0:0:0:0:
114,29,66935,2,0,L|383:51,1,258.999999011993,10|0,0:0|0:0,0:0:0:0:
120,202,67513,1,8,0:0:0:0:
401,255,67705,1,0,0:0:0:0:
249,183,67897,6,0,L|112:204,1,129.499999505997,8|0,0:0|0:0,0:0:0:0:
396,326,68281,1,2,0:0:0:0:
112,288,68474,1,0,0:0:0:0:
253,90,68666,1,0,0:0:0:0:
336,364,68859,1,0,0:0:0:0:
70,338,69051,2,2,L|207:321,1,129.499999505997,10|0,0:0|0:0,0:0:0:0:
402,129,69435,5,12,0:0:0:0:
288,311,69628,1,0,0:0:0:0:
485,225,69821,1,8,0:0:0:0:
207,169,70013,2,0,B|184:230|184:230|191:295,1,125.999996154785,8|0,0:0|0:0,0:0:0:0:
438,315,70397,1,8,0:0:0:0:
333,52,70589,2,0,B|268:42|268:42|206:65,1,125.999996154785,8|0,0:0|0:0,0:0:0:0:
54,330,70974,2,0,L|212:354,1,125.999996154785,8|0,0:0|0:0,0:0:0:0:
280,134,71358,5,8,0:0:0:0:
380,320,71551,1,2,0:0:0:0:
489,101,71743,2,0,L|496:226,1,125.999996154785,12|0,0:0|0:0,0:0:0:0:
189,346,72127,2,0,L|64:339,1,125.999996154785,10|0,0:0|0:0,0:0:0:0:
380,320,72512,5,8,0:0:0:0:
318,144,72704,1,0,0:0:0:0:
189,346,72897,1,8,0:0:0:0:
411,231,73089,1,0,0:0:0:0:
200,68,73281,1,8,0:0:0:0:
292,374,73474,1,8,0:0:0:0:
164,216,73666,1,0,0:0:0:0:
473,296,73858,2,0,L|340:311,1,129.499999505997,8|0,0:0|0:0,0:0:0:0:
318,144,74243,5,8,0:0:0:0:
136,312,74435,1,0,0:0:0:0:
265,33,74627,1,10,0:0:0:0:
457,332,74820,6,2,L|324:325,1,132.999996448517,4|0,0:0|0:0,0:0:0:0:
0,168,75204,2,2,L|135:175,1,132.999996448517,4|0,0:0|0:0,0:0:0:0:
461,56,75590,5,6,0:0:0:0:
416,54,75686,1,0,0:0:0:0:
370,52,75782,1,8,0:0:0:0:
325,50,75878,1,0,0:0:0:0:
280,48,75974,1,2,0:0:0:0:
319,249,76167,5,8,0:0:0:0:
302,206,76263,1,0,0:0:0:0:
285,163,76358,1,4,0:0:0:0:
263,123,76455,1,0,0:0:0:0:
217,121,76551,1,10,0:0:0:0:
461,56,76744,5,4,0:0:0:0:
216,33,76936,1,8,0:0:0:0:
425,121,77127,1,4,0:0:0:0:
379,126,77223,1,0,0:0:0:0:
333,131,77320,1,8,0:0:0:0:
289,136,77416,1,0,0:0:0:0:
244,141,77512,1,0,0:0:0:0:
95,296,77705,5,8,0:0:0:0:
140,291,77801,1,0,0:0:0:0:
185,286,77897,1,4,0:0:0:0:
230,281,77994,1,0,0:0:0:0:
276,276,78090,1,8,0:0:0:0:
109,63,78281,5,4,0:0:0:0:
145,61,78377,1,0,0:0:0:0:
181,59,78473,1,8,0:0:0:0:
216,54,78569,1,0,0:0:0:0:
250,27,78666,5,6,0:0:0:0:
302,32,78762,1,0,0:0:0:0:
355,36,78858,1,8,0:0:0:0:
407,41,78954,1,0,0:0:0:0:
460,46,79050,1,2,0:0:0:0:
262,140,79242,1,8,0:0:0:0:
314,145,79338,1,2,0:0:0:0:
166,236,79531,1,2,0:0:0:0:
218,241,79627,1,8,0:0:0:0:
98,280,79820,5,4,0:0:0:0:
352,213,80012,1,10,0:0:0:0:
72,120,80204,5,4,0:0:0:0:
120,135,80300,1,0,0:0:0:0:
172,148,80396,1,8,0:0:0:0:
222,161,80492,1,0,0:0:0:0:
274,175,80589,1,2,0:0:0:0:
344,348,80782,5,12,0:0:0:0:
378,284,80878,1,0,0:0:0:0:
408,215,80974,1,4,0:0:0:0:
447,150,81071,1,0,0:0:0:0:
476,84,81167,1,8,0:0:0:0:
408,57,81263,1,0,0:0:0:0:
340,32,81359,1,6,0:0:0:0:
378,284,81551,1,10,0:0:0:0:
308,132,81743,5,6,0:0:0:0:
265,192,81839,1,0,0:0:0:0:
217,248,81935,1,10,0:0:0:0:
160,296,82032,1,2,0:0:0:0:
100,338,82128,1,2,0:0:0:0:
454,189,82320,1,8,0:0:0:0:
436,265,82417,1,0,0:0:0:0:
418,338,82512,2,0,L|349:325,1,62.9999980773926,4|0,0:0|0:0,0:0:0:0:
265,192,82705,1,10,0:0:0:0:
53,315,82897,5,4,0:0:0:0:
117,352,82993,1,2,0:0:0:0:
192,354,83089,1,8,0:0:0:0:
259,320,83185,1,0,0:0:0:0:
301,258,83281,1,6,0:0:0:0:
265,192,83377,1,2,0:0:0:0:
192,176,83474,1,10,0:0:0:0:
119,198,83570,1,2,0:0:0:0:
46,176,83666,1,6,0:0:0:0:
320,69,83858,5,8,0:0:0:0:
310,104,83954,1,2,0:0:0:0:
56,210,84147,1,0,0:0:0:0:
46,176,84243,1,10,0:0:0:0:
193,38,84436,1,8,0:0:0:0:
323,199,84628,6,8,L|337:167,1,35
419,127,84821,1,6,0:0:0:0:
443,190,84917,1,0,0:0:0:0:
423,253,85013,1,8,0:0:0:0:
368,291,85109,1,0,0:0:0:0:
302,287,85205,1,2,0:0:0:0:
118,255,85397,5,2,0:0:0:0:
127,211,85494,1,10,0:0:0:0:
408,320,85686,1,10,0:0:0:0:
402,365,85782,1,2,0:0:0:0:
127,211,85974,1,12,0:0:0:0:
312,56,86166,6,0,B|392:172,1,136.500000520706,2|8,0:0|0:0,0:0:0:0:
344,271,86454,1,10,0:0:0:0:
302,211,86550,1,10,0:0:0:0:
261,152,86647,1,10,0:0:0:0:
220,93,86743,1,10,0:0:0:0:
455,317,86935,5,10,0:0:0:0:
424,270,87032,1,2,0:0:0:0:
110,58,87224,1,10,0:0:0:0:
141,106,87320,1,2,0:0:0:0:
163,369,87512,5,4,0:0:0:0:
291,24,87704,1,10,0:0:0:0:
