osu file format v14

[General]
AudioFilename: audio.mp3
AudioLeadIn: 0
PreviewTime: -1
Countdown: 1
SampleSet: Soft
StackLeniency: 0.7
Mode: 0
LetterboxInBreaks: 0
WidescreenStoryboard: 1

[Editor]
Bookmarks: 9752
DistanceSpacing: 0.8
BeatDivisor: 4
GridSize: 32
TimelineZoom: 1.4

[Metadata]
Title:TwinTail Dreamers
TitleUnicode:ツインテール・ドリーマー!
Artist:Meg
ArtistUnicode:ツインテイルズ
Creator:gladiore
Version:Attempt number 2?
Source:
Tags:
BeatmapID:1945373
BeatmapSetID:919076

[Difficulty]
HPDrainRate:5
CircleSize:4
OverallDifficulty:8.5
ApproachRate:9.2
SliderMultiplier:1.5
SliderTickRate:1

[Events]
//Background and Video events
0,0,"images (1).jpg",0,0
//Break Periods
//Storyboard Layer 0 (Background)
//Storyboard Layer 1 (Fail)
//Storyboard Layer 2 (Pass)
//Storyboard Layer 3 (Foreground)
//Storyboard Sound Samples

[TimingPoints]
662,303.030303030303,4,2,1,60,1,0
2177,-100,4,2,1,80,0,0
2934,-125,4,2,1,70,0,0
7025,-100,4,2,1,70,0,0
22480,-111.111111111111,4,2,1,60,0,0
32177,-100,4,2,1,70,0,0
51616,-83.3333333333333,4,2,1,65,0,0
52934,-90.9090909090909,4,2,1,65,0,1
73237,-100,4,2,1,70,0,0
83086,-200,4,2,1,40,0,0
90358,-111.111111111111,4,2,1,60,0,0
92783,-100,4,2,1,70,0,0
102480,-111.111111111111,4,2,1,60,0,0
114449,-83.3333333333333,4,2,1,80,0,1
133843,-100,4,2,1,70,0,0
163086,-111.111111111111,4,2,1,65,0,0
172631,-166.666666666667,4,2,1,30,0,0
191268,-100,4,2,1,70,0,0
192025,-83.3333333333333,4,2,1,80,0,1
215207,-200,4,2,1,40,0,1
217177,-100,4,2,1,60,0,1
217480,-100,4,2,1,70,0,0

[HitObjects]
140,52,662,6,0,L|175:132,1,75
336,50,965,2,0,L|299:126,1,75
362,342,1571,2,0,L|320:258,1,75
149,343,1874,2,0,L|194:260,1,75
270,84,2177,1,0,0:0:0:0:
270,84,2252,1,0,0:0:0:0:
270,84,2328,1,0,0:0:0:0:
270,84,2404,1,0,0:0:0:0:
270,84,2480,2,0,L|315:68,1,37.5
422,57,2631,1,0,0:0:0:0:
193,301,2934,6,0,B|176:223|176:223|107:217|81:164,1,180
144,125,4146,6,0,B|255:118|237:52|237:52|287:35,1,180
422,111,5358,6,0,P|392:183|356:223,1,120
246,284,5813,2,0,B|224:207|224:207|164:175,1,120
35,35,6571,6,0,P|31:91|87:137,1,120
157,287,7025,1,0,0:0:0:0:
192,297,7100,1,0,0:0:0:0:
230,301,7176,1,0,0:0:0:0:
267,298,7252,1,0,0:0:0:0:
303,288,7328,1,0,0:0:0:0:
337,271,7403,1,0,0:0:0:0:
366,249,7479,1,0,0:0:0:0:
392,221,7555,1,0,0:0:0:0:
409,190,7631,1,0,0:0:0:0:
423,159,7707,1,0,0:0:0:0:
434,120,7783,6,0,L|452:18,1,75
224,36,8086,5,0,0:0:0:0:
342,144,8237,1,0,0:0:0:0:
236,170,8389,5,0,0:0:0:0:
122,273,8540,1,0,0:0:0:0:
140,144,8692,5,0,0:0:0:0:
225,287,8843,1,0,0:0:0:0:
356,67,8995,5,0,0:0:0:0:
310,210,9146,1,0,0:0:0:0:
265,113,9298,5,0,0:0:0:0:
347,280,9449,1,0,0:0:0:0:
496,115,9601,5,0,0:0:0:0:
426,248,9752,1,0,0:0:0:0:
426,248,9828,1,0,0:0:0:0:
426,248,9904,1,0,0:0:0:0:
426,248,9980,1,0,0:0:0:0:
426,248,10055,1,0,0:0:0:0:
446,385,10207,2,0,L|386:319,1,75
217,118,10510,5,0,0:0:0:0:
275,280,10662,1,0,0:0:0:0:
309,149,10813,5,0,0:0:0:0:
180,241,10965,1,0,0:0:0:0:
173,56,11116,5,0,0:0:0:0:
257,205,11268,1,0,0:0:0:0:
268,53,11419,5,0,0:0:0:0:
133,174,11571,1,0,0:0:0:0:
38,116,11722,5,0,0:0:0:0:
108,283,11874,1,0,0:0:0:0:
383,66,12025,5,0,0:0:0:0:
296,225,12177,1,0,0:0:0:0:
296,225,12252,1,0,0:0:0:0:
296,225,12328,1,0,0:0:0:0:
296,225,12404,1,0,0:0:0:0:
296,225,12480,1,0,0:0:0:0:
296,225,12555,1,0,0:0:0:0:
296,225,12631,6,0,L|360:299,1,75
312,127,12934,1,0,0:0:0:0:
440,275,13086,1,0,0:0:0:0:
312,127,13237,1,0,0:0:0:0:
326,374,13389,2,0,P|362:372|392:349,1,75
511,253,13692,1,0,0:0:0:0:
366,211,13843,6,0,P|330:205|298:224,1,75
73,144,14146,1,0,0:0:0:0:
217,29,14298,1,0,0:0:0:0:
73,144,14449,1,0,0:0:0:0:
214,234,14601,2,0,P|178:223|143:236,1,75
0,291,14904,1,0,0:0:0:0:
146,362,15055,6,0,P|181:372|215:360,1,75
311,258,15358,1,0,0:0:0:0:
152,150,15510,2,0,P|186:138|220:154,1,75
458,115,15813,1,0,0:0:0:0:
334,265,15965,1,0,0:0:0:0:
458,115,16116,1,0,0:0:0:0:
258,320,16268,6,0,P|206:316|156:293,1,75
88,256,16571,1,0,0:0:0:0:
274,203,16722,2,0,P|239:190|188:201,1,75
98,122,17025,1,0,0:0:0:0:
98,122,17101,1,0,0:0:0:0:
98,122,17177,1,0,0:0:0:0:
98,122,17252,1,0,0:0:0:0:
98,122,17328,1,0,0:0:0:0:
272,111,17480,6,0,P|307:98|342:111,1,75
440,262,17783,1,0,0:0:0:0:
249,310,17934,1,0,0:0:0:0:
429,147,18086,1,0,0:0:0:0:
229,180,18237,1,0,0:0:0:0:
409,64,18389,1,0,0:0:0:0:
164,16,18540,6,0,P|94:28|78:97,1,150
171,223,18995,1,0,0:0:0:0:
25,350,19146,2,0,P|67:376|115:359,1,75
342,365,19449,2,0,P|293:371|248:341,1,75
174,325,19752,1,0,0:0:0:0:
495,198,19904,6,0,P|460:278|371:303,1,150
302,243,20358,1,0,0:0:0:0:
383,150,20510,2,0,P|429:133|479:153,1,75
297,139,20813,1,0,0:0:0:0:
187,292,20965,1,0,0:0:0:0:
169,205,21116,6,0,P|135:219|110:247,1,75
219,372,21419,2,0,P|254:345|262:310,1,75
462,169,21722,1,0,0:0:0:0:
52,227,21874,1,0,0:0:0:0:
65,192,21949,1,0,0:0:0:0:
86,160,22025,1,0,0:0:0:0:
111,133,22101,1,0,0:0:0:0:
141,111,22177,1,0,0:0:0:0:
175,95,22252,1,0,0:0:0:0:
211,85,22328,1,0,0:0:0:0:
249,82,22404,1,0,0:0:0:0:
285,88,22480,6,0,P|289:151|285:246,1,134.999995880127
206,263,22934,2,0,P|173:269|134:251,1,67.4999979400635
372,256,23237,2,0,P|407:250|452:275,1,67.4999979400635
216,362,23540,6,0,P|304:355|313:300,1,134.999995880127
354,98,23995,1,0,0:0:0:0:
327,94,24298,2,0,L|237:94,1,67.4999979400635
257,192,24601,2,0,L|159:187,1,67.4999979400635
70,30,24904,6,0,B|49:67|49:67|67:173,1,134.999995880127
48,360,25358,2,0,P|88:372|121:362,1,67.4999979400635
153,269,25662,2,0,P|115:250|88:250,1,67.4999979400635
226,323,25965,6,0,B|290:371|331:262|355:309,1,134.999995880127
242,214,26419,1,0,0:0:0:0:
241,173,26722,2,0,P|246:125|266:105,1,67.4999979400635
169,29,27025,2,0,P|154:61|164:99,1,67.4999979400635
348,186,27328,6,0,P|420:179|489:190,1,134.999995880127
422,33,27783,2,0,P|413:69|420:105,1,67.4999979400635
410,337,28086,2,0,P|431:297|416:261,1,67.4999979400635
333,103,28389,6,0,P|272:136|253:200,1,134.999995880127
154,138,28843,2,0,P|117:128|74:140,1,67.4999979400635
85,290,29146,2,0,P|125:299|162:281,1,67.4999979400635
283,248,29449,1,0,0:0:0:0:
328,100,29601,1,0,0:0:0:0:
512,130,29752,6,0,P|488:101|455:84,1,67.4999979400635
365,254,30055,2,0,P|400:280|436:278,1,75
274,166,30358,1,0,0:0:0:0:
305,383,30510,2,0,L|295:292,1,67.4999979400635
135,305,30813,6,0,B|189:219|189:219|106:193|106:193|147:121,1,269.999991760254
293,56,31571,1,0,0:0:0:0:
281,233,31722,1,0,0:0:0:0:
426,277,31874,1,0,0:0:0:0:
408,305,31949,1,0,0:0:0:0:
382,327,32025,1,0,0:0:0:0:
351,338,32101,1,0,0:0:0:0:
313,338,32177,6,0,L|216:318,1,75
32,218,32480,2,0,L|82:191,1,33.7499989700318
101,194,32631,2,0,P|133:211|160:247,1,75
317,204,32934,2,0,L|315:109,1,75
410,137,33252,6,0,L|412:220,1,75
227,282,33540,1,0,0:0:0:0:
114,195,33692,1,0,0:0:0:0:
258,156,33843,1,0,0:0:0:0:
375,272,33995,2,0,L|374:353,1,75
464,348,34298,2,0,L|461:273,1,75
194,359,34601,6,0,P|149:321|161:291,1,75
203,195,34904,2,0,L|186:140,1,33.7499989700318
192,123,35055,2,0,P|215:94|263:85,1,75
364,123,35358,2,0,P|355:154|375:200,1,75
499,186,35661,6,0,P|515:156|512:123,1,67.4999979400635
423,53,35965,1,0,0:0:0:0:
282,47,36117,1,0,0:0:0:0:
296,168,36268,1,0,0:0:0:0:
461,283,36419,2,0,L|460:380,1,75
352,361,36722,2,0,L|352:284,1,75
201,149,37025,6,0,L|123:199,1,75
49,384,37328,2,0,L|32:329,1,33.7499989700318
38,312,37479,2,0,P|61:283|111:296,1,75
274,376,37783,2,0,P|234:392|199:381,1,75
191,241,38086,6,0,P|234:226|266:240,1,75
443,273,38389,1,0,0:0:0:0:
385,93,38540,2,0,P|404:59|446:51,1,75
512,152,38843,2,0,P|493:190|457:204,1,75
355,250,39146,1,0,0:0:0:0:
296,95,39298,1,0,0:0:0:0:
107,41,39449,6,0,L|188:76,1,75
197,174,39752,1,0,0:0:0:0:
174,321,39904,1,0,0:0:0:0:
74,185,40055,1,0,0:0:0:0:
331,175,40207,2,0,L|245:231,1,75
430,106,40510,6,0,P|419:179|450:247,1,150
275,29,40965,1,0,0:0:0:0:
323,191,41117,1,0,0:0:0:0:
116,39,41268,2,0,L|213:37,1,75
193,119,41571,2,0,L|100:118,1,75
120,197,41874,6,0,L|188:198,1,67.4999979400635
193,277,42177,2,0,L|126:277,1,67.4999979400635
227,384,42480,2,0,L|241:353,1,33.7499989700318
268,323,42631,2,0,P|304:317|337:333,1,75
259,104,42934,6,0,B|322:170|245:213,1,134.999995880127
389,277,43389,2,0,L|457:277,1,67.4999979400635
451,197,43692,2,0,L|384:197,1,67.4999979400635
382,118,43978,2,0,L|457:119,1,75
454,37,44281,6,0,L|380:39,1,75
257,89,44601,1,0,0:0:0:0:
302,229,44753,1,0,0:0:0:0:
194,350,44904,2,0,L|136:354,1,33.7499989700318
120,344,45055,2,0,P|96:315|98:267,1,75
151,93,45358,6,0,B|67:130|133:218,1,134.999995880127
272,329,45813,2,0,P|308:334|342:318,1,75
349,194,46116,2,0,P|314:181|279:193,1,75
200,241,46419,1,0,0:0:0:0:
436,219,46571,6,0,B|507:161|421:93,1,134.999995880127
70,132,47025,2,0,L|137:129,1,67.4999979400635
247,119,47328,2,0,L|314:118,1,67.4999979400635
475,35,47631,2,0,L|391:42,1,67.4999979400635
318,108,47934,6,0,L|223:116,1,67.4999979400635
110,195,48237,2,0,L|21:197,1,67.4999979400635
316,268,48540,1,0,0:0:0:0:
206,192,48692,1,0,0:0:0:0:
242,351,48843,1,0,0:0:0:0:
242,351,48919,1,0,0:0:0:0:
242,351,48995,1,0,0:0:0:0:
242,351,49071,1,0,0:0:0:0:
242,351,49146,6,0,L|301:385,1,67.4999979400635
219,212,49449,5,0,0:0:0:0:
228,74,49601,1,0,0:0:0:0:
347,163,49752,1,0,0:0:0:0:
243,315,49904,2,0,L|306:357,1,75
352,287,50207,6,0,L|289:247,1,75
179,351,50510,1,0,0:0:0:0:
178,189,50661,1,0,0:0:0:0:
57,189,50813,1,0,0:0:0:0:
56,353,50965,1,0,0:0:0:0:
57,189,51116,1,0,0:0:0:0:
178,189,51267,1,0,0:0:0:0:
179,351,51419,1,0,0:0:0:0:
355,55,51571,6,0,P|427:80|463:143,1,150
512,245,52025,1,0,0:0:0:0:
332,381,52177,1,0,0:0:0:0:
397,165,52328,1,0,0:0:0:0:
471,378,52480,1,0,0:0:0:0:
287,250,52631,1,0,0:0:0:0:
71,24,53086,6,0,P|52:73|86:125,1,82.5000025177003
294,25,53389,2,0,P|318:78|277:179,1,165.000005035401
500,366,53843,6,0,L|501:252,1,82.5000025177003
363,141,54146,1,0,0:0:0:0:
274,384,54298,1,0,0:0:0:0:
382,278,54449,1,0,0:0:0:0:
91,191,54601,2,0,L|138:263,1,82.5000025177003
276,380,54904,1,0,0:0:0:0:
506,174,55055,6,0,L|461:259,1,82.5000025177003
360,308,55358,1,0,0:0:0:0:
331,68,55510,1,0,0:0:0:0:
439,153,55661,1,0,0:0:0:0:
247,151,55813,2,0,P|213:196|231:231,1,82.5000025177003
252,328,56116,1,0,0:0:0:0:
492,188,56268,6,0,P|494:132|460:112,1,82.5000025177003
146,176,56571,1,0,0:0:0:0:
414,327,56722,1,0,0:0:0:0:
318,205,56873,1,0,0:0:0:0:
458,46,57025,2,0,P|473:82|454:117,1,82.5000025177003
167,212,57328,1,0,0:0:0:0:
60,33,57480,6,0,P|43:85|72:113,1,82.5000025177003
221,135,57783,1,0,0:0:0:0:
402,298,57934,1,0,0:0:0:0:
309,119,58086,1,0,0:0:0:0:
294,220,58237,2,0,L|198:271,1,82.5000025177003
436,149,58540,1,0,0:0:0:0:
14,64,58692,6,0,L|14:173,1,82.5000025177003
160,179,58995,1,0,0:0:0:0:
361,37,59146,1,0,0:0:0:0:
304,171,59298,1,0,0:0:0:0:
135,368,59449,2,0,L|135:275,1,82.5000025177003
343,299,59752,1,0,0:0:0:0:
178,182,59904,1,0,0:0:0:0:
465,31,60055,6,0,L|391:120,1,82.5000025177003
289,338,60358,1,0,0:3:0:0:
362,194,60510,1,0,0:0:0:0:
187,298,60661,1,0,0:3:0:0:
321,110,60813,1,0,0:3:0:0:
370,295,60965,1,0,0:0:0:0:
410,107,61116,5,0,0:3:0:0:
269,189,61267,1,0,0:0:0:0:
142,93,61419,1,0,0:0:0:0:
238,314,61570,1,0,0:0:0:0:
389,133,61722,1,0,0:0:0:0:
121,297,61873,1,0,0:0:0:0:
374,80,62025,1,0,0:0:0:0:
379,294,62177,1,0,0:0:0:0:
74,46,62328,6,0,L|125:139,1,82.5000025177003
167,250,62631,1,0,0:0:0:0:
351,7,62783,1,0,0:0:0:0:
183,83,62934,1,0,0:0:0:0:
437,173,63086,1,0,0:0:0:0:
109,190,63237,1,0,0:0:0:0:
87,215,63313,1,0,0:0:0:0:
66,241,63389,1,0,0:0:0:0:
49,269,63465,1,0,0:0:0:0:
41,300,63540,6,0,L|146:354,1,82.5000025177003
370,211,63843,1,0,0:0:0:0:
264,54,63995,1,0,0:0:0:0:
266,268,64146,1,0,0:0:0:0:
389,90,64298,2,0,L|441:15,1,82.5000025177003
269,136,64601,1,0,0:0:0:0:
494,309,64752,6,0,L|457:394,1,82.5000025177003
271,206,65055,1,0,0:0:0:0:
105,300,65207,2,0,L|146:372,1,82.5000025177003
103,105,65510,2,0,L|141:32,1,82.5000025177003
192,202,65813,1,0,0:0:0:0:
508,166,65965,6,0,P|469:206|406:204,1,82.5000025177003
353,204,66268,1,0,0:0:0:0:
255,93,66419,2,0,L|255:11,1,82.5000025177003
253,279,66722,2,0,L|253:378,1,82.5000025177003
417,234,67025,1,0,0:0:0:0:
506,16,67177,6,0,L|435:90,1,82.5000025177003
447,172,67480,1,0,0:0:0:0:
141,139,67631,2,0,P|155:187|211:189,1,82.5000025177003
370,120,67934,2,0,P|355:72|299:70,1,82.5000025177003
261,142,68237,1,0,0:0:0:0:
61,361,68389,6,0,P|106:360|149:324,1,82.5000025177003
411,331,68692,1,0,0:0:0:0:
254,262,68843,1,0,0:0:0:0:
392,185,68995,1,0,0:0:0:0:
226,123,69146,1,0,0:0:0:0:
401,69,69297,1,0,0:0:0:0:
50,48,69449,2,0,P|92:26|131:38,1,82.5000025177003
145,184,69752,6,0,P|102:205|63:193,1,82.5000025177003
398,369,70055,1,0,0:0:0:0:
234,304,70207,1,0,0:0:0:0:
350,223,70358,2,0,B|414:171,1,82.5000025177003
512,37,70661,1,0,0:0:0:0:
246,18,70813,6,0,L|180:68,1,82.5000025177003
28,122,71116,1,0,0:0:0:0:
185,191,71267,1,0,0:0:0:0:
46,268,71419,1,0,0:0:0:0:
212,330,71570,1,0,0:0:0:0:
38,384,71721,1,0,0:0:0:0:
324,223,71874,2,0,P|364:230|399:209,1,82.5000025177003
379,58,72177,6,0,P|339:51|304:72,1,82.5000025177003
182,165,72480,1,0,0:0:0:0:
