osu file format v14

[General]
AudioFilename: audio.mp3
AudioLeadIn: 0
PreviewTime: 100344
Countdown: 1
SampleSet: Soft
StackLeniency: 0.4
Mode: 0
LetterboxInBreaks: 0
WidescreenStoryboard: 0

[Editor]
DistanceSpacing: 1
BeatDivisor: 4
GridSize: 4
TimelineZoom: 4.399998

[Metadata]
Title:Warm Blood
TitleUnicode:Warm Blood
Artist:Meg & Dia
ArtistUnicode:Meg & Dia
Creator:Krisom
Version:Straining
Source:
Tags:happysad English Pop StarCastler and
BeatmapID:3173896
BeatmapSetID:1553475

[Difficulty]
HPDrainRate:6
CircleSize:5
OverallDifficulty:8
ApproachRate:8
SliderMultiplier:2.4
SliderTickRate:1

[Events]
//Background and Video events
0,0,"goddesses.jpg",0,0
//Break Periods
2,28944,32994
2,72344,76194
//Storyboard Layer 0 (Background)
//Storyboard Layer 1 (Fail)
//Storyboard Layer 2 (Pass)
//Storyboard Layer 3 (Foreground)
//Storyboard Layer 4 (Overlay)
//Storyboard Sound Samples

[TimingPoints]
144,600,4,2,1,69,1,0
33744,-86.9565217391304,4,2,1,88,0,1
72144,-100,4,2,1,69,0,0
100944,-86.9565217391304,4,2,1,88,0,1
139344,-86.9565217391304,4,2,1,69,0,0
159144,-80,4,2,1,88,0,1
213764,600,4,2,1,69,1,0

[Colours]
Combo1 : 250,165,50
Combo2 : 84,250,80
Combo3 : 85,71,250
Combo4 : 243,44,73

[HitObjects]
32,352,9744,5,4,3:0:0:0:
32,352,10344,1,8,0:0:0:0:
96,352,10494,2,0,B|148:352|148:352|188:352|204:320,1,120,2|0,0:0|0:0,0:0:0:0:
204,256,10944,2,0,P|256:231|308:256,1,120,2|0,3:0|0:0,0:0:0:0:
368,280,11394,2,0,B|392:290|392:290|456:270|456:270|480:280,1,120,2|0,0:0|0:0,0:0:0:0:
452,336,11844,1,0,3:0:0:0:
396,224,12144,5,4,3:0:0:0:
396,224,12744,1,8,0:0:0:0:
396,161,12894,2,0,P|352:127|308:161,1,120,2|0,0:0|0:0,0:0:0:0:
308,224,13344,2,0,L|184:224,1,120,2|0,3:0|0:0,0:0:0:0:
124,224,13794,2,0,B|124:175|124:175|140:162|140:162|140:112,1,120,2|0,0:0|0:0,0:0:0:0:
77,111,14244,1,0,3:0:0:0:
188,224,14544,5,4,3:0:0:0:
61,223,14844,2,0,B|61:174|61:174|77:161|77:161|77:111,1,120,2|8,3:0|0:0,0:0:0:0:
192,82,15444,1,2,0:0:0:0:
256,82,15594,1,0,3:0:0:0:
320,82,15744,2,0,B|332:114|296:162|256:174|216:186|180:234|192:266,1,240,2|8,3:0|0:0,0:0:0:0:
256,374,16644,1,2,0:0:0:0:
380,374,16944,5,4,3:0:0:0:
256,374,17244,1,2,0:3:0:0:
256,374,17844,1,2,0:0:0:0:
289,320,17994,1,0,3:0:0:0:
320,266,18144,2,0,B|332:234|296:186|256:174|216:162|180:114|192:82,1,240,2|8,3:0|0:0,0:0:0:0:
200,18,18894,2,0,B|232:22|256:38|256:38|280:22|312:18,1,120,0|0,3:0|3:0,0:0:0:0:
320,82,19344,5,4,3:0:0:0:
320,82,19944,1,8,0:0:0:0:
352,138,20094,2,0,P|377:190|352:242,1,120,2|0,0:0|0:0,0:0:0:0:
312,191,20544,2,0,B|284:215|256:191|228:167|200:191,1,120,2|0,3:0|0:0,0:0:0:0:
160,138,20994,2,0,P|135:190|160:242,1,120,2|0,0:0|0:0,0:0:0:0:
192,302,21444,1,8,0:0:0:0:
320,304,21744,5,4,3:0:0:0:
320,304,22344,1,8,0:0:0:0:
383,304,22494,2,0,B|393:280|393:280|373:216|373:216|383:192,1,120,2|0,0:0|0:0,0:0:0:0:
383,128,22944,2,0,P|331:103|279:128,1,120,2|0,3:0|0:0,0:0:0:0:
236,176,23394,2,0,B|224:224|176:224|176:224|136:224,1,120,2|0,0:0|0:0,0:0:0:0:
76,224,23844,1,0,3:0:0:0:
76,100,24144,5,4,3:0:0:0:
76,224,24444,2,0,B|88:272|136:272|136:272|176:272,1,120,2|8,3:0|0:0,0:0:0:0:
296,240,25044,1,2,0:0:0:0:
256,192,25194,1,0,3:0:0:0:
216,144,25344,2,0,B|188:88|224:60|256:51|256:51|288:60|324:88|296:144,1,240,2|8,3:0|0:0,0:0:0:0:
336,264,26244,1,2,0:0:0:0:
256,364,26544,5,4,3:0:0:0:
176,264,26844,1,2,3:0:0:0:
176,264,27444,1,2,0:0:0:0:
172,200,27594,1,0,3:0:0:0:
168,136,27744,2,0,B|232:112|268:180|256:192|244:204|280:272|344:248,1,240,2|8,3:0|0:0,0:0:0:0:
340,184,28494,1,4,3:0:0:0:
384,288,33744,5,4,1:0:0:0:
384,288,34344,1,8,1:0:0:0:
448,252,34494,2,0,L|326:322,1,138.000002632141,0|0,3:0|3:0,0:0:0:0:
266,350,34944,1,2,1:2:0:0:
218,299,35094,1,2,3:0:0:0:
252,239,35244,1,4,3:0:0:0:
320,252,35394,1,0,3:0:0:0:
364,192,35544,2,0,P|314:147|250:165,1,138.000002632141,10|0,1:0|0:0,0:0:0:0:
232,96,35994,2,2,P|332:82|415:139,1,207.000003948212,2|8,3:0|3:0,0:1:0:0:
456,200,36594,1,0,3:0:0:0:
492,264,36744,6,0,L|352:288,1,138.000002632141,8|0,1:0|3:0,0:0:0:0:
284,300,37194,1,8,0:1:0:0:
211,311,37344,1,2,1:2:0:0:
164,256,37494,1,2,3:0:0:0:
237,245,37644,1,4,3:0:0:0:
264,176,37794,1,0,3:0:0:0:
191,187,37944,1,10,1:0:0:0:
120,204,38094,2,2,P|148:128|204:112,1,138.000002632141,2|0,0:3|3:0,0:1:0:0:
268,104,38544,6,0,L|336:96,2,69.0000013160706,4|0|0,3:0|3:0|3:0,0:0:0:0:
197,111,38994,1,2,0:0:0:0:
124,124,39144,1,8,1:0:0:0:
52,112,39294,2,2,B|124:124|124:124|156:180,1,138.000002632141,2|0,3:0|3:0,0:1:0:0:
184,248,39744,1,2,1:2:0:0:
144,308,39894,1,2,3:0:0:0:
72,308,40044,1,4,3:0:0:0:
32,248,40194,1,0,3:0:0:0:
60,180,40344,6,2,P|108:139|156:180,1,138.000002632141,10|0,1:0|3:0,0:1:0:0:
156,252,40794,2,2,B|208:260|208:260|256:244|256:244|304:260|304:260|356:252,1,207.000003948212,2|0,3:0|3:0,0:1:0:0:
428,244,41394,1,0,3:0:0:0:
460,180,41544,1,8,1:0:0:0:
460,180,41994,1,8,0:1:0:0:
428,244,42144,1,2,1:2:0:0:
396,180,42294,1,2,3:0:0:0:
364,244,42444,2,0,L|288:244,1,69.0000013160706,4|0,3:0|3:0,0:0:0:0:
224,244,42744,1,8,1:0:0:0:
260,184,42894,2,2,L|120:184,1,138.000002632141,2|0,3:0|3:0,0:1:0:0:
48,184,43344,5,4,1:0:0:0:
48,184,43944,1,8,1:0:0:0:
12,248,44094,2,0,L|82:126,1,138.000002632141,0|0,3:0|3:0,0:0:0:0:
116,64,44544,1,2,1:2:0:0:
188,64,44694,1,2,3:0:0:0:
152,128,44844,1,4,3:0:0:0:
152,200,44994,1,0,3:0:0:0:
204,252,45144,2,0,P|256:290|308:252,1,138.000002632141,10|0,1:0|0:0,0:0:0:0:
346,313,45594,2,2,P|256:356|166:313,1,207.000003948212,2|8,3:0|3:0,0:1:0:0:
204,252,46194,1,0,3:0:0:0:
256,204,46344,6,0,B|344:204|344:204|384:172,1,138.000002632141,8|0,1:0|3:0,0:0:0:0:
432,120,46794,1,8,0:1:0:0:
384,68,46944,1,2,1:2:0:0:
336,120,47094,1,2,3:0:0:0:
264,120,47244,1,4,3:0:0:0:
212,68,47394,1,0,3:0:0:0:
160,120,47544,1,10,1:0:0:0:
87,120,47694,2,2,B|58:156|87:184|116:212|87:248,1,138.000002632141,2|0,0:3|3:0,0:1:0:0:
48,308,48144,6,0,L|12:368,2,69.0000013160706,4|0|0,3:0|3:0|3:0,0:0:0:0:
86,248,48594,1,2,0:0:0:0:
158,248,48744,1,8,1:0:0:0:
188,184,48894,2,2,B|256:196|256:196|324:184,1,138.000002632141,2|0,3:0|3:0,0:1:0:0:
324,112,49344,1,2,1:2:0:0:
256,84,49494,1,2,3:0:0:0:
188,112,49644,1,4,3:0:0:0:
120,84,49794,1,0,3:0:0:0:
52,112,49944,6,2,L|164:192,1,138.000002632141,10|0,1:0|3:0,0:1:0:0:
164,264,50394,2,2,B|216:264|256:304|256:304|296:264|348:264,1,207.000003948212,2|0,3:0|3:0,0:1:0:0:
420,264,50994,1,0,3:0:0:0:
384,200,51144,1,8,1:0:0:0:
384,200,51594,1,8,0:1:0:0:
312,200,51744,1,2,1:2:0:0:
240,200,51894,2,0,B|152:200|152:200|120:160,1,138.000002632141,2|0,3:0|3:0,3:0:0:0:
51,159,52344,2,0,B|140:160|140:160|172:124,1,138.000002632141,10|0,1:0|3:0,3:0:0:0:
208,60,52794,1,0,3:0:0:0:
280,60,52944,6,0,L|352:60,2,69.0000013160706,4|0|0,1:0|3:0|3:0,0:0:0:0:
208,60,53394,1,2,0:0:0:0:
136,60,53544,1,8,1:0:0:0:
172,124,53694,1,0,3:0:0:0:
208,188,53844,1,0,3:0:0:0:
136,188,53994,1,8,0:1:0:0:
100,252,54144,1,2,1:2:0:0:
136,316,54294,2,0,B|164:329|164:329|236:303|236:303|264:316,1,138.000002632141,0|0,3:0|3:0,0:0:0:0:
336,316,54744,2,0,P|365:256|336:196,1,138.000002632141,8|2,1:0|3:0,0:0:0:0:
264,196,55194,1,8,3:1:0:0:
192,196,55344,6,0,B|148:196|148:196|96:196|72:148,1,138.000002632141,4|0,3:0|3:0,0:0:0:0:
72,76,55794,1,0,3:0:0:0:
128,28,55944,1,8,1:0:0:0:
184,76,56094,1,0,3:0:0:0:
256,76,56244,1,0,3:0:0:0:
328,76,56394,1,8,0:1:0:0:
384,28,56544,2,0,L|439:77,1,69.0000013160706,2|2,1:2|3:0,0:0:0:0:
492,120,56844,2,0,L|388:212,1,138.000002632141,4|8,3:0|1:0,0:0:0:0:
452,244,57294,2,2,L|348:336,1,138.000002632141,2|0,0:3|3:0,0:1:0:0:
276,336,57744,6,0,L|204:336,2,69.0000013160706,4|0|0,3:0|3:0|3:0,0:0:0:0:
312,272,58194,1,2,0:0:0:0:
312,199,58344,1,8,1:0:0:0:
312,128,58494,2,2,B|280:120|256:90|256:90|232:120|200:128,1,138.000002632141,2|0,3:0|3:0,0:1:0:0:
200,200,58944,1,2,1:2:0:0:
128,200,59094,1,2,3:0:0:0:
104,132,59244,1,4,3:0:0:0:
128,64,59394,1,0,3:0:0:0:
200,64,59544,6,2,P|256:29|312:64,1,138.000002632141,10|0,1:0|3:0,0:1:0:0:
348,124,59994,2,2,B|312:140|272:128|256:100|256:100|240:128|200:140|164:124,1,207.000003948212,2|0,3:0|3:0,0:1:0:0:
152,196,60594,1,0,3:0:0:0:
188,260,60744,1,8,1:0:0:0:
188,260,61194,1,8,0:1:0:0:
256,284,61344,1,2,1:2:0:0:
324,260,61494,2,0,B|348:232|348:232|408:232|408:232|436:200,1,138.000002632141,2|0,3:0|3:0,3:0:0:0:
436,128,61944,2,0,P|372:104|309:128,1,138.000002632141,10|0,1:0|3:0,3:0:0:0:
256,180,62394,1,0,3:0:0:0:
204,232,62544,6,0,L|132:232,2,69.0000013160706,4|0|0,1:0|3:0|3:0,0:0:0:0:
256,284,62994,1,2,0:0:0:0:
328,284,63144,1,8,1:0:0:0:
372,228,63294,1,0,3:0:0:0:
328,172,63444,1,0,3:0:0:0:
255,172,63594,1,8,0:1:0:0:
292,108,63744,1,2,1:2:0:0:
316,40,63894,2,0,P|256:11|196:40,1,138.000002632141,0|0,3:0|3:0,0:0:0:0:
152,96,64344,2,0,B|124:128|152:160|180:192|152:224,1,138.000002632141,8|2,1:0|3:0,0:0:0:0:
80,224,64794,1,8,3:1:0:0:
80,224,64944,6,0,B|220:224,1,138.000002632141,4|0,3:0|3:0,0:0:0:0:
256,284,65394,1,0,3:0:0:0:
294,224,65544,1,8,1:0:0:0:
368,224,65694,1,0,3:0:0:0:
440,224,65844,1,0,3:0:0:0:
404,160,65994,1,8,0:1:0:0:
404,87,66144,2,0,L|328:87,1,69.0000013160706,2|2,1:2|3:0,0:0:0:0:
324,16,66444,2,0,B|260:16|260:16|256:12|256:12|252:16|252:16|188:16,1,138.000002632141,4|8,3:0|1:0,0:0:0:0:
144,72,66894,2,2,B|115:108|144:136|173:164|144:200,1,138.000002632141,2|0,0:3|3:0,0:1:0:0:
84,248,67344,6,0,P|145:277|204:248,1,138.000002632141,4|0,3:0|3:0,0:0:0:0:
220,176,67794,1,2,0:0:0:0:
292,176,67944,1,8,1:0:0:0:
307,247,68094,2,2,P|367:277|428:248,1,138.000002632141,2|8,3:0|0:1,0:1:0:0:
368,200,68544,2,0,L|368:124,2,69.0000013160706,2|2|4,1:2|0:3|3:0,0:0:0:0:
320,336,69144,6,2,B|256:364|256:364|192:336,1,138.000002632141,8|2,1:0|0:0,0:1:0:0:
156,276,69594,2,2,B|208:268|208:268|256:284|256:284|304:268|304:268|356:276,1,207.000003948212,2|0,3:0|3:0,0:1:0:0:
368,200,70194,1,0,3:0:0:0:
380,128,70344,1,10,1:2:0:0:
380,128,70644,1,0,3:0:0:0:
308,128,70794,1,2,0:0:0:0:
256,80,70944,1,2,1:2:0:0:
204,128,71094,1,2,0:3:0:0:
132,128,71244,2,0,B|164:192|164:192|219:228,1,138.000002632141,4|8,3:0|1:0,0:0:0:0:
292,228,71694,2,0,B|348:192|348:192|380:128,1,138.000002632141,2|0,3:1|3:0,0:0:0:0:
380,64,72144,1,2,0:0:0:0:
472,352,76944,5,4,3:0:0:0:
472,352,77544,1,8,0:0:0:0:
408,352,77694,2,0,B|408:300|408:300|408:260|376:244,1,120,2|0,0:0|0:0,0:0:0:0:
312,240,78144,2,0,B|284:216|256:240|228:264|200:240,1,120,2|0,3:0|0:0,0:0:0:0:
199,176,78594,2,0,B|200:296,1,120,2|0,0:0|0:0,0:0:0:0:
199,358,79044,1,0,3:0:0:0:
72,360,79344,5,4,3:0:0:0:
72,360,79944,1,8,0:0:0:0:
40,304,80094,2,0,B|18:248|18:248|40:192,1,120,2|0,0:0|0:0,0:0:0:0:
104,192,80544,2,0,B|125:248|125:248|104:304,1,120,2|0,3:0|0:0,0:0:0:0:
40,304,80994,2,0,B|18:246|18:246|40:192,1,120,2|0,0:0|0:0,0:0:0:0:
72,136,81444,1,0,3:0:0:0:
72,12,81744,5,4,3:0:0:0:
200,12,82044,2,0,B|237:12|237:12|274:36|274:36|312:36,1,120,2|8,3:0|0:0,0:0:0:0:
340,160,82644,1,2,0:0:0:0:
348,224,82794,1,0,3:0:0:0:
356,288,82944,2,0,B|344:336|264:336|304:244|208:244|248:336|168:336|156:288,1,240,2|8,3:0|0:0,0:0:0:0:
256,374,83844,1,2,0:0:0:0:
132,374,84144,5,4,3:0:0:0:
256,374,84444,1,2,0:3:0:0:
256,374,85044,1,2,0:0:0:0:
304,332,85194,1,0,3:0:0:0:
348,288,85344,2,0,P|409:192|348:96,1,240,2|8,3:0|0:0,0:0:0:0:
308,48,86094,2,0,P|256:22|204:48,1,120,0|0,3:0|3:0,0:0:0:0:
256,84,86544,5,4,3:0:0:0:
256,84,87144,1,8,0:0:0:0:
308,48,87294,2,0,P|256:22|204:48,1,120,2|0,0:0|0:0,0:0:0:0:
204,112,87744,2,0,B|192:152|152:152|152:152|104:152,1,120,2|0,3:0|0:0,0:0:0:0:
40,152,88194,2,0,B|16:96|16:96|40:40,1,120,2|0,0:0|0:0,0:0:0:0:
102,41,88644,1,8,0:0:0:0:
164,152,88944,5,4,3:0:0:0:
164,152,89544,1,8,0:0:0:0:
164,216,89694,2,0,B|284:216,1,120,2|0,0:0|0:0,0:0:0:0:
320,268,90144,2,0,P|345:216|320:164,1,120,2|0,3:0|0:0,0:0:0:0:
260,144,90594,2,0,B|236:134|236:134|172:154|172:154|148:144,1,120,2|0,0:0|0:0,0:0:0:0:
176,88,91044,1,0,3:0:0:0:
232,200,91344,5,4,3:0:0:0:
106,200,91644,2,0,B|106:235|106:235|106:283|154:295,1,120,2|8,3:0|0:0,0:0:0:0:
280,295,92244,1,2,0:0:0:0:
342,296,92394,1,0,3:0:0:0:
404,296,92544,2,0,B|401:259|376:234|345:234|345:234|198:234,1,240,2|8,3:0|0:0,0:0:0:0:
73,234,93444,1,2,0:0:0:0:
132,124,93744,5,4,3:0:0:0:
199,234,94044,1,2,3:0:0:0:
199,234,94644,1,2,0:0:0:0:
255,206,94794,1,0,3:0:0:0:
311,178,94944,2,0,B|311:122|311:122|255:92|255:92|199:122|199:122|199:178,1,240,2|8,3:0|0:0,0:0:0:0:
255,206,95694,1,4,3:0:0:0:
255,206,96144,1,0,0:0:0:0:
256,192,96294,12,2,100344,0:0:0:0:
88,36,100944,5,4,1:0:0:0:
88,36,101544,1,8,1:0:0:0:
16,36,101694,2,0,B|96:36|96:36|136:80,1,138.000002632141,0|0,3:0|3:0,0:0:0:0:
172,144,102144,1,2,1:2:0:0:
100,144,102294,1,2,3:0:0:0:
135,78,102444,1,4,3:0:0:0:
172,144,102594,1,0,3:0:0:0:
136,208,102744,2,0,B|108:236|72:208|36:180|8:208,1,138.000002632141,10|0,1:0|0:0,0:0:0:0:
44,272,103194,2,2,B|76:244|80:204|44:180|8:156|12:116|44:88,1,207.000003948212,2|8,3:0|3:0,0:1:0:0:
116,88,103794,1,0,3:0:0:0:
188,88,103944,6,0,P|222:144|188:200,1,138.000002632141,8|0,1:0|3:0,0:0:0:0:
140,252,104394,1,8,0:1:0:0:
156,324,104544,1,2,1:2:0:0:
220,360,104694,1,2,3:0:0:0:
292,360,104844,1,4,3:0:0:0:
356,324,104994,1,0,3:0:0:0:
372,252,105144,1,10,1:0:0:0:
325,200,105294,2,2,P|291:144|325:88,1,138.000002632141,2|0,0:3|3:0,0:1:0:0:
396,88,105744,6,0,L|468:88,2,69.0000013160706,4|0|0,3:0|3:0|3:0,0:0:0:0:
325,87,106194,1,2,0:0:0:0:
360,24,106344,1,8,1:0:0:0:
396,88,106494,2,2,B|476:88|476:88|504:140,1,138.000002632141,2|0,3:0|3:0,0:1:0:0:
504,212,106944,1,2,1:2:0:0:
456,268,107094,1,2,3:0:0:0:
504,324,107244,1,4,3:0:0:0:
456,380,107394,1,0,3:0:0:0:
392,344,107544,6,2,B|324:356|324:356|256:344,1,138.000002632141,10|0,1:0|3:0,0:1:0:0:
256,344,107994,2,2,B|188:356|188:356|120:344|120:344|120:264,1,207.000003948212,2|0,3:0|3:0,0:1:0:0:
60,236,108594,1,0,3:0:0:0:
60,163,108744,1,8,1:0:0:0:
60,163,109194,1,8,0:1:0:0:
20,100,109344,1,2,1:2:0:0:
60,40,109494,1,2,3:0:0:0:
104,100,109644,2,0,L|180:100,1,69.0000013160706,4|0,3:0|3:0,0:0:0:0:
244,100,109944,1,8,1:0:0:0:
316,100,110094,2,2,B|268:100|268:100|212:100|196:144,1,138.000002632141,2|0,3:0|3:0,0:1:0:0:
196,215,110544,5,4,1:0:0:0:
196,215,111144,1,8,1:0:0:0:
196,281,111294,2,0,L|196:138,1,138.000002632141,0|0,3:0|3:0,0:0:0:0:
196,70,111744,1,2,1:2:0:0:
256,28,111894,1,2,3:0:0:0:
316,72,112044,1,4,3:0:0:0:
376,28,112194,1,0,3:0:0:0:
436,72,112344,2,0,P|376:101|316:72,1,138.000002632141,10|0,1:0|0:0,0:0:0:0:
376,28,112794,2,2,P|446:96|409:186,1,207.000003948212,2|8,3:0|3:0,0:1:0:0:
344,220,113394,1,0,3:0:0:0:
276,248,113544,6,0,B|216:276|216:276|144:268,1,138.000002632141,8|0,1:0|3:0,0:0:0:0:
72,256,113994,1,8,0:1:0:0:
48,188,114144,1,2,1:2:0:0:
120,200,114294,1,2,3:0:0:0:
96,132,114444,1,4,3:0:0:0:
168,144,114594,1,0,3:0:0:0:
192,212,114744,1,10,1:0:0:0:
144,268,114894,2,2,P|208:283|258:240,1,138.000002632141,2|0,0:3|3:0,0:1:0:0:
284,172,115344,6,0,L|307:99,2,69.0000013160706,4|0|0,3:0|3:0|3:0,0:0:0:0:
328,228,115794,1,2,0:0:0:0:
398,209,115944,1,8,1:0:0:0:
350,160,116094,2,2,B|379:68|379:68|357:32,1,138.000002632141,2|0,3:0|3:0,0:1:0:0:
292,4,116544,1,2,1:2:0:0:
268,72,116694,1,2,3:0:0:0:
244,140,116844,1,4,3:0:0:0:
172,140,116994,1,0,3:0:0:0:
100,140,117144,6,2,P|123:192|203:205,1,138.000002632141,10|0,1:0|3:0,0:1:0:0:
172,140,117594,2,2,P|111:67|31:118,1,207.000003948212,2|0,3:0|3:0,0:1:0:0:
44,188,118194,1,0,3:0:0:0:
100,140,118344,1,8,1:0:0:0:
100,140,118794,1,8,0:1:0:0:
31,118,118944,1,2,1:2:0:0:
44,188,119094,2,0,B|72:324,1,138.000002632141,2|0,3:0|3:0,3:0:0:0:
144,323,119544,2,2,B|116:187,1,138.000002632141,10|2,3:1|3:0,3:1:0:0:
104,116,119994,1,0,3:0:0:0:
88,44,120144,6,0,L|16:44,2,69.0000013160706,4|0|0,1:0|3:0|3:0,0:0:0:0:
160,44,120594,1,2,0:0:0:0:
224,8,120744,1,8,1:0:0:0:
288,44,120894,1,0,3:0:0:0:
360,44,121044,1,0,3:0:0:0:
424,8,121194,1,8,0:1:0:0:
484,44,121344,1,2,1:2:0:0:
424,84,121494,2,0,B|424:124|424:124|424:180|367:191,1,138.000002632141,0|0,3:0|3:0,0:0:0:0:
360,120,121944,2,0,B|360:160|360:160|360:216|303:227,1,138.000002632141,8|2,1:0|3:0,0:0:0:0:
256,172,122394,1,8,3:1:0:0:
210,117,122544,6,0,B|150:241,1,138.000002632141,4|0,3:0|3:0,0:0:0:0:
116,308,122994,1,0,3:0:0:0:
176,352,123144,1,8,1:0:0:0:
236,308,123294,1,0,3:0:0:0:
296,352,123444,1,0,3:0:0:0:
356,308,123594,1,8,0:1:0:0:
428,308,123744,2,0,L|428:236,1,69.0000013160706,2|2,1:2|3:0,0:0:0:0:
428,168,124044,2,0,P|364:145|300:168,1,138.000002632141,4|8,3:0|1:0,0:0:0:0:
300,167,124494,2,2,P|323:99|299:39,1,138.000002632141,2|0,0:3|3:0,0:1:0:0:
228,40,124944,6,0,L|156:40,2,69.0000013160706,4|0|0,3:0|3:0|3:0,0:0:0:0:
300,40,125394,1,2,0:0:0:0:
300,112,125544,1,8,1:0:0:0:
312,188,125694,2,2,B|288:216|256:226|256:226|224:216|200:188,1,138.000002632141,2|0,3:0|3:0,0:1:0:0:
160,248,126144,1,2,1:2:0:0:
220,292,126294,1,2,3:0:0:0:
292,292,126444,1,4,3:0:0:0:
352,248,126594,1,0,3:0:0:0:
312,188,126744,6,2,P|256:153|200:188,1,138.000002632141,10|0,1:0|3:0,0:1:0:0:
160,124,127194,2,2,P|256:89|352:124,1,207.000003948212,2|0,3:0|3:0,0:1:0:0:
396,180,127794,1,0,3:0:0:0:
444,124,127944,1,8,1:0:0:0:
444,124,128394,1,8,0:1:0:0:
396,72,128544,1,2,1:2:0:0:
452,28,128694,2,0,B|420:-4|420:-4|372:-4|372:-4|340:28,1,138.000002632141,2|0,3:0|3:0,3:0:0:0:
292,84,129144,2,0,B|256:126|256:126|272:147|272:147|235:189,1,138.000002632141,10|0,1:0|3:0,3:0:0:0:
188,244,129594,1,0,3:0:0:0:
248,288,129744,6,0,L|301:333,2,69.0000013160706,4|0|0,1:0|3:0|3:0,0:0:0:0:
188,244,130194,1,2,0:0:0:0:
132,292,130344,1,8,1:0:0:0:
188,336,130494,1,0,3:0:0:0:
132,380,130644,1,0,3:0:0:0:
59,380,130794,1,8,0:1:0:0:
4,336,130944,1,2,1:2:0:0:
60,292,131094,2,0,B|120:292|120:292|164:292|184:248,1,138.000002632141,0|0,3:0|3:0,0:0:0:0:
124,204,131544,2,0,B|40:204|40:204|4:244,1,138.000002632141,8|2,1:0|3:0,0:0:0:0:
60,292,131994,1,8,3:1:0:0:
132,292,132144,6,0,P|166:236|132:180,1,138.000002632141,4|0,3:0|3:0,0:0:0:0:
59,179,132594,1,0,3:0:0:0:
24,116,132744,1,8,1:0:0:0:
96,116,132894,1,0,3:0:0:0:
136,56,133044,1,0,3:0:0:0:
208,56,133194,1,8,0:1:0:0:
280,56,133344,2,0,L|344:84,1,69.0000013160706,2|2,1:2|3:0,0:0:0:0:
412,112,133644,2,0,B|281:171,1,138.000002632141,4|8,3:0|1:0,0:0:0:0:
324,232,134094,2,2,B|450:176,1,138.000002632141,2|0,0:3|3:0,0:1:0:0:
412,112,134544,6,0,P|351:83|292:112,1,138.000002632141,4|0,3:0|3:0,0:0:0:0:
256,176,134994,1,2,0:0:0:0:
256,248,135144,1,8,1:0:0:0:
220,312,135294,2,2,P|160:342|99:313,1,138.000002632141,2|8,3:0|0:1,0:1:0:0:
100,240,135744,2,0,L|100:164,2,69.0000013160706,2|2|4,1:2|0:3|3:0,0:0:0:0:
100,240,136344,6,2,P|164:218|228:240,1,138.000002632141,8|2,1:0|0:0,0:1:0:0:
264,304,136794,2,2,P|224:212|264:120,1,207.000003948212,2|0,3:0|3:0,0:1:0:0:
336,120,137394,1,0,3:0:0:0:
368,184,137544,1,10,1:2:0:0:
368,184,137844,1,0,3:0:0:0:
312,232,137994,1,2,0:0:0:0:
256,188,138144,1,2,1:2:0:0:
200,232,138294,1,2,0:3:0:0:
143,183,138444,2,0,P|156:119|219:103,1,138.000002632141,4|8,3:0|1:0,0:0:0:0:
293,103,138894,2,0,P|363:128|368:184,1,138.000002632141,2|0,3:1|3:0,0:0:0:0:
328,244,139344,5,6,0:0:0:0:
184,244,139644,1,0,3:0:0:0:
256,368,139944,1,10,0:0:0:0:
183,368,140094,2,0,B|123:368|123:368|79:368|75:316,2,138.000002632141,2|8|2,0:3|0:0|0:3,0:0:0:0:
256,368,140844,1,2,0:0:0:0:
329,368,140994,2,0,B|389:368|389:368|433:368|437:316,1,138.000002632141,2|0,0:3|3:0,0:0:0:0:
476,256,141444,1,2,0:0:0:0:
344,80,141744,6,0,P|256:34|168:80,1,207.000003948212,4|2,3:0|0:3,0:0:0:0:
168,152,142344,2,0,P|256:198|344:152,1,207.000003948212,10|8,0:0|0:0,0:0:0:0:
320,84,142944,1,2,0:0:0:0:
256,52,143094,1,2,3:0:0:0:
192,84,143244,1,8,3:0:0:0:
160,236,143544,1,8,0:0:0:0:
160,236,143694,1,8,0:3:0:0:
352,236,143994,1,8,0:0:0:0:
352,236,144144,5,4,3:0:0:0:
256,128,144444,1,0,3:0:0:0:
160,236,144744,1,10,0:0:0:0:
136,304,144894,1,0,3:0:0:0:
19,216,145194,2,0,P|83:141|178:168,1,207.000003948212,10|8,0:0|0:3,0:0:0:0:
160,236,145794,1,8,0:3:0:0:
136,304,145944,1,8,0:0:0:0:
112,372,146094,1,8,0:3:0:0:
112,372,146394,1,8,0:0:0:0:
39,372,146544,6,0,L|7:300,2,69.0000013160706,4|0|0,3:0|3:0|3:0,0:0:0:0:
112,372,146994,1,0,0:0:0:0:
76,308,147144,2,0,L|16:172,1,138.000002632141,8|0,0:0|3:0,0:0:0:0:
20,108,147594,1,8,0:0:0:0:
20,35,147744,2,0,L|92:67,2,69.0000013160706,8|0|0,3:0|3:0|3:0,0:0:0:0:
20,108,148194,1,0,0:0:0:0:
20,181,148344,2,0,L|146:236,1,138.000002632141,8|0,0:0|3:0,0:0:0:0:
180,96,148944,5,6,0:0:0:0:
332,96,149244,1,0,3:0:0:0:
332,240,149544,1,10,0:0:0:0:
332,312,149694,2,0,P|391:283|400:217,2,138.000002632141,2|8|2,0:3|0:0|0:3,0:0:0:0:
179,312,150594,2,0,P|120:283|111:217,1,138.000002632141,2|0,0:3|3:0,0:0:0:0:
180,240,151044,1,2,0:0:0:0:
20,64,151344,6,0,B|76:36|120:56|120:72|164:92|220:64,1,207.000003948212,4|2,3:0|0:3,0:0:0:0:
292,64,151944,2,0,B|348:92|392:72|392:56|436:36|492:64,1,207.000003948212,10|8,0:0|0:0,0:0:0:0:
444,120,152544,1,2,0:0:0:0:
392,172,152694,1,2,3:0:0:0:
340,224,152844,1,8,3:0:0:0:
256,96,153144,1,8,0:0:0:0:
256,96,153294,1,8,0:3:0:0:
172,224,153594,1,8,0:0:0:0:
172,224,153744,5,4,3:0:0:0:
256,340,154044,1,0,3:0:0:0:
320,376,154194,1,0,0:0:0:0:
320,304,154344,1,10,0:0:0:0:
384,340,154494,1,0,3:0:0:0:
493,216,154794,2,0,P|429:141|334:168,1,207.000003948212,10|8,0:0|0:3,0:0:0:0:
300,228,155394,1,8,0:3:0:0:
256,284,155544,1,8,0:0:0:0:
212,228,155694,1,8,0:3:0:0:
256,92,155994,1,8,0:0:0:0:
256,20,156144,5,2,0:0:0:0:
168,136,156444,1,0,0:0:0:0:
212,276,156744,1,0,0:0:0:0:
356,276,157044,1,0,0:0:0:0:
256,20,157344,1,2,0:0:0:0:
344,136,157644,1,0,0:0:0:0:
300,276,157944,1,0,0:0:0:0:
155,276,158244,1,0,0:0:0:0:
155,276,159144,5,12,1:0:0:0:
80,276,159294,2,0,L|236:276,1,150,0|0,3:0|3:0,0:0:0:0:
271,212,159744,1,2,1:2:0:0:
195,212,159894,1,2,3:0:0:0:
115,212,160044,1,4,3:0:0:0:
40,212,160194,1,0,3:0:0:0:
80,148,160344,2,0,P|128:96|204:120,1,150,10|0,1:0|0:0,0:0:0:0:
247,168,160794,2,2,P|184:253|82:226,1,225,2|8,3:0|3:0,0:1:0:0:
80,148,161394,1,0,3:0:0:0:
198,113,161544,6,0,B|222:103|222:103|317:122|317:122|342:113,1,150,8|0,1:0|3:0,0:0:0:0:
374,44,161994,1,8,0:1:0:0:
342,112,162144,1,2,1:2:0:0:
310,180,162294,1,2,3:0:0:0:
236,180,162444,1,4,3:0:0:0:
198,113,162594,1,0,3:0:0:0:
123,113,162744,1,10,1:0:0:0:
48,113,162894,2,2,P|87:46|155:44,1,150,2|0,0:3|3:0,0:1:0:0:
236,180,163344,6,0,L|284:239,2,75,4|0|0,3:0|3:0|3:0,0:0:0:0:
198,113,163794,1,2,0:0:0:0:
123,113,163944,1,8,1:0:0:0:
160,180,164094,2,2,B|256:300,1,150,2|0,3:0|3:0,0:1:0:0:
300,356,164544,1,2,1:2:0:0:
348,300,164694,1,2,3:0:0:0:
396,356,164844,1,4,3:0:0:0:
444,300,164994,1,0,3:0:0:0:
300,232,165144,6,2,B|242:232|242:232|229:264|229:264|172:264,1,150,10|0,1:0|3:0,0:1:0:0:
95,263,165594,2,2,P|98:161|200:152,1,225,2|0,3:0|3:0,0:1:0:0:
156,216,166194,1,0,3:0:0:0:
201,152,166344,2,0,P|204:50|306:41,1,225,8|8,1:0|0:1,0:1:0:0:
380,64,166944,1,2,1:2:0:0:
440,112,167094,1,2,3:0:0:0:
420,184,167244,1,0,3:0:0:0:
340,184,167394,1,4,3:0:0:0:
320,112,167544,1,8,1:0:0:0:
307,41,167694,2,2,B|255:41|255:41|195:41|175:85,1,150,2|0,3:0|3:0,0:1:0:0:
140,232,168144,5,4,1:0:0:0:
140,232,168744,1,8,1:0:0:0:
216,232,168894,2,0,B|320:232|320:232|356:204,1,150,0|0,3:0|3:0,0:0:0:0:
408,152,169344,1,2,1:2:0:0:
356,100,169494,1,2,3:0:0:0:
304,152,169644,1,4,3:0:0:0:
356,203,169794,1,0,3:0:0:0:
408,152,169944,2,0,P|428:82|380:29,1,150,10|0,1:0|0:0,0:0:0:0:
356,100,170394,2,2,B|332:136|280:136|288:60|224:60|232:136|180:136|156:100,1,225,2|8,3:0|3:0,0:1:0:0:
116,36,170994,1,0,3:0:0:0:
255,168,171144,6,0,P|185:190|117:161,1,150,8|0,1:0|3:0,0:0:0:0:
72,104,171594,1,8,0:1:0:0:
52,176,171744,1,2,1:2:0:0:
32,248,171894,1,2,3:0:0:0:
104,228,172044,1,4,3:0:0:0:
84,300,172194,1,0,3:0:0:0:
64,372,172344,1,10,1:0:0:0:
136,356,172494,2,2,B|176:388|204:360|204:352|232:324|272:356,1,150,2|0,0:3|3:0,0:1:0:0:
412,356,172944,6,0,L|492:356,2,75,4|0|0,3:0|3:0|3:0,0:0:0:0:
360,304,173394,1,2,0:0:0:0:
360,224,173544,1,8,1:0:0:0:
360,149,173694,2,2,P|292:122|224:149,1,150,2|0,3:0|3:0,0:1:0:0:
148,148,174144,1,2,1:2:0:0:
188,84,174294,1,2,3:0:0:0:
148,20,174444,1,4,3:0:0:0:
108,84,174594,1,0,3:0:0:0:
188,212,174744,6,2,P|256:240|324:212,1,150,10|0,1:0|3:0,0:1:0:0:
396,192,175194,2,2,B|396:112|396:112|396:28|312:8,1,225,2|0,3:0|3:0,0:1:0:0:
256,60,175794,1,0,3:0:0:0:
198,8,175944,2,0,B|116:28|116:112|116:112|116:192,1,225,8|8,1:0|0:1,0:1:0:0:
120,268,176544,1,2,1:2:0:0:
120,344,176694,2,0,B|204:344|204:344|248:296,1,150,2|0,3:0|3:0,3:0:0:0:
248,219,177144,2,0,B|164:219|164:219|120:267,1,150,10|0,1:0|3:0,3:0:0:0:
120,344,177594,1,0,3:0:0:0:
120,176,177744,6,0,L|120:100,2,75,4|0|0,1:0|3:0|3:0,0:0:0:0:
56,220,178194,1,2,0:0:0:0:
56,144,178344,1,8,1:0:0:0:
56,68,178494,1,0,3:0:0:0:
120,32,178644,1,0,3:0:0:0:
188,68,178794,1,8,0:1:0:0:
188,144,178944,1,2,1:2:0:0:
188,220,179094,2,0,B|220:236|220:236|292:204|292:204|324:220,1,150,0|0,3:0|3:0,0:0:0:0:
316,296,179544,2,0,P|256:334|196:296,1,150,8|2,1:0|3:0,0:0:0:0:
188,220,179994,1,8,3:1:0:0:
316,296,180144,6,0,P|256:334|196:296,1,150,4|0,3:0|3:0,0:0:0:0:
188,220,180594,1,0,3:0:0:0:
128,172,180744,1,8,1:0:0:0:
52,172,180894,1,0,3:0:0:0:
12,108,181044,1,0,3:0:0:0:
52,44,181194,1,8,0:1:0:0:
128,44,181344,2,0,L|184:100,1,75,2|2,1:2|3:0,0:0:0:0:
236,44,181644,2,0,L|344:152,1,150,4|8,3:0|1:0,0:0:0:0:
344,44,182094,2,2,L|452:152,1,150,2|0,0:3|3:0,0:1:0:0:
234,150,182544,6,0,L|178:94,2,75,4|0|0,3:0|3:0|3:0,0:0:0:0:
288,200,182994,1,2,0:0:0:0:
346,248,183144,1,8,1:0:0:0:
406,292,183294,2,2,P|342:323|280:285,1,150,2|0,3:0|3:0,0:1:0:0:
346,248,183744,1,2,1:2:0:0:
411,213,183894,1,2,3:0:0:0:
352,164,184044,1,4,3:0:0:0:
420,128,184194,1,0,3:0:0:0:
406,292,184344,6,2,P|339:323|280:284,1,150,10|0,1:0|3:0,0:1:0:0:
406,292,184794,2,2,B|364:344|306:335|295:298|241:283|201:323,1,225,2|0,3:0|3:0,0:1:0:0:
130,343,185394,1,0,3:0:0:0:
60,356,185544,2,0,B|54:272|54:272|79:226|79:226|72:138,1,225,8|8,1:0|0:1,0:0:0:0:
64,64,186144,1,2,1:2:0:0:
132,96,186294,2,0,B|272:148,1,150,2|0,3:0|3:0,3:0:0:0:
136,168,186744,2,0,L|277:221,1,150,10|0,1:0|3:0,3:0:0:0:
348,248,187194,1,0,3:0:0:0:
200,268,187344,6,0,L|281:298,2,75,4|0|0,1:0|3:0|3:0,0:0:0:0:
128,240,187794,1,2,0:0:0:0:
60,268,187944,1,8,1:0:0:0:
60,344,188094,1,0,3:0:0:0:
128,372,188244,1,0,3:0:0:0:
196,344,188394,1,8,0:1:0:0:
264,372,188544,1,2,1:2:0:0:
332,344,188694,2,0,P|392:315|465:344,1,150,0|0,3:0|3:0,0:0:0:0:
332,344,189144,2,0,B|308:304|332:272|356:240|332:200,1,150,8|2,1:0|3:0,0:0:0:0:
264,236,189594,1,8,3:1:0:0:
405,344,189744,6,0,B|383:308|405:272|427:236|405:200,1,150,4|0,3:0|3:0,0:0:0:0:
384,128,190194,1,0,3:0:0:0:
324,80,190344,1,8,1:0:0:0:
256,116,190494,1,0,3:0:0:0:
188,80,190644,1,0,3:0:0:0:
128,128,190794,1,8,0:1:0:0:
152,200,190944,2,0,L|174:276,1,75,2|2,1:2|3:0,0:0:0:0:
246,281,191244,2,0,P|254:207|208:150,1,150,4|8,3:0|1:0,0:0:0:0:
77,187,191694,2,2,P|69:263|114:317,1,150,2|0,0:3|3:0,0:1:0:0:
320,268,192144,6,0,P|320:192|283:128,1,150,4|0,3:0|3:0,0:0:0:0:
224,80,192594,1,2,0:0:0:0:
284,129,192744,1,8,1:0:0:0:
360,136,192894,2,2,P|434:132|496:91,1,150,2|8,3:0|0:1,0:1:0:0:
440,40,193344,2,0,L|355:65,1,75,2|2,1:2|0:3,0:0:0:0:
360,136,193644,2,0,L|275:161,1,75,4|0,0:3|0:3,0:0:0:0:
80,224,193944,6,2,B|224:180,1,150,8|2,1:0|0:0,0:1:0:0:
220,104,194394,2,2,P|112:84|36:168,1,225,2|0,3:0|3:0,0:1:0:0:
80,224,194994,1,0,3:0:0:0:
124,284,195144,1,10,1:2:0:0:
124,284,195444,1,0,3:0:0:0:
199,284,195594,1,2,0:0:0:0:
256,336,195744,1,2,1:2:0:0:
332,336,195894,1,2,0:3:0:0:
388,284,196044,2,0,B|340:284|340:284|276:284|264:228,1,150,4|8,3:0|1:0,0:0:0:0:
340,220,196494,2,2,B|292:220|292:220|228:220|216:164,1,150,2|0,3:0|3:0,0:1:0:0:
160,24,196944,6,0,L|148:100,1,75,4|0,0:0|0:0,0:0:0:0:
96,24,197244,2,0,L|84:100,1,75,0|0,3:0|0:0,0:0:0:0:
72,172,197544,1,8,1:0:0:0:
100,240,197694,1,0,3:0:0:0:
180,240,197844,1,0,3:0:0:0:
220,304,197994,1,8,0:1:0:0:
296,304,198144,1,2,1:2:0:0:
348,360,198294,1,2,0:3:0:0:
396,304,198444,1,4,3:0:0:0:
328,172,198744,2,2,P|256:152|184:172,1,150,10|0,1:0|3:0,0:1:0:0:
148,236,199194,2,2,B|172:256|240:244|232:204|280:204|272:244|340:256|364:236,1,225,8|0,0:1|3:0,0:1:0:0:
168,83,199944,5,8,1:0:0:0:
344,84,200244,1,0,3:0:0:0:
308,152,200394,1,8,0:1:0:0:
384,152,200544,1,2,1:2:0:0:
420,84,200694,1,2,0:3:0:0:
384,20,200844,1,4,3:0:0:0:
308,152,201144,1,8,1:0:0:0:
233,152,201294,2,2,B|185:176|161:152|137:128|89:152,1,150,2|8,0:3|0:1,0:1:0:0:
124,224,201744,5,2,1:2:0:0:
156,292,201894,1,8,0:1:0:0:
188,360,202044,1,4,3:0:0:0:
308,152,202344,1,8,1:0:0:0:
233,152,202494,2,2,B|185:176|161:152|137:128|89:152,1,150,2|8,0:3|0:1,0:1:0:0:
124,224,202944,1,2,1:2:0:0:
156,292,203094,1,8,0:1:0:0:
188,360,203244,1,4,3:0:0:0:
316,100,203544,2,2,P|256:62|196:100,1,150,10|0,1:0|3:0,0:1:0:0:
154,37,203994,2,2,P|256:-4|357:37,1,225,8|0,0:1|3:0,0:1:0:0:
256,304,204744,5,8,1:0:0:0:
356,192,205044,1,0,3:0:0:0:
304,136,205194,1,8,0:1:0:0:
256,192,205344,1,2,1:2:0:0:
208,136,205494,1,2,0:3:0:0:
156,192,205644,1,4,3:0:0:0:
256,80,205944,1,8,1:0:0:0:
321,33,206094,2,2,P|256:0|192:32,1,150,2|8,0:3|0:1,0:1:0:0:
300,100,206544,6,0,L|329:179,1,75,4|0,0:0|0:0,0:0:0:0:
212,284,206844,2,0,L|186:213,1,75,0|0,3:0|0:0,0:0:0:0:
160,144,207144,1,8,1:0:0:0:
232,120,207294,1,0,3:0:0:0:
256,192,207444,1,0,3:0:0:0:
280,264,207594,1,8,0:1:0:0:
352,240,207744,1,2,1:2:0:0:
336,312,207894,1,2,0:3:0:0:
264,336,208044,1,4,3:0:0:0:
184,136,208344,2,2,B|256:116|256:116|328:136,1,150,10|0,1:0|3:0,0:1:0:0:
364,200,208794,2,2,B|340:205|340:205|256:180|256:180|172:205|172:205|148:200,1,225,8|0,0:1|3:0,0:1:0:0:
344,68,209544,5,8,1:0:0:0:
168,69,209844,1,0,3:0:0:0:
92,68,209994,1,8,0:1:0:0:
128,132,210144,1,2,1:2:0:0:
52,132,210294,1,2,0:3:0:0:
92,196,210444,1,4,3:0:0:0:
16,68,210744,1,8,1:0:0:0:
92,68,210894,2,2,B|140:92|164:68|188:44|236:68,1,150,2|8,0:3|0:1,0:1:0:0:
280,128,211344,5,2,1:2:0:0:
324,188,211494,1,8,0:1:0:0:
368,248,211644,1,4,3:0:0:0:
496,68,211944,1,8,1:0:0:0:
420,68,212094,2,2,B|372:92|348:68|324:44|276:68,1,150,2|8,0:3|0:1,0:1:0:0:
232,128,212544,1,2,1:2:0:0:
188,188,212694,1,8,0:1:0:0:
144,248,212844,1,4,3:0:0:0:
316,324,213144,2,2,P|256:362|196:324,1,150,10|0,1:0|3:0,0:1:0:0:
192,316,213519,1,0,3:0:0:0:
188,308,213594,1,0,3:0:0:0:
184,300,213669,1,0,3:0:0:0:
180,292,213764,5,2,1:2:0:0:
108,152,214064,1,0,3:0:0:0:
248,80,214364,1,0,3:0:0:0:
320,220,214664,1,0,3:2:0:0:
108,152,214964,1,2,1:2:0:0:
304,51,215264,1,0,3:0:0:0:
405,247,215564,1,0,3:0:0:0:
209,348,215864,1,0,3:2:0:0:
256,192,216164,5,2,0:0:0:0:
