osu file format v14

[General]
AudioFilename: audio.mp3
AudioLeadIn: 0
PreviewTime: 100344
Countdown: 1
SampleSet: Soft
StackLeniency: 0.4
Mode: 0
LetterboxInBreaks: 0
WidescreenStoryboard: 1

[Editor]
DistanceSpacing: 1
BeatDivisor: 4
GridSize: 4
TimelineZoom: 2.599999

[Metadata]
Title:Warm Blood
TitleUnicode:Warm Blood
Artist:Meg & Dia
ArtistUnicode:Meg & Dia
Creator:Krisom
Version:Hard
Source:
Tags:happysad English Pop StarCastler and
BeatmapID:3173893
BeatmapSetID:1553475

[Difficulty]
HPDrainRate:5
CircleSize:4
OverallDifficulty:6
ApproachRate:7
SliderMultiplier:2.52000000000001
SliderTickRate:1

[Events]
//Background and Video events
0,0,"goddesses.jpg",0,0
//Break Periods
2,28944,32844
2,72344,76044
2,156194,158244
//Storyboard Layer 0 (Background)
//Storyboard Layer 1 (Fail)
//Storyboard Layer 2 (Pass)
//Storyboard Layer 3 (Foreground)
//Storyboard Layer 4 (Overlay)
//Storyboard Sound Samples

[TimingPoints]
144,600,4,2,1,69,1,0
33744,-90.9090909090909,4,2,1,80,0,1
72144,-100,4,2,1,69,0,0
100944,-90.9090909090909,4,2,1,80,0,1
139344,-90.9090909090909,4,2,1,69,0,0
159144,-83.3333333333333,4,2,1,80,0,1
213764,600,4,2,1,69,1,0

[Colours]
Combo1 : 250,165,50
Combo2 : 84,250,80
Combo3 : 85,71,250
Combo4 : 243,44,73

[HitObjects]
420,328,9744,5,4,3:0:0:0:
420,56,10344,1,8,0:0:0:0:
420,56,10494,2,0,L|296:72,1,126.000000000001,2|0,0:0|0:0,0:0:0:0:
252,15,10944,2,0,P|230:99|251:127,1,126.000000000001,2|0,3:0|0:0,0:0:0:0:
316,148,11394,2,0,L|192:164,1,126.000000000001,2|0,0:0|0:0,0:0:0:0:
120,172,11844,1,0,3:0:0:0:
92,328,12144,5,4,3:0:0:0:
92,56,12744,1,8,0:0:0:0:
92,56,12894,2,0,L|216:72,1,126.000000000001,2|0,0:0|0:0,0:0:0:0:
260,15,13344,2,0,P|281:99|260:127,1,126.000000000001,2|0,3:0|0:0,0:0:0:0:
196,148,13794,2,0,L|320:164,1,126.000000000001,2|0,0:0|0:0,0:0:0:0:
392,172,14244,1,0,3:0:0:0:
384,312,14544,5,4,3:0:0:0:
256,264,14844,1,2,3:0:0:0:
128,312,15144,1,8,0:0:0:0:
88,180,15444,1,2,0:0:0:0:
88,180,15594,1,0,3:0:0:0:
88,180,15744,2,0,B|148:200|172:160|192:128|280:136|312:204,1,252.000000000001,2|8,3:0|0:0,0:0:0:0:
256,332,16644,1,2,0:0:0:0:
128,312,16944,5,4,3:0:0:0:
256,264,17244,1,2,0:3:0:0:
384,312,17544,1,8,0:0:0:0:
424,180,17844,1,2,0:0:0:0:
424,180,17994,1,0,3:0:0:0:
424,180,18144,2,0,B|364:200|340:160|320:128|232:136|200:204,1,252.000000000001,2|8,3:0|0:0,0:0:0:0:
436,56,19344,5,4,3:0:0:0:
436,328,19944,1,8,0:0:0:0:
436,328,20094,2,0,B|384:328|384:328|344:328|320:292,1,126,2|0,0:0|0:0,0:0:0:0:
259,260,20544,2,0,P|310:225|368:242,1,126,2|0,3:0|0:0,0:0:0:0:
412,188,20994,2,0,P|356:159|294:157,1,126,2|0,0:0|0:0,0:0:0:0:
256,100,21444,1,8,0:0:0:0:
76,56,21744,5,4,3:0:0:0:
76,328,22344,1,8,0:0:0:0:
76,328,22494,2,0,B|128:328|128:328|168:328|192:292,1,126,2|0,0:0|0:0,0:0:0:0:
252,260,22944,2,0,P|201:225|143:242,1,126,2|0,3:0|0:0,0:0:0:0:
99,188,23394,2,0,P|155:159|217:157,1,126,2|0,0:0|0:0,0:0:0:0:
256,100,23844,1,0,3:0:0:0:
360,192,24144,5,4,3:0:0:0:
432,312,24444,1,2,3:0:0:0:
288,312,24744,1,8,0:0:0:0:
148,312,25044,1,2,0:0:0:0:
148,312,25194,1,0,3:0:0:0:
148,312,25344,2,0,B|168:232|100:216|52:208|24:152|48:100,1,252.000000000001,2|8,3:0|0:0,0:0:0:0:
176,56,26244,1,2,0:0:0:0:
152,192,26544,5,4,3:0:0:0:
80,312,26844,1,2,3:0:0:0:
224,312,27144,1,8,0:0:0:0:
364,312,27444,1,2,0:0:0:0:
364,312,27594,1,0,3:0:0:0:
364,312,27744,2,0,B|344:232|412:216|460:208|488:152|464:100,1,252.000000000001,2|8,3:0|0:0,0:0:0:0:
132,288,33744,6,0,B|200:288|200:288|272:288|296:324|296:364,1,207.900006344605,4|0,1:0|0:0,0:0:0:0:
216,362,34344,2,0,B|216:324|240:288|312:288|312:288|384:288,1,207.900006344605,8|0,1:0|3:0,0:0:0:0:
428,228,34944,2,0,P|452:260|460:288,2,69.3000021148685,2|2|4,1:2|3:0|3:0,0:0:0:0:
320,120,35544,6,0,P|257:98|192:120,1,138.600004229737,10|0,1:0|0:0,0:0:0:0:
158,50,35994,2,2,P|256:20|354:52,1,207.900006344605,2|8,3:0|3:0,0:1:0:0:
256,172,36744,1,8,1:0:0:0:
32,48,37344,1,2,1:2:0:0:
32,48,37494,1,2,3:0:0:0:
32,48,37644,1,4,3:0:0:0:
68,196,37944,5,10,1:0:0:0:
44,268,38094,2,2,P|120:248|144:188,1,138.600004229737,2|0,0:3|3:0,0:1:0:0:
68,196,38544,1,4,3:0:0:0:
369,198,39144,1,8,1:0:0:0:
345,270,39294,2,2,P|421:250|445:190,1,138.600004229737,2|0,3:0|3:0,0:1:0:0:
369,198,39744,1,2,1:2:0:0:
188,12,40344,6,2,B|256:24|256:24|324:12,1,138.600004229737,10|0,1:0|3:0,0:1:0:0:
356,81,40794,2,2,B|256:104|256:104|154:81,1,207.900006344605,2|0,3:0|3:0,0:1:0:0:
256,196,41544,1,8,1:0:0:0:
480,48,42144,1,2,1:2:0:0:
480,48,42294,1,2,3:0:0:0:
480,48,42444,1,4,3:0:0:0:
444,196,42744,5,8,1:0:0:0:
452,272,42894,2,2,P|424:348|364:360,1,138.600004229737,2|0,3:0|3:0,0:1:0:0:
380,288,43344,2,0,B|312:288|312:288|240:288|216:324|216:364,1,207.900006344605,4|0,1:0|0:0,0:0:0:0:
296,362,43944,2,0,B|296:324|272:288|200:288|200:288|128:288,1,207.900006344605,8|0,1:0|3:0,0:0:0:0:
84,228,44544,2,0,P|60:260|52:288,2,69.3000021148685,2|2|4,1:2|3:0|3:0,0:0:0:0:
128,80,45144,6,0,P|156:140|218:170,1,138.600004229737,10|0,1:0|0:0,0:0:0:0:
196,244,45594,2,2,P|104:197|57:106,1,207.900006344605,2|8,3:0|3:0,0:1:0:0:
208,84,46344,1,8,1:0:0:0:
500,196,46944,1,2,1:2:0:0:
500,196,47094,1,2,3:0:0:0:
500,196,47244,1,4,3:0:0:0:
424,64,47544,5,10,1:0:0:0:
424,140,47694,2,2,B|424:204|424:204|424:244|384:260,1,138.600004229737,2|0,0:3|3:0,0:1:0:0:
348,192,48144,1,4,3:0:0:0:
88,64,48744,1,8,1:0:0:0:
88,140,48894,2,2,B|88:204|88:204|88:244|128:260,1,138.600004229737,2|0,3:0|3:0,0:1:0:0:
164,192,49344,1,2,1:2:0:0:
384,80,49944,6,2,P|355:140|293:170,1,138.600004229737,10|0,1:0|3:0,0:1:0:0:
316,244,50394,2,2,P|407:197|454:106,1,207.900006344605,2|0,3:0|3:0,0:1:0:0:
304,84,51144,1,8,1:0:0:0:
180,364,51744,1,2,1:2:0:0:
180,364,51894,1,2,3:0:0:0:
332,364,52194,1,0,3:0:0:0:
332,364,52344,1,10,1:0:0:0:
412,244,52644,1,0,3:0:0:0:
476,116,52944,6,0,P|443:57|377:47,1,138.600004229737,4|0,1:0|3:0,0:0:0:0:
332,108,53394,1,2,0:0:0:0:
320,180,53544,2,0,B|288:172|256:200|256:200|224:172|192:180,1,138.600004229737,8|0,1:0|3:0,0:0:0:0:
180,40,54144,1,2,1:2:0:0:
180,40,54294,1,0,3:0:0:0:
332,40,54594,1,0,3:0:0:0:
332,40,54744,1,8,1:0:0:0:
404,164,55044,1,2,3:0:0:0:
468,296,55344,6,0,L|324:296,1,138.600004229737,4|0,3:0|3:0,0:0:0:0:
256,296,55794,1,0,3:0:0:0:
182,296,55944,2,0,L|44:296,1,138.600004229737,8|0,1:0|3:0,0:0:0:0:
16,152,56544,1,2,1:2:0:0:
16,152,56694,1,2,3:0:0:0:
16,152,56844,1,4,3:0:0:0:
92,20,57144,5,8,1:0:0:0:
64,88,57294,2,2,B|100:92|100:92|156:68|156:68|200:72,1,138.600004229737,2|0,0:3|3:0,0:1:0:0:
168,140,57744,1,4,3:0:0:0:
420,20,58344,1,8,1:0:0:0:
448,88,58494,2,2,B|412:92|412:92|356:68|356:68|312:72,1,138.600004229737,2|0,3:0|3:0,0:1:0:0:
344,140,58944,1,2,1:2:0:0:
187,369,59544,6,2,L|325:369,1,138.600004229737,10|0,1:0|3:0,0:1:0:0:
360,300,59994,2,2,L|152:300,1,207.900006344605,2|0,3:0|3:0,0:1:0:0:
108,160,60744,1,8,1:0:0:0:
332,364,61344,1,2,1:2:0:0:
332,364,61494,1,2,3:0:0:0:
180,364,61794,1,0,3:0:0:0:
180,364,61944,1,10,1:0:0:0:
100,244,62244,1,0,3:0:0:0:
36,116,62544,6,0,P|68:57|134:47,1,138.600004229737,4|0,1:0|3:0,0:0:0:0:
180,108,62994,1,2,0:0:0:0:
192,180,63144,2,0,B|224:172|256:200|256:200|288:172|320:180,1,138.600004229737,8|0,1:0|3:0,0:0:0:0:
332,40,63744,1,2,1:2:0:0:
332,40,63894,1,0,3:0:0:0:
180,40,64194,1,0,3:0:0:0:
180,40,64344,1,8,1:0:0:0:
108,164,64644,1,2,3:0:0:0:
44,296,64944,6,0,L|188:296,1,138.600004229737,4|0,3:0|3:0,0:0:0:0:
256,296,65394,1,0,3:0:0:0:
329,296,65544,2,0,L|468:296,1,138.600004229737,8|0,1:0|3:0,0:0:0:0:
496,152,66144,1,2,1:2:0:0:
496,152,66294,1,2,3:0:0:0:
496,152,66444,1,4,3:0:0:0:
420,20,66744,5,8,1:0:0:0:
448,88,66894,2,2,B|412:92|412:92|356:68|356:68|312:72,1,138.600004229737,2|0,0:3|3:0,0:1:0:0:
344,140,67344,1,4,3:0:0:0:
92,20,67944,1,8,1:0:0:0:
64,88,68094,2,2,B|100:92|100:92|156:68|156:68|200:72,1,138.600004229737,2|8,3:0|0:1,0:1:0:0:
168,140,68544,1,2,1:2:0:0:
325,369,69144,6,2,L|186:369,1,138.600004229737,8|2,1:0|0:0,0:1:0:0:
152,300,69594,2,2,L|360:300,1,207.900006344605,2|0,3:0|3:0,0:1:0:0:
404,160,70344,1,10,1:2:0:0:
108,160,70944,1,2,1:2:0:0:
108,160,71094,1,2,0:3:0:0:
108,160,71244,1,4,3:0:0:0:
256,324,71694,1,2,3:1:0:0:
404,160,72144,1,2,0:0:0:0:
92,56,76944,5,4,3:0:0:0:
92,328,77544,1,8,0:0:0:0:
92,328,77694,2,0,B|120:348|152:328|184:308|212:328,1,126,2|0,0:0|0:0,0:0:0:0:
260,380,78144,2,0,L|232:256,1,126,2|0,3:0|0:0,0:0:0:0:
172,224,78594,2,0,P|224:188|288:216,1,126,2|0,0:0|0:0,0:0:0:0:
344,180,79044,1,0,3:0:0:0:
420,56,79344,5,4,3:0:0:0:
420,328,79944,1,8,0:0:0:0:
420,328,80094,2,0,B|392:348|360:328|328:308|300:328,1,126,2|0,0:0|0:0,0:0:0:0:
252,380,80544,2,0,L|280:256,1,126,2|0,3:0|0:0,0:0:0:0:
340,224,80994,2,0,P|288:188|224:216,1,126,2|0,0:0|0:0,0:0:0:0:
168,180,81444,1,0,3:0:0:0:
144,44,81744,5,4,3:0:0:0:
256,120,82044,1,2,3:0:0:0:
368,44,82344,1,8,0:0:0:0:
412,180,82644,1,2,0:0:0:0:
412,180,82794,1,0,3:0:0:0:
412,180,82944,2,0,P|340:288|240:256,1,252.000000000001,2|8,3:0|0:0,0:0:0:0:
256,120,83844,1,2,0:0:0:0:
368,44,84144,5,4,3:0:0:0:
256,120,84444,1,2,0:3:0:0:
144,44,84744,1,8,0:0:0:0:
100,180,85044,1,2,0:0:0:0:
100,180,85194,1,0,3:0:0:0:
100,180,85344,2,0,P|172:288|272:256,1,252.000000000001,2|8,3:0|0:0,0:0:0:0:
0,312,86544,5,4,3:0:0:0:
76,44,87144,1,8,0:0:0:0:
76,44,87294,2,0,B|204:36,1,126,2|0,0:0|0:0,0:0:0:0:
208,104,87744,2,0,P|260:156|312:148,1,126,2|0,3:0|0:0,0:0:0:0:
276,88,88194,2,0,P|328:140|380:132,1,126,2|0,0:0|0:0,0:0:0:0:
416,192,88644,1,8,0:0:0:0:
512,312,88944,5,4,3:0:0:0:
436,44,89544,1,8,0:0:0:0:
436,44,89694,2,0,B|308:36,1,126,2|0,0:0|0:0,0:0:0:0:
304,104,90144,2,0,P|252:156|200:148,1,126,2|0,3:0|0:0,0:0:0:0:
236,88,90594,2,0,P|184:140|132:132,1,126,2|0,0:0|0:0,0:0:0:0:
96,192,91044,1,0,3:0:0:0:
52,324,91344,5,4,3:0:0:0:
12,192,91644,1,2,3:0:0:0:
52,60,91944,1,8,0:0:0:0:
192,60,92244,1,2,0:0:0:0:
192,60,92394,1,0,3:0:0:0:
192,60,92544,2,0,B|250:71|250:71|305:82|344:48|387:16|451:65,1,252.000000000001,2|8,3:0|0:0,0:0:0:0:
416,192,93444,1,2,0:0:0:0:
460,324,93744,5,4,3:0:0:0:
500,192,94044,1,2,3:0:0:0:
460,60,94344,1,8,0:0:0:0:
320,60,94644,1,2,0:0:0:0:
320,60,94794,1,0,3:0:0:0:
320,60,94944,2,0,B|261:71|261:71|206:82|167:48|124:16|60:65,1,252.000000000001,2|8,3:0|0:0,0:0:0:0:
256,192,96144,12,2,100344,0:0:0:0:
448,128,100944,6,0,B|382:97|382:97|386:50|339:11|293:19,1,207.900006344605,4|0,1:0|0:0,0:0:0:0:
218,19,101544,2,0,B|172:11|125:50|129:97|129:97|64:128,1,207.900006344605,8|0,1:0|3:0,0:0:0:0:
0,96,102144,2,0,P|-6:135|0:163,2,69.3000021148685,2|2|4,1:2|3:0|3:0,0:0:0:0:
52,232,102744,6,0,B|76:256|116:240|116:224|156:208|180:232,1,138.600004229737,10|0,1:0|0:0,0:0:0:0:
164,304,103194,2,2,P|256:345|348:304,1,207.900006344605,2|8,3:0|3:0,0:1:0:0:
256,188,103944,1,8,1:0:0:0:
480,336,104544,1,2,1:2:0:0:
480,336,104694,1,2,3:0:0:0:
480,336,104844,1,4,3:0:0:0:
444,188,105144,5,10,1:0:0:0:
512,160,105294,2,2,B|486:115|438:115|438:115|390:115,1,138.600004229737,2|0,0:3|3:0,0:1:0:0:
340,64,105744,1,4,3:0:0:0:
68,188,106344,1,8,1:0:0:0:
0,160,106494,2,2,B|25:115|73:115|73:115|121:115,1,138.600004229737,2|0,3:0|3:0,0:1:0:0:
172,64,106944,1,2,1:2:0:0:
460,232,107544,6,2,B|436:256|396:240|396:224|356:208|332:232,1,138.600004229737,10|0,1:0|3:0,0:1:0:0:
352,304,107994,2,2,B|256:344|256:344|160:304,1,207.900006344605,2|0,3:0|3:0,0:1:0:0:
256,188,108744,1,8,1:0:0:0:
32,336,109344,1,2,1:2:0:0:
32,336,109494,1,2,3:0:0:0:
32,336,109644,1,4,3:0:0:0:
16,192,109944,5,8,1:0:0:0:
0,120,110094,2,2,P|16:60|84:36,1,138.600004229737,2|0,3:0|3:0,0:1:0:0:
76,110,110544,2,0,B|92:152|92:152|108:88|176:64|218:96,1,207.900006344605,4|0,1:0|0:0,0:0:0:0:
293,96,111144,2,0,B|336:64|404:88|420:152|420:152|435:110,1,207.900006344605,8|0,1:0|3:0,0:0:0:0:
500,76,111744,2,0,P|506:115|500:143,2,69.3000021148685,2|2|4,1:2|3:0|3:0,0:0:0:0:
392,172,112344,6,0,P|420:232|482:262,1,138.600004229737,10|0,1:0|0:0,0:0:0:0:
460,332,112794,2,2,P|368:285|321:194,1,207.900006344605,2|8,3:0|3:0,0:1:0:0:
256,64,113544,1,8,1:0:0:0:
12,188,114144,1,2,1:2:0:0:
12,188,114294,1,2,3:0:0:0:
12,188,114444,1,4,3:0:0:0:
80,316,114744,5,10,1:0:0:0:
144,284,114894,2,2,B|144:232|144:232|128:216|128:216|128:148,1,138.600004229737,2|0,0:3|3:0,0:1:0:0:
200,132,115344,1,4,3:0:0:0:
432,316,115944,1,8,1:0:0:0:
368,284,116094,2,2,B|368:232|368:232|384:216|384:216|384:148,1,138.600004229737,2|0,3:0|3:0,0:1:0:0:
312,132,116544,1,2,1:2:0:0:
29,262,117144,6,2,P|90:233|120:172,1,138.600004229737,10|0,1:0|3:0,0:1:0:0:
190,195,117594,2,2,P|143:285|52:332,1,207.900006344605,2|0,3:0|3:0,0:1:0:0:
36,180,118344,1,8,1:0:0:0:
332,96,118944,1,2,1:2:0:0:
332,96,119094,1,2,3:0:0:0:
180,96,119394,1,0,3:0:0:0:
180,96,119544,1,10,3:1:0:0:
72,192,119844,1,2,3:0:0:0:
88,336,120144,6,0,P|148:372|208:348,1,138.600004229737,4|0,1:0|3:0,0:0:0:0:
256,296,120594,1,2,0:0:0:0:
304,240,120744,2,0,P|366:263|423:227,1,138.600004229737,8|0,1:0|3:0,0:0:0:0:
324,124,121344,1,2,1:2:0:0:
324,124,121494,1,0,3:0:0:0:
188,124,121794,1,0,3:0:0:0:
188,124,121944,1,8,1:0:0:0:
92,16,122244,1,2,3:0:0:0:
56,156,122544,6,0,L|192:200,1,138.600004229737,4|0,3:0|3:0,0:0:0:0:
256,220,122994,1,0,3:0:0:0:
324,198,123144,2,0,L|456:156,1,138.600004229737,8|0,1:0|3:0,0:0:0:0:
504,304,123744,1,2,1:2:0:0:
504,304,123894,1,2,3:0:0:0:
504,304,124044,1,4,3:0:0:0:
376,376,124344,5,8,1:0:0:0:
308,343,124494,2,2,P|359:300|424:315,1,138.600004229737,2|0,0:3|3:0,0:1:0:0:
376,376,124944,1,4,3:0:0:0:
136,376,125544,1,8,1:0:0:0:
204,343,125694,2,2,P|152:300|87:315,1,138.600004229737,2|0,3:0|3:0,0:1:0:0:
136,376,126144,1,2,1:2:0:0:
325,155,126744,6,2,L|187:155,1,138.600004229737,10|0,1:0|3:0,0:1:0:0:
152,224,127194,2,2,L|360:224,1,207.900006344605,2|0,3:0|3:0,0:1:0:0:
256,328,127944,1,8,1:0:0:0:
180,52,128544,1,2,1:2:0:0:
180,52,128694,1,2,3:0:0:0:
332,52,128994,1,0,3:0:0:0:
332,52,129144,1,10,1:0:0:0:
372,192,129444,1,0,3:0:0:0:
424,336,129744,6,0,P|364:372|304:348,1,138.600004229737,4|0,1:0|3:0,0:0:0:0:
256,296,130194,1,2,0:0:0:0:
208,240,130344,2,0,P|145:263|88:227,1,138.600004229737,8|0,1:0|3:0,0:0:0:0:
188,124,130944,1,2,1:2:0:0:
188,124,131094,1,0,3:0:0:0:
324,124,131394,1,0,3:0:0:0:
324,124,131544,1,8,1:0:0:0:
420,16,131844,1,2,3:0:0:0:
456,156,132144,6,0,L|320:200,1,138.600004229737,4|0,3:0|3:0,0:0:0:0:
256,220,132594,1,0,3:0:0:0:
187,198,132744,2,0,L|56:156,1,138.600004229737,8|0,1:0|3:0,0:0:0:0:
8,304,133344,1,2,1:2:0:0:
8,304,133494,1,2,3:0:0:0:
8,304,133644,1,4,3:0:0:0:
136,376,133944,5,8,1:0:0:0:
204,343,134094,2,2,P|152:300|87:315,1,138.600004229737,2|0,0:3|3:0,0:1:0:0:
136,376,134544,1,4,3:0:0:0:
376,376,135144,1,8,1:0:0:0:
308,343,135294,2,2,P|359:300|424:315,1,138.600004229737,2|8,3:0|0:1,0:1:0:0:
376,376,135744,1,2,1:2:0:0:
187,155,136344,6,2,L|325:155,1,138.600004229737,8|2,1:0|0:0,0:1:0:0:
360,224,136794,2,2,L|152:224,1,207.900006344605,2|0,3:0|3:0,0:1:0:0:
256,328,137544,1,10,1:2:0:0:
404,80,138144,1,2,1:2:0:0:
404,80,138294,1,2,0:3:0:0:
404,80,138444,1,4,3:0:0:0:
256,244,138894,1,2,3:1:0:0:
108,80,139344,1,6,0:0:0:0:
396,44,139944,5,10,0:0:0:0:
468,32,140094,2,0,B|484:76|452:96|420:116|440:164,2,138.600004229737,2|8|2,0:3|0:0|0:3,0:0:0:0:
400,48,140844,1,2,0:0:0:0:
400,48,140994,1,2,0:3:0:0:
256,80,141294,1,0,3:0:0:0:
256,80,141444,1,2,0:0:0:0:
112,100,141744,6,0,P|128:184|240:224,1,207.900006344605,4|2,3:0|0:3,0:0:0:0:
304,244,142344,2,0,P|152:256|104:360,1,277.200008459474,10|2,0:0|0:0,0:0:0:0:
248,376,143244,1,8,3:0:0:0:
384,324,143544,1,8,0:0:0:0:
384,324,143694,1,8,0:3:0:0:
280,224,143994,1,8,0:0:0:0:
280,224,144144,6,0,B|232:188|184:212|184:236|136:260|84:224,1,207.900006344605,4|0,3:0|0:0,0:0:0:0:
132,168,144744,1,10,0:0:0:0:
132,168,144894,1,0,3:0:0:0:
232,280,145194,2,0,P|228:208|320:112,1,207.900006344605,10|8,0:0|0:3,0:0:0:0:
460,84,145944,1,8,0:0:0:0:
460,84,146094,1,8,0:3:0:0:
408,220,146394,1,8,0:0:0:0:
408,220,146544,6,0,L|260:200,1,138.600004229737,4|0,3:0|3:0,0:0:0:0:
200,192,146994,1,0,0:0:0:0:
192,264,147144,2,0,L|44:244,1,138.600004229737,8|0,0:0|3:0,0:0:0:0:
120,116,147744,2,0,L|268:96,1,138.600004229737,8|0,3:0|3:0,0:0:0:0:
328,88,148194,1,0,0:0:0:0:
336,160,148344,2,0,L|484:140,1,138.600004229737,8|0,0:0|3:0,0:0:0:0:
480,288,148944,6,0,B|416:344|364:316|348:268|280:244|228:312,1,277.200008459474,6|10,0:0|0:0,0:0:0:0:
176,256,149694,2,0,P|240:208|320:200,3,138.600004229737,2|8|2|2,0:3|0:0|0:3|0:3,0:0:0:0:
284,340,150894,1,0,3:0:0:0:
284,340,151044,1,2,0:0:0:0:
412,284,151344,6,0,B|421:225|364:195|364:195|373:180|373:180|300:127|336:42,1,277.200008459474,4|10,3:0|0:0,0:0:0:0:
476,84,152244,1,0,0:0:0:0:
476,84,152394,1,8,0:0:0:0:
476,84,152544,1,2,0:0:0:0:
376,184,152844,1,8,3:0:0:0:
508,220,153144,1,8,0:0:0:0:
476,84,153444,1,0,0:0:0:0:
348,72,153744,6,0,P|304:148|232:168,1,138.600004229737,4|0,3:0|3:0,0:0:0:0:
188,176,154194,1,0,0:0:0:0:
188,176,154344,1,10,0:0:0:0:
188,176,154494,1,0,3:0:0:0:
116,304,154794,2,0,B|168:292|168:292|192:300|192:300|260:284,1,138.600004229737,10|0,0:0|0:0,0:0:0:0:
312,248,155244,1,8,0:3:0:0:
452,208,155544,1,8,0:0:0:0:
452,208,155694,1,8,0:3:0:0:
420,348,155994,1,8,0:0:0:0:
12,344,159144,6,0,B|50:312|82:344|114:375|153:344,1,151.199995385743,12|0,1:0|0:0,0:0:0:0:
204,288,159594,1,0,3:0:0:0:
256,232,159744,1,2,1:2:0:0:
408,232,160044,1,4,3:0:0:0:
476,96,160344,2,0,P|408:68|340:96,1,151.199995385743,10|0,1:0|0:0,0:0:0:0:
364,168,160794,2,2,B|304:200|256:180|256:156|208:136|148:168,1,226.799993078614,2|8,3:0|3:0,0:1:0:0:
196,312,161544,5,8,1:0:0:0:
44,312,161844,1,0,3:0:0:0:
44,312,161994,1,8,0:1:0:0:
44,312,162144,1,2,1:2:0:0:
128,188,162444,1,4,3:0:0:0:
44,72,162744,1,10,1:0:0:0:
24,144,162894,2,2,P|80:136|116:56,1,151.199995385743,2|0,0:3|3:0,0:1:0:0:
192,72,163344,5,4,3:0:0:0:
260,208,163644,1,0,3:0:0:0:
320,72,163944,1,8,1:0:0:0:
300,144,164094,2,2,P|356:136|392:56,1,151.199995385743,2|0,3:0|3:0,0:1:0:0:
468,72,164544,5,2,1:2:0:0:
408,212,164844,1,4,3:0:0:0:
476,348,165144,2,2,P|408:376|340:348,1,151.199995385743,10|0,1:0|3:0,0:1:0:0:
364,276,165594,2,2,B|304:244|256:264|256:288|208:308|148:276,1,226.799993078614,2|0,3:0|3:0,0:1:0:0:
200,132,166344,5,8,1:0:0:0:
324,48,166644,1,0,3:0:0:0:
324,48,166794,1,8,0:1:0:0:
324,48,166944,1,2,1:2:0:0:
452,128,167244,1,0,3:0:0:0:
320,204,167544,1,8,1:0:0:0:
328,280,167694,2,2,P|256:302|184:280,1,151.199995385743,2|0,3:0|3:0,0:1:0:0:
132,224,168144,6,0,P|133:114|217:43,1,226.799993078614,4|0,1:0|0:0,0:0:0:0:
294,43,168744,2,0,P|378:114|379:224,1,226.799993078614,8|0,1:0|3:0,0:0:0:0:
332,284,169344,1,2,1:2:0:0:
332,284,169494,1,2,3:0:0:0:
332,284,169644,1,4,3:0:0:0:
180,280,169944,2,0,L|152:132,1,151.199995385743,10|0,1:0|0:0,0:0:0:0:
152,56,170394,2,2,B|256:100|256:100|360:56,1,226.799993078614,2|8,3:0|3:0,0:1:0:0:
424,192,171144,5,8,1:0:0:0:
324,304,171444,1,0,3:0:0:0:
256,268,171594,1,8,0:1:0:0:
188,232,171744,1,2,1:2:0:0:
88,344,172044,1,4,3:0:0:0:
24,212,172344,1,10,1:0:0:0:
24,212,172494,2,2,L|168:160,1,151.199995385743,2|0,0:3|3:0,0:1:0:0:
236,128,172944,5,4,3:0:0:0:
260,276,173244,1,0,3:0:0:0:
116,252,173544,1,8,1:0:0:0:
116,252,173694,2,2,L|260:200,1,151.199995385743,2|0,3:0|3:0,0:1:0:0:
328,176,174144,5,2,1:2:0:0:
352,324,174444,1,4,3:0:0:0:
448,204,174744,2,2,P|393:153|328:176,1,151.199995385743,10|0,1:0|3:0,0:1:0:0:
328,252,175194,2,2,P|256:324|184:252,1,226.799993078614,2|0,3:0|3:0,0:1:0:0:
116,116,175944,5,8,1:0:0:0:
256,60,176244,1,0,0:0:0:0:
396,116,176544,1,2,1:2:0:0:
452,164,176694,2,0,P|444:240|376:276,1,151.199995385743,2|0,3:0|3:0,3:0:0:0:
326,227,177144,2,0,B|288:195|256:227|224:258|185:227,1,151.199995385743,10|0,1:0|3:0,3:0:0:0:
255,47,177744,6,0,P|94:65|48:184,2,302.399990771486,4|8|2,1:0|1:0|1:2,0:0:0:0:
330,49,179094,2,0,L|474:125,1,151.199995385743,0|0,3:0|3:0,0:0:0:0:
428,184,179544,2,0,L|294:113,1,151.199995385743,8|2,1:0|3:0,0:0:0:0:
360,252,180144,6,0,P|256:344|152:252,2,302.399990771486,4|8|2,3:0|1:0|1:2,0:0:0:0:
424,212,181494,1,2,3:0:0:0:
484,168,181644,1,4,3:0:0:0:
384,56,181944,1,8,1:0:0:0:
329,107,182094,2,2,B|304:117|269:121|272:92|237:92|240:121|205:117|180:107,1,151.199995385743,2|0,0:3|3:0,0:1:0:0:
128,56,182544,5,4,3:0:0:0:
28,168,182844,1,0,3:0:0:0:
112,292,183144,1,8,1:0:0:0:
183,277,183294,2,2,B|207:266|242:262|239:291|274:291|271:262|306:266|331:277,1,151.199995385743,2|0,3:0|3:0,0:1:0:0:
400,292,183744,1,2,1:2:0:0:
448,148,184044,1,4,3:0:0:0:
332,52,184344,2,2,L|180:52,1,151.199995385743,10|0,1:0|3:0,0:1:0:0:
152,124,184794,2,2,B|176:156|240:136|256:120|256:120|272:136|336:156|360:124,1,226.799993078614,2|0,3:0|3:0,0:1:0:0:
388,272,185544,5,8,1:0:0:0:
256,200,185844,1,0,0:0:0:0:
124,124,186144,1,2,1:2:0:0:
60,164,186294,2,0,P|68:240|136:276,1,151.199995385743,2|0,3:0|3:0,3:0:0:0:
186,227,186744,2,0,B|224:195|256:227|288:258|327:227,1,151.199995385743,10|0,1:0|3:0,3:0:0:0:
257,47,187344,6,0,P|418:65|464:184,2,302.399990771486,4|8|2,1:0|1:0|1:2,0:0:0:0:
182,49,188694,2,0,L|38:125,1,151.199995385743,0|0,3:0|0:0,0:0:0:0:
84,184,189144,2,0,L|217:113,1,151.199995385743,8|2,1:0|3:0,0:0:0:0:
152,252,189744,6,0,P|256:344|360:252,2,302.399990771486,4|8|2,3:0|1:0|1:2,0:0:0:0:
88,212,191094,1,2,3:0:0:0:
28,168,191244,1,4,3:0:0:0:
128,52,191544,1,8,1:0:0:0:
128,52,191694,2,2,B|272:104,1,151.199995385743,2|0,0:3|3:0,0:1:0:0:
344,124,192144,5,4,3:0:0:0:
484,168,192444,1,0,3:0:0:0:
388,48,192744,1,8,1:0:0:0:
388,48,192894,2,2,B|244:100,1,151.199995385743,2|8,3:0|0:1,0:1:0:0:
168,124,193344,1,2,1:2:0:0:
24,172,193644,1,4,0:3:0:0:
56,320,193944,2,2,P|124:348|192:320,1,151.199995385743,8|2,1:0|0:0,0:1:0:0:
148,256,194394,2,2,B|208:224|256:244|256:268|304:288|364:256,1,226.799993078614,2|0,3:0|3:0,0:1:0:0:
464,140,195144,5,10,1:2:0:0:
328,72,195444,1,0,3:0:0:0:
256,96,195594,1,2,0:0:0:0:
184,120,195744,1,2,1:2:0:0:
48,52,196044,1,4,3:0:0:0:
256,96,196494,1,2,3:0:0:0:
464,140,196944,5,4,0:0:0:0:
404,280,197244,1,0,3:0:0:0:
316,156,197544,1,8,1:0:0:0:
256,296,197844,1,0,3:0:0:0:
196,156,198144,1,2,1:2:0:0:
108,280,198444,1,4,3:0:0:0:
48,140,198744,6,2,P|72:80|168:40,1,151.199995385743,10|0,1:0|3:0,0:1:0:0:
148,116,199194,2,2,B|208:148|256:128|256:104|304:84|364:116,1,226.799993078614,8|0,0:1|3:0,0:1:0:0:
456,236,199944,1,8,1:0:0:0:
328,320,200244,1,0,3:0:0:0:
256,292,200394,1,8,0:1:0:0:
184,320,200544,1,2,1:2:0:0:
56,236,200844,1,4,3:0:0:0:
108,96,201144,5,8,1:0:0:0:
152,160,201294,2,2,P|228:164|260:104,1,151.199995385743,2|8,0:3|0:1,0:1:0:0:
228,36,201744,1,2,1:2:0:0:
336,140,202044,1,4,3:0:0:0:
444,248,202344,1,8,1:0:0:0:
400,312,202494,2,2,P|324:316|292:256,1,151.199995385743,2|8,0:3|0:1,0:1:0:0:
324,188,202944,1,2,1:2:0:0:
220,300,203244,1,4,3:0:0:0:
76,256,203544,6,2,P|40:192|76:128,1,151.199995385743,10|0,1:0|3:0,0:1:0:0:
144,96,203994,2,2,B|188:76|228:120|256:100|284:120|324:76|368:96,1,226.799993078614,8|0,0:1|3:0,0:1:0:0:
448,224,204744,5,8,1:0:0:0:
320,304,205044,1,0,3:0:0:0:
256,268,205194,1,8,0:1:0:0:
192,232,205344,1,2,1:2:0:0:
60,308,205644,1,4,3:0:0:0:
48,140,205944,1,8,1:0:0:0:
4,80,206094,2,2,P|76:72|124:128,1,151.199995385743,2|8,0:3|0:1,0:1:0:0:
48,140,206544,5,4,0:0:0:0:
108,280,206844,1,0,3:0:0:0:
196,156,207144,1,8,1:0:0:0:
256,296,207444,1,0,3:0:0:0:
316,156,207744,1,2,1:2:0:0:
404,280,208044,1,4,3:0:0:0:
464,140,208344,6,2,P|440:80|344:40,1,151.199995385743,10|0,1:0|3:0,0:1:0:0:
364,116,208794,2,2,B|304:148|256:128|256:104|208:84|148:116,1,226.799993078614,8|0,0:1|3:0,0:1:0:0:
56,236,209544,1,8,1:0:0:0:
184,320,209844,1,0,3:0:0:0:
256,292,209994,1,8,0:1:0:0:
328,320,210144,1,2,1:2:0:0:
456,236,210444,1,4,3:0:0:0:
404,96,210744,5,8,1:0:0:0:
360,160,210894,2,2,P|284:164|252:104,1,151.199995385743,2|8,0:3|0:1,0:1:0:0:
284,36,211344,1,2,1:2:0:0:
176,140,211644,1,4,3:0:0:0:
68,248,211944,1,8,1:0:0:0:
112,312,212094,2,2,P|188:316|220:256,1,151.199995385743,2|8,0:3|0:1,0:1:0:0:
188,188,212544,1,2,1:2:0:0:
292,300,212844,1,4,3:0:0:0:
436,256,213144,2,2,P|472:192|436:128,1,151.199995385743,10|0,1:0|3:0,0:1:0:0:
384,56,213594,1,0,3:0:0:0:
332,124,213764,5,2,1:2:0:0:
180,124,214064,1,0,3:0:0:0:
120,264,214364,1,0,3:0:0:0:
120,264,214664,1,0,3:2:0:0:
256,196,214964,5,2,1:2:0:0:
260,356,215264,1,0,3:0:0:0:
260,356,215564,1,0,3:0:0:0:
260,356,215864,1,0,3:2:0:0:
392,264,216164,5,2,0:0:0:0:
