osu file format v14

[General]
AudioFilename: audio.mp3
AudioLeadIn: 0
PreviewTime: 100344
Countdown: 1
SampleSet: Normal
StackLeniency: 0.3
Mode: 0
LetterboxInBreaks: 0
WidescreenStoryboard: 1

[Editor]
DistanceSpacing: 1
BeatDivisor: 4
GridSize: 4
TimelineZoom: 1.5

[Metadata]
Title:Warm Blood
TitleUnicode:Warm Blood
Artist:Meg & Dia
ArtistUnicode:Meg & Dia
Creator:Krisom
Version:Flowing
Source:
Tags:happysad English Pop StarCastler and
BeatmapID:3173892
BeatmapSetID:1553475

[Difficulty]
HPDrainRate:6
CircleSize:4
OverallDifficulty:8
ApproachRate:8.5
SliderMultiplier:3
SliderTickRate:2

[Events]
//Background and Video events
0,0,"goddesses.jpg",0,0
//Break Periods
2,28944,33069
2,72344,76269
//Storyboard Layer 0 (Background)
//Storyboard Layer 1 (Fail)
//Storyboard Layer 2 (Pass)
//Storyboard Layer 3 (Foreground)
//Storyboard Layer 4 (Overlay)
//Storyboard Sound Samples

[TimingPoints]
144,600,4,1,3,65,1,0
33744,-86.9565217391304,4,1,3,80,0,1
72144,-100,4,1,3,65,0,0
100944,-86.9565217391304,4,1,3,80,0,1
107994,-68.9655172413793,4,1,3,80,0,1
108444,-86.9565217391304,4,1,3,80,0,1
112794,-68.9655172413793,4,1,3,65,0,1
113244,-86.9565217391304,4,1,3,80,0,1
139344,-86.9565217391304,4,1,3,65,0,0
156144,-86.9565217391304,4,1,3,40,0,0
159144,-86.9565217391304,4,1,3,80,0,1
213764,600,4,1,3,65,1,0

[Colours]
Combo1 : 250,165,50
Combo2 : 84,250,80
Combo3 : 85,71,250
Combo4 : 243,44,73

[HitObjects]
92,32,9744,5,4,0:0:0:0:
92,32,10344,1,8,0:0:0:0:
156,80,10494,2,0,P|156:144|92:192,1,150,2|0,0:2|2:0,0:0:0:0:
12,196,10944,2,0,P|45:259|116:267,1,150,8|0,2:0|2:0,0:0:0:0:
184,224,11394,2,0,B|220:204|256:220|256:228|292:244|328:224,1,150,8|2,0:0|0:2,0:0:0:0:
292,156,11844,1,0,0:0:0:0:
216,296,12144,5,4,0:0:0:0:
216,296,12744,1,8,0:0:0:0:
296,296,12894,2,0,B|348:296|348:296|408:296|426:248,1,150,2|0,0:2|2:0,0:0:0:0:
352,220,13344,2,0,B|300:220|300:220|240:220|222:172,1,150,8|0,2:0|2:0,0:0:0:0:
192,100,13794,2,0,P|256:65|320:100,1,150,8|2,0:0|0:2,0:0:0:0:
380,148,14244,1,0,0:0:0:0:
132,148,14544,5,4,0:0:0:0:
52,284,14844,1,0,2:0:0:0:
212,284,15144,1,8,0:0:0:0:
76,204,15444,1,2,2:0:0:0:
56,128,15594,1,0,2:0:0:0:
36,52,15744,2,0,B|72:16|144:16|92:88|176:92|124:-36|228:-36|176:92|260:88|208:16|280:16|316:52,1,300,2|8,0:0|0:0,0:0:0:0:
380,148,16644,1,0,0:0:0:0:
380,148,16944,5,4,0:0:0:0:
460,284,17244,1,0,2:0:0:0:
300,284,17544,1,8,0:0:0:0:
436,204,17844,1,2,2:0:0:0:
456,128,17994,1,0,2:0:0:0:
476,52,18144,2,0,B|440:16|368:16|420:88|336:92|388:-36|284:-36|336:92|252:88|304:16|232:16|196:52,1,300,2|8,0:0|0:0,0:0:0:0:
144,112,18894,1,8,0:2:0:0:
420,32,19344,5,4,0:0:0:0:
420,32,19944,1,8,0:0:0:0:
356,80,20094,2,0,P|356:144|420:192,1,150,2|0,0:2|2:0,0:0:0:0:
500,196,20544,2,0,P|467:259|396:267,1,150,8|0,2:0|2:0,0:0:0:0:
328,224,20994,2,0,B|292:204|256:220|256:228|220:244|184:224,1,150,8|2,0:0|0:2,0:0:0:0:
220,156,21444,1,0,0:0:0:0:
296,296,21744,5,4,0:0:0:0:
296,296,22344,1,8,0:0:0:0:
216,296,22494,2,0,B|164:296|164:296|104:296|86:248,1,150,2|0,0:2|2:0,0:0:0:0:
160,220,22944,2,0,B|212:220|212:220|272:220|290:172,1,150,8|0,2:0|2:0,0:0:0:0:
320,100,23394,2,0,P|256:65|192:100,1,150,8|2,0:0|0:2,0:0:0:0:
132,148,23844,1,0,0:0:0:0:
256,248,24144,5,4,0:0:0:0:
372,140,24444,1,0,2:0:0:0:
488,248,24744,1,8,0:0:0:0:
380,340,25044,1,2,2:0:0:0:
388,260,25194,1,0,2:0:0:0:
396,180,25344,2,0,B|360:216|288:216|340:144|256:176|172:144|224:216|152:216|116:180,1,300,2|8,0:0|0:0,0:0:0:0:
256,248,26244,1,0,0:0:0:0:
256,248,26544,5,4,0:0:0:0:
140,140,26844,1,0,2:0:0:0:
24,248,27144,1,8,0:0:0:0:
132,340,27444,1,2,2:0:0:0:
124,260,27594,1,0,2:0:0:0:
116,180,27744,2,0,B|152:216|224:216|172:144|256:176|340:144|288:216|360:216|396:180,1,300,2|8,0:0|0:0,0:0:0:0:
448,120,28494,1,8,0:2:0:0:
88,88,33744,6,0,P|23:192|88:296,1,258.750004935265,4|2,0:0|2:2,0:0:0:0:
176,268,34344,2,0,B|220:232|256:268|292:304|336:268,1,172.500003290176,8|2,0:0|0:2,0:0:0:0:
400,200,34794,1,8,2:1:0:0:
380,112,34944,1,2,0:0:0:0:
304,64,35094,1,8,2:2:0:0:
208,64,35244,1,0,0:0:0:0:
176,244,35544,2,0,P|256:272|336:244,1,172.500003290176,8|0,0:0|2:0,0:0:0:0:
380,324,35994,2,0,P|256:356|132:324,1,258.750004935265,8|8,2:1|0:2,0:0:0:0:
256,24,36744,5,12,0:0:0:0:
420,96,37044,1,0,2:0:0:0:
488,156,37194,1,2,2:1:0:0:
464,244,37344,1,8,0:0:0:0:
376,244,37494,1,8,2:2:0:0:
352,156,37644,1,0,0:0:0:0:
420,324,37944,1,8,0:0:0:0:
328,324,38094,2,0,L|144:324,1,172.500003290176,2|0,0:0|2:0,0:0:0:0:
108,248,38544,5,4,0:0:0:0:
200,248,38694,1,0,2:0:0:0:
292,248,38844,1,0,0:0:0:0:
92,60,39144,1,8,0:0:0:0:
184,60,39294,2,0,L|368:60,1,172.500003290176,2|0,0:0|2:0,0:0:0:0:
404,136,39744,1,4,0:0:0:0:
312,136,39894,1,0,2:0:0:0:
220,136,40044,1,0,0:0:0:0:
64,236,40344,2,0,P|105:308|188:318,1,172.500003290176,8|0,0:0|2:0,0:0:0:0:
156,232,40794,2,0,B|184:172|248:188|264:216|248:248|264:276|328:292|356:232,1,258.750004935265,8|8,0:0|2:0,0:0:0:0:
256,24,41544,5,12,0:0:0:0:
92,96,41844,1,0,2:0:0:0:
24,156,41994,1,2,2:1:0:0:
48,244,42144,1,8,0:0:0:0:
136,244,42294,1,8,2:2:0:0:
160,156,42444,1,0,0:0:0:0:
92,324,42744,1,8,0:0:0:0:
184,324,42894,2,0,L|368:324,1,172.500003290176,2|0,0:0|2:0,0:0:0:0:
404,248,43344,5,4,0:0:0:0:
312,248,43494,1,0,2:0:0:0:
220,248,43644,1,0,0:0:0:0:
415,60,43944,2,0,L|139:60,1,258.750004935265,8|0,0:0|2:0,0:0:0:0:
108,136,44544,1,4,0:0:0:0:
200,136,44694,1,0,2:0:0:0:
292,136,44844,1,0,0:0:0:0:
448,236,45144,2,0,P|407:308|324:318,1,172.500003290176,8|0,0:0|2:0,0:0:0:0:
356,232,45594,2,0,P|256:163|156:232,1,258.750004935265,8|8,0:0|2:0,0:0:0:0:
336,24,46344,5,12,0:0:0:0:
176,24,46644,1,0,2:0:0:0:
132,104,46794,1,2,2:1:0:0:
88,24,46944,1,8,0:0:0:0:
44,104,47094,1,8,2:2:0:0:
0,24,47244,1,0,0:0:0:0:
92,180,47544,1,8,0:0:0:0:
182,180,47694,2,0,P|145:255|64:276,1,172.500003290176,2|0,0:0|2:0,0:0:0:0:
64,366,48144,5,4,0:0:0:0:
154,366,48294,1,0,2:0:0:0:
244,366,48444,1,0,0:0:0:0:
420,180,48744,1,8,0:0:0:0:
330,180,48894,2,0,P|375:260|448:276,1,172.500003290176,2|0,0:0|2:0,0:0:0:0:
448,366,49344,1,4,0:0:0:0:
358,366,49494,1,0,2:0:0:0:
268,366,49644,1,0,0:0:0:0:
180,208,49944,2,0,P|256:172|332:208,1,172.500003290176,8|0,0:0|2:0,0:0:0:0:
372,288,50394,2,0,P|256:337|140:288,1,258.750004935265,8|8,0:0|2:0,0:0:0:0:
176,24,51144,5,12,0:0:0:0:
336,24,51444,1,0,2:0:0:0:
380,104,51594,1,2,2:1:0:0:
420,180,51744,1,8,0:0:0:0:
460,256,51894,2,0,L|280:256,1,172.500003290176,8|0,0:2|2:0,0:0:0:0:
332,336,52344,2,0,L|152:336,1,172.500003290176,12|0,0:3|0:0,0:0:0:0:
255,47,52944,6,0,P|94:65|55:222,2,345.000006580353,4|8|4,0:0|0:0|0:3,0:0:0:0:
336,92,54294,2,0,L|488:184,1,172.500003290176,8|0,0:2|2:0,0:0:0:0:
483,272,54744,2,0,L|331:180,1,172.500003290176,12|0,0:3|0:0,0:0:0:0:
255,336,55344,6,0,P|94:318|55:161,2,345.000006580353,4|8|4,0:0|0:0|0:3,0:0:0:0:
336,296,56694,1,8,0:2:0:0:
416,252,56844,1,0,2:0:0:0:
432,72,57144,1,8,0:0:0:0:
340,72,57294,2,8,B|312:84|272:88|276:56|236:56|240:88|200:84|172:72,1,172.500003290176,2|8,2:0|0:0,0:0:0:0:
112,0,57744,5,4,0:0:0:0:
72,80,57894,1,0,2:0:0:0:
36,164,58044,1,0,0:0:0:0:
80,312,58344,1,8,0:0:0:0:
172,312,58494,2,8,B|200:300|240:296|236:328|276:328|272:296|312:300|340:312,1,172.500003290176,2|8,2:0|0:0,0:0:0:0:
400,384,58944,1,4,0:0:0:0:
440,304,59094,1,0,2:0:0:0:
476,220,59244,1,0,0:0:0:0:
344,96,59544,2,0,L|172:96,1,172.500003290176,8|0,0:0|2:0,0:0:0:0:
132,176,59994,2,0,B|184:212|240:200|232:160|280:160|272:200|328:212|380:176,1,258.750004935265,8|8,0:0|2:0,0:0:0:0:
336,24,60744,5,12,0:0:0:0:
176,24,61044,1,0,2:0:0:0:
132,104,61194,1,2,2:1:0:0:
92,180,61344,1,8,0:0:0:0:
52,256,61494,2,0,L|232:256,1,172.500003290176,8|0,0:2|2:0,0:0:0:0:
180,336,61944,2,0,L|360:336,1,172.500003290176,12|0,0:3|0:0,0:0:0:0:
256,47,62544,6,0,P|417:65|456:222,2,345.000006580353,4|8|4,0:0|0:0|0:3,0:0:0:0:
176,92,63894,2,0,L|24:184,1,172.500003290176,8|0,0:2|2:0,0:0:0:0:
29,272,64344,2,0,L|181:180,1,172.500003290176,12|0,0:3|0:0,0:0:0:0:
256,336,64944,6,0,P|417:318|456:161,2,345.000006580353,4|8|4,0:0|0:0|0:3,0:0:0:0:
176,296,66294,1,8,0:2:0:0:
96,252,66444,1,0,2:0:0:0:
96,70,66744,1,8,0:0:0:0:
180,36,66894,2,8,B|192:64|196:104|164:100|164:140|196:136|192:176|180:204,1,172.500003290176,2|8,2:0|0:0,0:0:0:0:
96,172,67344,5,4,0:0:0:0:
20,124,67494,1,0,2:0:0:0:
96,70,67644,1,0,0:0:0:0:
416,70,67944,1,8,0:0:0:0:
332,36,68094,2,8,B|320:64|316:104|348:100|348:140|316:136|320:176|332:204,1,172.500003290176,2|8,2:0|0:0,0:0:0:0:
416,172,68544,1,4,0:0:0:0:
492,124,68694,1,0,2:0:0:0:
416,70,68844,1,0,0:0:0:0:
168,312,69144,2,0,L|340:312,1,172.500003290176,8|0,0:0|2:0,0:0:0:0:
368,224,69594,2,0,P|256:168|144:224,1,258.750004935265,8|8,0:0|2:0,0:0:0:0:
256,24,70344,5,12,0:0:0:0:
392,144,70644,1,0,2:0:0:0:
324,84,70794,1,2,2:1:0:0:
256,140,70944,1,8,0:0:0:0:
188,84,71094,1,8,2:2:0:0:
120,144,71244,1,4,0:3:0:0:
260,376,71694,1,4,0:3:0:0:
392,144,72144,1,2,0:2:0:0:
36,352,76944,5,4,0:0:0:0:
36,352,77544,1,8,0:0:0:0:
116,352,77694,2,0,L|272:352,1,150,2|0,0:2|2:0,0:0:0:0:
344,352,78144,2,0,P|311:289|232:276,1,150,8|0,2:0|2:0,0:0:0:0:
160,276,78594,2,0,B|104:276|104:276|52:276|28:228,1,150,8|2,0:0|0:2,0:0:0:0:
96,192,79044,1,0,0:0:0:0:
416,192,79344,5,4,0:0:0:0:
416,192,79944,1,8,0:0:0:0:
400,268,80094,2,0,B|352:292|340:248|316:248|304:292|256:268,1,150,2|0,0:2|2:0,0:0:0:0:
192,224,80544,2,0,B|216:184|256:192|296:200|320:160,1,150,8|0,2:0|2:0,0:0:0:0:
257,117,80994,2,0,B|209:93|197:137|173:137|161:93|113:117,1,150,8|2,0:0|0:2,0:0:0:0:
105,197,81444,1,0,0:0:0:0:
185,49,81744,5,4,0:0:0:0:
268,196,82044,1,0,2:0:0:0:
339,47,82344,1,8,0:0:0:0:
412,196,82644,1,2,2:0:0:0:
460,256,82794,1,0,2:0:0:0:
508,316,82944,2,0,B|472:352|400:352|452:280|368:312|284:280|336:352|264:352|228:316,1,300,2|8,0:0|0:0,0:0:0:0:
368,384,83844,1,0,0:0:0:0:
276,256,84144,5,4,0:0:0:0:
118,256,84444,1,0,2:0:0:0:
36,120,84744,1,8,0:0:0:0:
192,120,85044,1,2,2:0:0:0:
272,120,85194,1,0,2:0:0:0:
352,120,85344,2,0,P|304:16|144:56,1,300,2|8,0:0|0:0,0:0:0:0:
116,124,86094,1,8,0:2:0:0:
476,352,86544,5,4,0:0:0:0:
476,352,87144,1,8,0:0:0:0:
396,352,87294,2,0,L|240:352,1,150,2|0,0:2|2:0,0:0:0:0:
168,352,87744,2,0,P|201:289|280:276,1,150,8|0,2:0|2:0,0:0:0:0:
352,276,88194,2,0,B|408:276|408:276|460:276|484:228,1,150,8|2,0:0|0:2,0:0:0:0:
416,192,88644,1,0,0:0:0:0:
96,192,88944,5,4,0:0:0:0:
96,192,89544,1,8,0:0:0:0:
112,268,89694,2,0,B|160:292|172:248|196:248|208:292|256:268,1,150,2|0,0:2|2:0,0:0:0:0:
320,224,90144,2,0,B|296:184|256:192|216:200|192:160,1,150,8|0,2:0|2:0,0:0:0:0:
255,117,90594,2,0,B|303:93|315:137|339:137|351:93|399:117,1,150,8|2,0:0|0:2,0:0:0:0:
407,197,91044,1,0,0:0:0:0:
327,49,91344,5,4,0:0:0:0:
244,196,91644,1,0,2:0:0:0:
173,47,91944,1,8,0:0:0:0:
100,196,92244,1,2,2:0:0:0:
52,256,92394,1,0,2:0:0:0:
4,316,92544,2,0,B|40:352|112:352|60:280|144:312|228:280|176:352|248:352|284:316,1,300,2|8,0:0|0:0,0:0:0:0:
144,384,93444,1,0,0:0:0:0:
236,256,93744,5,4,0:0:0:0:
394,256,94044,1,0,2:0:0:0:
476,120,94344,1,8,0:0:0:0:
320,120,94644,1,2,2:0:0:0:
240,120,94794,1,0,2:0:0:0:
160,120,94944,2,0,P|208:16|368:56,1,300,2|8,0:0|0:0,0:0:0:0:
396,124,95694,1,8,0:2:0:0:
256,192,96144,12,4,100344,0:0:0:0:
424,88,100944,6,0,P|489:192|424:296,1,258.750004935265,4|2,0:0|2:2,0:0:0:0:
336,268,101544,2,0,B|292:232|256:268|220:304|176:268,1,172.500003290176,8|2,0:0|0:2,0:0:0:0:
112,200,101994,1,8,2:1:0:0:
132,112,102144,1,2,0:0:0:0:
208,64,102294,1,8,2:2:0:0:
304,64,102444,1,0,0:0:0:0:
336,244,102744,2,0,P|256:272|176:244,1,172.500003290176,8|0,0:0|2:0,0:0:0:0:
132,324,103194,2,0,P|256:356|380:324,1,258.750004935265,8|8,2:1|0:2,0:0:0:0:
256,24,103944,5,12,0:0:0:0:
64,112,104244,1,0,2:0:0:0:
155,112,104394,1,2,2:1:0:0:
200,192,104544,1,8,0:0:0:0:
109,192,104694,1,8,2:2:0:0:
18,192,104844,1,0,0:0:0:0:
108,36,105144,1,8,0:0:0:0:
200,36,105294,2,0,B|233:36|233:36|267:36|301:69|301:103|301:103|301:137,1,172.500003290176,2|0,0:0|2:0,0:0:0:0:
256,216,105744,5,4,0:0:0:0:
212,296,105894,1,0,2:0:0:0:
300,296,106044,1,0,0:0:0:0:
404,36,106344,1,8,0:0:0:0:
312,36,106494,2,0,B|278:36|278:36|244:36|210:69|210:103|210:103|210:137,1,172.500003290176,2|0,0:0|2:0,0:0:0:0:
256,216,106944,1,4,0:0:0:0:
300,296,107094,1,0,2:0:0:0:
212,296,107244,1,0,0:0:0:0:
32,296,107544,2,0,B|32:262|32:262|32:228|65:194|99:194|99:194|133:194,1,172.500003290176,8|0,0:0|2:0,0:0:0:0:
223,194,107994,2,0,B|407:194|407:194|446:194|480:228|480:260|480:260|480:301,1,326.25000995636,8|8,0:0|2:0,0:0:0:0:
256,24,108744,5,12,0:0:0:0:
448,112,109044,1,0,2:0:0:0:
357,112,109194,1,2,2:1:0:0:
312,192,109344,1,8,0:0:0:0:
403,192,109494,1,8,2:2:0:0:
494,192,109644,1,0,0:0:0:0:
404,36,109944,1,8,0:0:0:0:
312,36,110094,2,0,B|278:36|278:36|244:36|210:69|210:103|210:103|210:137,1,172.500003290176,2|0,0:0|2:0,0:0:0:0:
256,216,110544,5,4,0:0:0:0:
300,296,110694,1,0,2:0:0:0:
212,296,110844,1,0,0:0:0:0:
108,36,111144,2,0,B|233:36|233:36|267:36|301:69|301:103|301:103|301:137,1,258.750004935265,10|0,0:0|2:0,0:0:0:0:
256,216,111744,1,4,0:0:0:0:
212,296,111894,1,0,2:0:0:0:
300,296,112044,1,0,0:0:0:0:
480,296,112344,2,0,B|480:262|480:262|480:228|446:194|412:194|412:194|378:194,1,172.500003290176,8|0,0:0|2:0,0:0:0:0:
289,194,112794,2,0,B|104:194|104:194|66:194|32:228|32:260|32:260|32:301,1,326.25000995636,8|8,0:0|2:0,0:0:0:0:
176,24,113544,5,12,0:0:0:0:
336,24,113844,1,0,2:0:0:0:
380,104,113994,1,2,2:1:0:0:
424,24,114144,1,8,0:0:0:0:
468,104,114294,1,8,2:2:0:0:
512,24,114444,1,0,0:0:0:0:
420,180,114744,1,8,0:0:0:0:
340,224,114894,2,0,B|308:244|300:212|264:212|268:256|244:256|248:212|212:212|204:244|172:224,1,172.500003290176,2|0,0:0|2:0,0:0:0:0:
172,316,115344,5,4,0:0:0:0:
256,352,115494,1,0,2:0:0:0:
340,316,115644,1,0,0:0:0:0:
92,204,115944,1,8,0:0:0:0:
172,160,116094,2,0,B|204:140|212:172|248:172|244:128|268:128|264:172|300:172|308:140|340:160,1,172.500003290176,2|0,0:0|2:0,0:0:0:0:
340,68,116544,1,4,0:0:0:0:
256,32,116694,1,0,2:0:0:0:
172,68,116844,1,0,0:0:0:0:
180,248,117144,2,0,P|256:284|332:248,1,172.500003290176,8|0,0:0|2:0,0:0:0:0:
372,332,117594,2,0,P|256:381|140:332,1,258.750004935265,8|8,0:0|2:0,0:0:0:0:
256,24,118344,5,12,0:0:0:0:
96,104,118644,1,0,2:0:0:0:
84,192,118794,1,2,2:1:0:0:
72,280,118944,1,8,0:0:0:0:
52,368,119094,2,0,L|232:368,1,172.500003290176,8|0,0:2|2:0,0:0:0:0:
244,280,119544,2,0,L|64:280,1,172.500003290176,12|0,0:3|0:0,0:0:0:0:
256,36,120144,6,0,B|336:36|336:36|400:36|456:92|456:148|456:148|456:240,2,345.000006580353,4|8|4,0:0|0:0|0:3,0:0:0:0:
164,36,121494,2,0,L|164:228,1,172.500003290176,8|0,0:2|2:0,0:0:0:0:
76,188,121944,2,0,L|76:364,1,172.500003290176,12|0,0:3|0:0,0:0:0:0:
256,348,122544,6,0,B|336:348|336:348|400:348|456:292|456:236|456:236|456:144,2,345.000006580353,4|8|4,0:0|0:0|0:3,0:0:0:0:
164,348,123894,1,8,0:2:0:0:
73,348,124044,1,0,2:0:0:0:
32,172,124344,1,8,0:0:0:0:
51,84,124494,2,8,P|109:23|192:40,1,172.500003290176,2|8,2:0|0:0,0:0:0:0:
140,116,124944,5,4,0:0:0:0:
232,116,125094,1,0,2:0:0:0:
280,40,125244,1,0,0:0:0:0:
480,212,125544,1,8,0:0:0:0:
460,299,125694,2,8,P|402:360|320:344,1,172.500003290176,2|8,2:0|0:0,0:0:0:0:
231,346,126144,1,4,0:0:0:0:
280,268,126294,1,0,2:0:0:0:
372,268,126444,1,0,0:0:0:0:
340,88,126744,2,0,B|280:64|256:88|232:112|172:88,1,172.500003290176,8|0,0:0|2:0,0:0:0:0:
96,39,127194,2,0,P|53:150|158:207,1,258.750004935265,8|8,0:0|2:0,0:0:0:0:
256,24,127944,5,12,0:0:0:0:
416,104,128244,1,0,2:0:0:0:
428,192,128394,1,2,2:1:0:0:
440,280,128544,1,8,0:0:0:0:
460,368,128694,2,0,L|280:368,1,172.500003290176,8|0,0:2|2:0,0:0:0:0:
268,280,129144,2,0,L|448:280,1,172.500003290176,12|0,0:3|0:0,0:0:0:0:
256,36,129744,6,0,B|176:36|176:36|112:36|56:92|56:148|56:148|56:240,2,345.000006580353,4|8|4,0:0|0:0|0:3,0:0:0:0:
348,36,131094,2,0,L|348:228,1,172.500003290176,8|0,0:2|2:0,0:0:0:0:
436,188,131544,2,0,L|436:364,1,172.500003290176,12|0,0:3|0:0,0:0:0:0:
256,348,132144,6,0,B|176:348|176:348|112:348|56:292|56:236|56:236|56:144,2,345.000006580353,4|8|4,0:0|0:0|0:3,0:0:0:0:
348,348,133494,1,8,0:2:0:0:
439,348,133644,1,0,2:0:0:0:
480,172,133944,1,8,0:0:0:0:
460,84,134094,2,8,P|402:23|320:40,1,172.500003290176,2|8,2:0|0:0,0:0:0:0:
372,116,134544,5,4,0:0:0:0:
280,116,134694,1,0,2:0:0:0:
232,40,134844,1,0,0:0:0:0:
32,212,135144,1,8,0:0:0:0:
51,299,135294,2,8,P|109:360|192:344,1,172.500003290176,2|8,2:0|0:0,0:0:0:0:
281,346,135744,1,4,0:0:0:0:
232,268,135894,1,0,2:0:0:0:
140,268,136044,1,0,0:0:0:0:
172,88,136344,2,0,B|232:64|256:88|280:112|340:88,1,172.500003290176,8|0,0:0|2:0,0:0:0:0:
415,39,136794,2,0,P|458:150|353:207,1,258.750004935265,8|8,0:0|2:0,0:0:0:0:
256,24,137544,5,12,0:0:0:0:
120,144,137844,1,0,2:0:0:0:
188,84,137994,1,2,2:1:0:0:
256,140,138144,1,8,0:0:0:0:
324,84,138294,1,8,2:2:0:0:
392,144,138444,1,4,0:3:0:0:
252,376,138894,1,4,0:3:0:0:
120,144,139344,5,4,2:3:0:0:
256,248,139644,1,0,0:0:0:0:
392,144,139944,1,8,0:0:0:0:
392,56,140094,1,2,0:0:0:0:
260,164,140394,1,2,0:0:0:0:
120,56,140694,1,2,0:0:0:0:
72,128,140844,1,8,0:0:0:0:
36,208,140994,2,0,P|60:291|140:308,1,172.500003290176,8|2,2:0|0:0,0:0:0:0:
96,52,141744,6,0,B|152:8|212:8|220:92|256:68|292:92|300:8|360:8|416:52,1,345.000006580353,6|8,0:0|0:0,0:0:0:0:
348,212,142644,1,0,2:0:0:0:
256,212,142794,1,0,0:0:0:0:
166,212,142944,1,8,2:1:0:0:
212,132,143094,1,0,2:0:0:0:
300,132,143244,1,4,0:3:0:0:
120,132,143544,1,8,0:0:0:0:
256,236,143844,1,8,0:2:0:0:
392,132,144144,5,4,0:0:0:0:
120,132,144594,1,0,0:0:0:0:
28,132,144744,1,8,0:0:0:0:
72,212,144894,1,2,0:2:0:0:
140,372,145194,2,0,B|320:372,1,172.500003290176,2|0,0:0|2:0,0:0:0:0:
360,300,145644,2,0,L|184:300,1,172.500003290176,8|8,2:0|0:0,0:0:0:0:
104,272,146094,2,0,B|119:214|175:214|175:214|247:214,1,172.500003290176,2|8,2:0|0:0,0:0:0:0:
304,152,146544,5,4,0:0:0:0:
392,176,146694,1,2,2:0:0:0:
480,152,146844,1,0,0:0:0:0:
392,4,147144,1,8,0:0:0:0:
392,176,147444,1,0,2:0:0:0:
208,152,147744,1,4,0:3:0:0:
120,176,147894,1,2,2:0:0:0:
32,152,148044,1,0,0:0:0:0:
120,4,148344,1,8,0:0:0:0:
120,176,148644,1,0,2:0:0:0:
56,372,148944,5,4,0:0:0:0:
56,372,149394,1,0,0:0:0:0:
146,372,149544,1,8,0:0:0:0:
188,292,149694,2,0,L|16:292,2,172.500003290176,2|0|2,0:2|0:0|0:2,0:0:0:0:
16,220,150594,2,0,L|204:220,1,172.500003290176,2|0,0:0|0:0,0:0:0:0:
279,220,151044,1,2,0:0:0:0:
416,104,151344,6,0,B|360:60|300:60|292:144|256:120|220:144|212:60|152:60|96:104,1,345.000006580353,6|8,0:0|0:0,0:0:0:0:
164,272,152244,1,0,2:0:0:0:
256,272,152394,1,0,0:0:0:0:
346,272,152544,1,8,2:1:0:0:
300,192,152694,1,0,2:0:0:0:
212,192,152844,1,4,0:3:0:0:
392,192,153144,1,8,0:0:0:0:
256,72,153444,1,8,0:2:0:0:
120,192,153744,5,4,0:0:0:0:
392,192,154194,1,0,0:0:0:0:
484,192,154344,1,8,0:0:0:0:
440,272,154494,1,2,0:2:0:0:
436,92,154794,2,0,B|364:92|364:92|308:92|292:152,1,172.500003290176,2|0,0:0|2:0,0:0:0:0:
328,232,155244,2,0,P|256:272|184:232,1,172.500003290176,8|8,2:0|0:0,0:0:0:0:
219,150,155694,2,0,B|204:92|148:92|148:92|76:92,1,172.500003290176,2|8,2:0|0:0,0:0:0:0:
36,200,156144,5,2,2:0:0:0:
84,328,156444,1,0,2:0:0:0:
216,288,156744,1,0,2:0:0:0:
176,156,157044,1,0,2:0:0:0:
336,156,157344,5,2,2:0:0:0:
296,288,157644,1,0,2:0:0:0:
428,328,157944,1,0,2:0:0:0:
476,200,158244,1,0,2:0:0:0:
68,112,159144,6,0,B|104:156|68:192|32:228|68:272,1,172.500003290176,12|2,0:0|0:2,0:0:0:0:
136,332,159594,1,8,2:1:0:0:
228,332,159744,1,2,0:0:0:0:
180,256,159894,1,8,2:2:0:0:
272,256,160044,1,0,0:0:0:0:
444,112,160344,2,0,B|408:156|444:192|480:228|444:272,1,172.500003290176,8|2,0:0|0:2,0:0:0:0:
380,336,160794,2,0,P|256:368|132:336,1,258.750004935265,8|8,2:1|0:2,0:0:0:0:
256,24,161544,5,12,0:0:0:0:
436,24,161844,1,0,2:0:0:0:
356,68,161994,1,2,2:1:0:0:
356,160,162144,1,8,0:0:0:0:
436,204,162294,1,8,2:2:0:0:
436,113,162444,1,0,0:0:0:0:
344,268,162744,1,8,0:0:0:0:
336,360,162894,2,0,B|304:384|272:376|280:336|232:336|240:376|208:384|176:360,1,172.500003290176,2|0,0:0|2:0,0:0:0:0:
84,360,163344,5,4,0:0:0:0:
128,280,163494,1,0,2:0:0:0:
220,280,163644,1,0,0:0:0:0:
168,116,163944,1,8,0:0:0:0:
176,24,164094,2,0,B|208:0|240:8|232:48|280:48|272:8|304:0|336:24,1,172.500003290176,2|0,0:0|2:0,0:0:0:0:
428,24,164544,1,4,0:0:0:0:
384,104,164694,1,0,2:0:0:0:
292,104,164844,1,0,0:0:0:0:
60,168,165144,2,0,P|80:236|172:256,1,172.500003290176,8|0,0:0|2:0,0:0:0:0:
244,204,165594,2,0,B|304:168|368:196|368:212|432:240|492:204,1,258.750004935265,8|8,0:0|2:0,0:0:0:0:
256,24,166344,5,12,0:0:0:0:
76,24,166644,1,0,2:0:0:0:
156,68,166794,1,2,2:1:0:0:
156,160,166944,1,8,0:0:0:0:
76,204,167094,1,8,2:2:0:0:
76,113,167244,1,0,0:0:0:0:
256,112,167544,1,8,0:0:0:0:
348,111,167694,2,0,P|311:186|230:202,1,172.500003290176,2|0,0:0|2:0,0:0:0:0:
168,272,168144,5,4,0:0:0:0:
256,300,168294,1,0,2:0:0:0:
344,272,168444,1,0,0:0:0:0:
209,37,168744,2,0,P|200:186|281:202,1,258.750004935265,8|0,0:0|2:0,0:0:0:0:
344,272,169344,1,4,0:0:0:0:
256,300,169494,1,0,2:0:0:0:
168,272,169644,1,0,0:0:0:0:
176,40,169944,2,0,B|220:76|256:40|292:4|336:40,1,172.500003290176,8|2,0:0|0:2,0:0:0:0:
372,124,170394,2,0,P|256:174|140:124,1,258.750004935265,8|8,0:0|2:0,0:0:0:0:
256,364,171144,5,12,0:0:0:0:
136,228,171444,1,0,2:0:0:0:
196,296,171594,1,2,2:1:0:0:
256,228,171744,1,8,0:0:0:0:
316,296,171894,1,8,2:2:0:0:
376,228,172044,1,0,0:0:0:0:
208,156,172344,1,8,0:0:0:0:
304,156,172494,2,0,B|348:120|384:156|420:192|464:156,1,172.500003290176,2|2,0:0|2:2,0:0:0:0:
452,244,172944,5,4,0:0:0:0:
432,332,173094,1,0,2:0:0:0:
340,332,173244,1,0,0:0:0:0:
304,156,173544,1,8,0:0:0:0:
208,156,173694,2,0,B|164:192|128:156|92:120|48:156,1,172.500003290176,2|2,0:0|2:2,0:0:0:0:
60,244,174144,1,4,0:0:0:0:
80,332,174294,1,0,2:0:0:0:
172,332,174444,1,0,0:0:0:0:
452,168,174744,2,0,P|432:236|340:256,1,172.500003290176,8|0,0:0|2:0,0:0:0:0:
268,204,175194,2,0,B|208:168|144:196|144:212|80:240|20:204,1,258.750004935265,8|8,0:0|2:0,0:0:0:0:
24,28,175944,5,12,0:0:0:0:
204,24,176244,1,0,2:0:0:0:
256,100,176394,1,2,2:1:0:0:
348,100,176544,1,8,0:0:0:0:
440,100,176694,2,0,P|404:172|312:188,1,172.500003290176,8|0,0:2|2:0,0:0:0:0:
228,192,177144,2,0,P|264:260|352:274,1,172.500003290176,12|0,0:0|0:0,0:0:0:0:
88,56,177744,6,0,P|-2:192|88:328,1,345.000006580353,4|8,0:0|0:0,0:0:0:0:
148,260,178494,1,8,2:2:0:0:
208,192,178644,1,8,2:2:0:0:
304,192,178794,1,8,0:0:0:0:
364,124,178944,1,2,0:0:0:0:
424,192,179094,2,0,P|464:264|424:336,1,172.500003290176,8|0,0:2|2:0,0:0:0:0:
332,336,179544,2,0,L|152:336,1,172.500003290176,12|0,0:3|0:0,0:0:0:0:
372,60,180144,6,0,P|256:11|140:60,1,258.750004935265,4|0,0:0|0:0,0:0:0:0:
108,144,180744,2,0,B|124:196|168:216|248:204|200:144|300:160|212:224|312:240|264:180|344:168|388:188|404:240,1,345.000006580353,10|0,0:0|0:0,0:0:0:0:
360,320,181494,1,8,0:2:0:0:
452,320,181644,1,8,2:0:0:0:
504,100,181944,1,8,0:0:0:0:
413,100,182094,2,8,B|329:100|329:100|281:100|253:144,1,172.500003290176,2|8,2:0|0:0,0:0:0:0:
216,220,182544,5,4,0:0:0:0:
172,300,182694,1,0,2:0:0:0:
124,376,182844,1,0,0:0:0:0:
8,100,183144,1,8,0:0:0:0:
99,100,183294,2,8,B|183:100|183:100|231:100|259:144,1,172.500003290176,2|8,2:0|0:0,0:0:0:0:
296,220,183744,1,4,0:0:0:0:
340,300,183894,1,0,2:0:0:0:
388,376,184044,1,0,0:0:0:0:
336,28,184344,2,0,P|256:0|176:28,1,172.500003290176,8|0,0:0|2:0,0:0:0:0:
132,108,184794,2,0,B|184:144|240:132|232:92|280:92|272:132|328:144|380:108,1,258.750004935265,8|8,0:0|2:0,0:0:0:0:
488,28,185544,5,12,0:0:0:0:
308,24,185844,1,0,2:0:0:0:
256,100,185994,1,2,2:1:0:0:
164,100,186144,1,8,0:0:0:0:
72,100,186294,2,0,P|108:172|200:188,1,172.500003290176,8|0,0:2|2:0,0:0:0:0:
284,192,186744,2,0,P|248:260|160:274,1,172.500003290176,12|0,0:0|0:0,0:0:0:0:
424,56,187344,6,0,P|514:192|424:328,1,345.000006580353,4|8,0:0|0:0,0:0:0:0:
364,260,188094,1,8,2:2:0:0:
304,192,188244,1,8,2:2:0:0:
208,192,188394,1,8,0:0:0:0:
148,124,188544,1,2,0:0:0:0:
88,192,188694,2,0,P|48:264|88:336,1,172.500003290176,8|0,0:2|2:0,0:0:0:0:
180,336,189144,2,0,L|360:336,1,172.500003290176,12|0,0:3|0:0,0:0:0:0:
140,60,189744,6,0,P|256:11|372:60,1,258.750004935265,4|0,0:0|0:0,0:0:0:0:
404,144,190344,2,0,B|388:196|344:216|264:204|312:144|212:160|300:224|200:240|248:180|168:168|124:188|108:240,1,345.000006580353,10|0,0:0|0:0,0:0:0:0:
152,320,191094,1,8,0:2:0:0:
60,320,191244,1,8,2:0:0:0:
8,100,191544,1,8,0:0:0:0:
60,28,191694,2,8,P|100:100|60:172,1,172.500003290176,2|8,2:0|0:0,0:0:0:0:
60,264,192144,5,4,0:0:0:0:
144,300,192294,1,0,2:0:0:0:
228,336,192444,1,0,0:0:0:0:
504,284,192744,1,8,0:0:0:0:
452,356,192894,2,8,P|412:284|452:212,1,172.500003290176,2|8,2:0|0:0,0:0:0:0:
452,120,193344,1,4,0:0:0:0:
368,84,193494,1,0,2:0:0:0:
284,48,193644,1,0,0:0:0:0:
172,192,193944,2,0,P|256:208|340:192,1,172.500003290176,8|0,0:0|2:0,0:0:0:0:
380,272,194394,2,0,P|256:304|132:272,1,258.750004935265,8|8,0:0|2:0,0:0:0:0:
256,24,195144,5,12,0:0:0:0:
424,116,195444,1,0,2:0:0:0:
396,204,195594,1,2,2:1:0:0:
300,204,195744,1,8,0:0:0:0:
272,116,195894,1,8,2:2:0:0:
348,64,196044,1,4,0:3:0:0:
164,64,196344,1,8,0:0:0:0:
73,64,196494,2,0,L|40:236,1,172.500003290176,0|8,2:0|0:0,0:0:0:0:
24,324,196944,5,6,0:0:0:0:
140,192,197244,1,8,0:2:0:0:
256,52,197544,1,8,0:0:0:0:
334,90,197694,1,8,2:0:0:0:
352,174,197844,1,8,2:0:0:0:
298,241,197994,1,8,0:0:0:0:
212,240,198144,1,2,0:0:0:0:
159,172,198294,1,8,2:0:0:0:
179,88,198444,1,0,0:0:0:0:
340,308,198744,2,0,P|256:324|172:308,1,172.500003290176,8|0,0:0|0:0,0:0:0:0:
132,228,199194,2,0,B|184:192|240:204|232:244|280:244|272:204|328:192|380:228,1,258.750004935265,8|8,0:0|2:0,0:0:0:0:
256,92,199944,5,12,0:0:0:0:
80,136,200244,1,8,2:0:0:0:
32,56,200394,1,8,0:0:0:0:
128,56,200544,1,2,0:0:0:0:
172,136,200694,1,8,2:0:0:0:
128,216,200844,1,0,2:0:0:0:
37,376,201144,1,8,0:0:0:0:
127,376,201294,2,0,B|163:332|127:296|91:260|127:216,1,172.500003290176,0|8,2:0|2:1,0:0:0:0:
172,136,201744,5,4,0:0:0:0:
256,108,201894,1,0,0:0:0:0:
340,80,202044,1,0,2:0:0:0:
475,376,202344,1,8,0:0:0:0:
385,376,202494,2,0,B|349:332|385:296|421:260|385:216,1,172.500003290176,0|8,2:0|2:1,0:0:0:0:
340,136,202944,1,4,0:0:0:0:
256,108,203094,1,0,0:0:0:0:
172,80,203244,1,0,2:0:0:0:
172,244,203544,2,0,P|256:228|340:244,1,172.500003290176,8|0,0:0|0:0,0:0:0:0:
380,328,203994,2,0,B|328:364|272:352|280:312|232:312|240:352|184:364|132:328,1,258.750004935265,8|8,0:0|2:0,0:0:0:0:
256,24,204744,5,12,0:0:0:0:
88,116,205044,1,0,2:0:0:0:
116,204,205194,1,2,2:1:0:0:
212,204,205344,1,8,0:0:0:0:
240,116,205494,1,8,2:2:0:0:
164,64,205644,1,4,0:3:0:0:
348,64,205944,1,8,0:0:0:0:
439,64,206094,2,0,L|472:236,1,172.500003290176,0|8,2:0|0:0,0:0:0:0:
488,324,206544,5,6,0:0:0:0:
372,192,206844,1,8,0:2:0:0:
256,52,207144,1,8,0:0:0:0:
178,90,207294,1,8,2:0:0:0:
160,174,207444,1,8,2:0:0:0:
214,241,207594,1,8,0:0:0:0:
300,240,207744,1,2,0:0:0:0:
353,172,207894,1,8,2:0:0:0:
333,88,208044,1,0,0:0:0:0:
172,308,208344,2,0,P|256:324|340:308,1,172.500003290176,8|0,0:0|0:0,0:0:0:0:
380,228,208794,2,0,B|328:192|272:204|280:244|232:244|240:204|184:192|132:228,1,258.750004935265,8|8,0:0|2:0,0:0:0:0:
256,92,209544,5,12,0:0:0:0:
432,136,209844,1,8,2:0:0:0:
480,56,209994,1,8,0:0:0:0:
384,56,210144,1,2,0:0:0:0:
340,136,210294,1,8,2:0:0:0:
384,216,210444,1,0,2:0:0:0:
475,376,210744,1,8,0:0:0:0:
385,376,210894,2,0,B|349:332|385:296|421:260|385:216,1,172.500003290176,0|8,2:0|2:1,0:0:0:0:
340,136,211344,5,4,0:0:0:0:
256,100,211494,1,0,0:0:0:0:
172,64,211644,1,0,2:0:0:0:
37,376,211944,1,8,0:0:0:0:
127,376,212094,2,0,B|163:332|127:296|91:260|127:216,1,172.500003290176,0|8,2:0|2:1,0:0:0:0:
172,136,212544,1,4,0:0:0:0:
256,100,212694,1,0,0:0:0:0:
340,64,212844,1,0,2:0:0:0:
340,244,213144,2,0,P|256:228|172:244,1,172.500003290176,8|0,0:0|0:0,0:0:0:0:
108,180,213594,1,0,0:0:0:0:
52,108,213764,5,2,2:0:0:0:
184,72,214064,1,0,2:0:0:0:
212,208,214364,1,0,2:0:0:0:
80,244,214664,1,8,2:0:0:0:
304,212,214964,5,2,2:0:0:0:
432,244,215264,1,0,2:0:0:0:
460,108,215564,1,0,2:0:0:0:
328,72,215864,1,8,2:0:0:0:
256,264,216164,5,0,2:0:0:0:
