osu file format v14

[General]
AudioFilename: audio.mp3
AudioLeadIn: 0
PreviewTime: 100344
Countdown: 1
SampleSet: Soft
StackLeniency: 0.6
Mode: 0
LetterboxInBreaks: 0
WidescreenStoryboard: 1

[Editor]
DistanceSpacing: 1.2
BeatDivisor: 4
GridSize: 4
TimelineZoom: 2.999999

[Metadata]
Title:Warm Blood
TitleUnicode:Warm Blood
Artist:Meg & Dia
ArtistUnicode:Meg & Dia
Creator:Krisom
Version:Easy
Source:
Tags:happysad English Pop StarCastler and
BeatmapID:3173891
BeatmapSetID:1553475

[Difficulty]
HPDrainRate:2.5
CircleSize:2.7
OverallDifficulty:2
ApproachRate:3
SliderMultiplier:1.4
SliderTickRate:1

[Events]
//Background and Video events
0,0,"goddesses.jpg",0,0
//Break Periods
2,28944,32304
2,72344,75504
2,96144,99504
2,139544,154704
//Storyboard Layer 0 (Background)
//Storyboard Layer 1 (Fail)
//Storyboard Layer 2 (Pass)
//Storyboard Layer 3 (Foreground)
//Storyboard Layer 4 (Overlay)
//Storyboard Sound Samples

[TimingPoints]
144,600,4,2,1,69,1,0
33744,-100,4,2,1,80,0,1
72144,-100,4,2,1,69,0,0
100944,-100,4,2,1,80,0,1
139344,-100,4,2,1,69,0,0
159144,-100,4,2,1,80,0,1
213764,600,4,2,1,80,1,0

[Colours]
Combo1 : 250,165,50
Combo2 : 84,250,80
Combo3 : 85,71,250
Combo4 : 243,44,73

[HitObjects]
24,348,9744,5,4,3:0:0:0:
72,188,10344,1,8,0:0:0:0:
120,28,10944,2,0,B|180:12|216:44|216:68|252:100|312:84,1,210,2|0,3:0|3:0,0:0:0:0:
380,36,12144,5,4,3:0:0:0:
332,196,12744,1,8,0:0:0:0:
284,356,13344,2,0,P|204:352|124:256,1,210,2|0,3:0|3:0,0:0:0:0:
120,172,14544,5,4,3:0:0:0:
172,104,14844,1,2,3:0:0:0:
340,104,15444,1,2,0:0:0:0:
392,172,15744,2,0,P|428:228|316:252,1,210,2|2,3:0|0:0,0:0:0:0:
340,104,17244,5,2,0:3:0:0:
172,104,17844,1,2,0:0:0:0:
196,24,18144,2,0,P|256:-8|316:24,1,140,2|8,3:0|0:0,0:0:0:0:
488,28,19344,5,4,3:0:0:0:
440,188,19944,1,8,0:0:0:0:
392,348,20544,2,0,B|332:364|296:332|296:308|260:276|200:292,1,210,2|8,3:0|0:0,0:0:0:0:
132,340,21744,5,4,3:0:0:0:
180,180,22344,1,8,0:0:0:0:
228,20,22944,2,0,P|308:24|388:120,1,210,2|0,3:0|3:0,0:0:0:0:
392,204,24144,5,4,3:0:0:0:
340,272,24444,1,2,3:0:0:0:
172,272,25044,1,2,0:0:0:0:
120,204,25344,2,0,P|84:148|196:124,1,210,2|2,3:0|0:0,0:0:0:0:
172,272,26844,5,2,3:0:0:0:
340,272,27444,1,2,0:0:0:0:
316,350,27744,2,0,P|256:382|196:350,1,140,2|8,3:0|0:0,0:0:0:0:
336,340,33744,6,0,L|480:284,2,140,4|8|2,1:0|1:0|1:2,0:0:0:0:
312,260,35244,1,4,3:0:0:0:
288,180,35544,2,0,L|412:132,2,105,10|2|8,1:0|3:0|3:0,0:0:0:0:
208,212,36744,5,8,1:0:0:0:
48,260,37344,1,2,1:2:0:0:
48,176,37644,1,4,0:3:0:0:
48,92,37944,6,0,B|108:92|108:92|148:92|176:52,1,140,8|4,1:0|3:0,0:0:0:0:
256,28,38844,1,2,0:0:0:0:
338,53,39144,2,0,B|364:91|404:91|404:91|464:91,1,140,8|2,1:0|0:0,0:0:0:0:
500,256,40344,6,2,B|456:284|456:284|400:276,2,105,10|2|0,1:0|3:0|3:0,0:1:0:0:
496,172,41544,2,0,P|420:164|364:212,1,140,8|2,1:0|1:2,0:0:0:0:
336,364,42744,1,8,1:0:0:0:
176,340,43344,6,0,L|32:284,2,140,4|8|2,1:0|1:0|1:2,0:0:0:0:
200,260,44844,1,4,3:0:0:0:
224,180,45144,2,0,L|100:132,2,105,10|2|8,1:0|3:0|3:0,0:0:0:0:
304,212,46344,5,8,1:0:0:0:
464,260,46944,1,2,1:2:0:0:
464,176,47244,1,4,0:3:0:0:
464,92,47544,6,0,B|404:92|404:92|364:92|336:52,1,140,8|4,1:0|3:0,0:0:0:0:
256,28,48444,1,2,0:0:0:0:
174,53,48744,2,0,B|147:91|107:91|107:91|47:91,1,140,8|2,1:0|0:0,0:0:0:0:
12,256,49944,6,2,B|56:284|56:284|112:276,2,105,10|2|0,1:0|3:0|3:0,0:1:0:0:
16,172,51144,2,0,P|92:164|148:212,1,140,8|2,1:0|1:2,0:0:0:0:
176,364,52344,1,8,1:0:0:0:
340,320,52944,6,0,B|324:256|412:208|500:160|484:96,1,280,4|2,1:0|1:2,0:0:0:0:
336,20,54744,1,8,1:0:0:0:
292,180,55344,2,0,P|196:224|120:88,1,280,4|2,3:0|1:2,0:0:0:0:
256,8,57144,6,0,B|404:56,1,140,8|4,1:0|3:0,0:0:0:0:
388,136,58044,1,2,0:0:0:0:
388,220,58344,2,0,B|240:172,1,140,8|4,1:0|3:0,0:0:0:0:
104,104,59544,6,2,B|68:72|68:72|56:0,2,105,10|2|0,1:0|3:0|3:0,0:1:0:0:
188,100,60744,2,0,P|256:84|324:100,1,140,8|2,1:0|1:2,0:0:0:0:
332,268,61944,1,10,1:0:0:0:
172,320,62544,22,0,B|188:256|100:208|12:160|28:96,1,280,4|2,1:0|1:2,0:0:0:0:
176,20,64344,1,8,1:0:0:0:
220,180,64944,2,0,P|316:224|392:88,1,280,4|2,3:0|1:2,0:0:0:0:
256,8,66744,6,0,B|108:56,1,140,8|4,1:0|3:0,0:0:0:0:
124,136,67644,1,2,0:0:0:0:
124,220,67944,2,0,B|272:172,1,140,8|4,1:0|3:0,0:0:0:0:
408,104,69144,6,2,B|444:72|444:72|456:0,2,105,10|2|0,1:0|3:0|3:0,0:1:0:0:
324,100,70344,2,0,P|256:84|188:100,1,140,8|2,1:2|1:2,0:0:0:0:
104,104,71244,2,0,B|68:72|68:72|56:0,2,105,4|2|2,3:0|3:1|0:0,0:1:0:0:
488,348,76944,21,4,3:0:0:0:
440,188,77544,1,8,0:0:0:0:
392,28,78144,2,0,B|332:12|296:44|296:68|260:100|200:84,1,210,2|0,3:0|3:0,0:0:0:0:
132,36,79344,5,4,3:0:0:0:
180,196,79944,1,8,0:0:0:0:
228,356,80544,2,0,P|308:352|388:256,1,210,2|0,3:0|3:0,0:0:0:0:
392,172,81744,5,4,3:0:0:0:
340,104,82044,1,2,3:0:0:0:
172,104,82644,1,2,0:0:0:0:
120,172,82944,2,0,P|84:228|196:252,1,210,2|2,3:0|0:0,0:0:0:0:
172,104,84444,5,2,0:3:0:0:
340,104,85044,1,2,0:0:0:0:
316,24,85344,2,0,P|256:-8|196:24,1,140,2|8,3:0|0:0,0:0:0:0:
24,28,86544,5,4,3:0:0:0:
72,188,87144,1,8,0:0:0:0:
120,348,87744,2,0,B|180:364|216:332|216:308|252:276|312:292,1,210,2|8,3:0|0:0,0:0:0:0:
380,340,88944,5,4,3:0:0:0:
332,180,89544,1,8,0:0:0:0:
284,20,90144,2,0,P|204:24|124:120,1,210,2|0,3:0|3:0,0:0:0:0:
120,204,91344,5,4,3:0:0:0:
172,272,91644,1,2,3:0:0:0:
340,272,92244,1,2,0:0:0:0:
392,204,92544,2,0,P|428:148|316:124,1,210,2|2,3:0|0:0,0:0:0:0:
340,272,94044,5,2,3:0:0:0:
172,272,94644,1,2,0:0:0:0:
196,349,94944,2,0,P|256:381|316:349,1,140,2|8,3:0|0:0,0:0:0:0:
72,244,100944,6,0,B|56:204|88:188|88:164|56:148|72:108,2,140,4|8|2,1:0|1:0|1:2,0:0:0:0:
140,292,102444,1,4,3:0:0:0:
208,344,102744,2,0,P|257:362|304:344,2,105,10|2|8,1:0|3:0|3:0,0:0:0:0:
256,276,103944,5,8,1:0:0:0:
404,192,104544,1,2,1:2:0:0:
404,108,104844,1,4,0:3:0:0:
404,24,105144,6,0,B|344:24|344:24|304:24|276:64,1,140,8|4,1:0|3:0,0:0:0:0:
256,144,106044,1,2,0:0:0:0:
228,224,106344,2,0,B|201:262|161:262|161:262|101:262,1,140,8|2,1:0|0:0,0:0:0:0:
36,108,107544,6,2,P|76:76|132:72,2,105,10|2|0,1:0|3:0|3:0,0:1:0:0:
108,152,108744,2,0,P|132:224|180:276,1,140,8|2,1:0|1:2,0:0:0:0:
320,352,109944,1,8,1:0:0:0:
440,244,110544,6,0,B|456:204|424:188|424:164|456:148|440:108,2,140,4|8|2,1:0|1:0|1:2,0:0:0:0:
372,292,112044,1,4,3:0:0:0:
304,344,112344,2,0,P|255:362|208:344,2,105,10|2|8,1:0|3:0|3:0,0:0:0:0:
256,276,113544,5,8,1:0:0:0:
108,192,114144,1,2,1:2:0:0:
108,108,114444,1,4,0:3:0:0:
108,24,114744,6,0,B|168:24|168:24|208:24|236:64,1,140,8|4,1:0|3:0,0:0:0:0:
256,144,115644,1,2,0:0:0:0:
284,224,115944,2,0,B|311:262|351:262|351:262|411:262,1,140,8|2,1:0|0:0,0:0:0:0:
476,108,117144,6,2,P|436:76|380:72,2,105,10|2|0,1:0|3:0|3:0,0:1:0:0:
404,152,118344,2,0,P|380:224|332:276,1,140,8|2,1:0|1:2,0:0:0:0:
200,364,119544,1,8,1:0:0:0:
40,328,120144,6,0,B|40:236|40:236|80:152|80:152|80:56,1,280,4|2,1:0|1:2,0:0:0:0:
256,32,121944,1,8,1:0:0:0:
432,57,122544,2,0,P|352:168|216:192,1,280,4|2,3:0|1:2,0:0:0:0:
124,52,124344,6,0,P|60:60|24:128,1,140,8|4,1:0|3:0,0:0:0:0:
16,204,125244,1,2,0:0:0:0:
12,288,125544,2,0,P|64:332|136:324,1,140,8|4,1:0|3:0,0:0:0:0:
204,168,126744,6,2,B|308:168,2,105,10|2|0,1:0|3:0|3:0,0:1:0:0:
148,104,127944,2,0,P|120:180|156:240,1,140,8|2,1:0|1:2,0:0:0:0:
300,288,129144,1,10,1:0:0:0:
472,328,129744,22,0,B|472:236|472:236|432:152|432:152|432:56,1,280,4|2,1:0|1:2,0:0:0:0:
256,32,131544,1,8,1:0:0:0:
80,57,132144,2,0,P|160:168|296:192,1,280,4|2,3:0|1:2,0:0:0:0:
388,52,133944,6,0,P|452:60|488:128,1,140,8|4,1:0|3:0,0:0:0:0:
496,204,134844,1,2,0:0:0:0:
500,288,135144,2,0,P|448:332|376:324,1,140,8|4,1:0|3:0,0:0:0:0:
308,168,136344,6,2,B|204:168,2,105,8|2|0,1:0|3:0|3:0,0:1:0:0:
364,104,137544,2,0,P|392:180|356:240,1,140,10|2,1:2|1:2,0:0:0:0:
308,288,138444,2,0,L|204:288,2,105,4|2|6,3:0|3:1|0:0,0:0:0:0:
256,192,156144,12,0,157944,0:0:0:0:
44,344,159144,22,0,L|196:344,1,140,12|2,1:0|1:2,0:0:0:0:
256,304,160044,1,4,3:0:0:0:
328,260,160344,2,0,L|432:260,2,105,10|2|8,1:0|3:0|3:0,0:0:0:0:
256,220,161544,5,8,1:0:0:0:
88,220,162144,1,2,1:2:0:0:
52,144,162444,1,4,3:0:0:0:
88,68,162744,6,0,P|148:36|208:68,1,140,8|4,1:0|3:0,0:0:0:0:
256,136,163644,1,2,0:0:0:0:
305,66,163944,2,0,P|365:34|425:66,1,140,8|4,1:0|3:0,0:0:0:0:
356,220,165144,6,2,P|316:256|244:248,2,105,10|2|0,1:0|3:0|3:0,0:1:0:0:
336,140,166344,1,8,1:0:0:0:
172,172,166944,1,2,1:2:0:0:
140,248,167244,1,0,3:0:0:0:
172,324,167544,1,8,1:0:0:0:
328,344,168144,6,0,L|468:344,2,140,4|8|2,1:0|1:0|1:2,0:0:0:0:
256,304,169644,1,4,3:0:0:0:
184,260,169944,2,0,L|80:260,2,105,10|2|8,1:0|3:0|3:0,0:0:0:0:
256,220,171144,5,8,1:0:0:0:
424,220,171744,1,2,1:2:0:0:
460,144,172044,1,4,3:0:0:0:
424,64,172344,6,0,P|364:34|305:66,1,140,8|4,1:0|3:0,0:0:0:0:
256,136,173243,1,2,0:0:0:0:
207,66,173543,2,0,P|147:36|88:68,1,140,8|4,1:0|3:0,0:0:0:0:
156,220,174744,6,2,P|196:256|268:248,2,105,10|2|0,1:0|3:0|3:0,0:1:0:0:
176,140,175944,1,8,1:0:0:0:
340,172,176544,2,0,P|412:172|440:120,2,105,2|0|0,1:2|3:0|3:0,0:0:0:0:
320,92,177744,6,0,P|256:68|192:92,2,140,4|8|2,1:0|1:0|1:2,0:0:0:0:
440,212,179544,1,8,1:0:0:0:
380,272,179844,1,2,3:0:0:0:
320,328,180144,6,0,P|256:352|192:328,2,140,4|8|2,3:0|1:0|1:2,0:0:0:0:
484,284,181944,6,0,B|484:228|484:228|484:184|448:156,1,140,8|4,1:0|3:0,0:0:0:0:
384,100,182844,1,2,0:0:0:0:
324,44,183144,2,0,L|184:44,1,140,8|4,1:0|3:0,0:0:0:0:
28,96,184344,6,2,L|-4:208,2,105,10|2|0,1:0|3:0|3:0,0:1:0:0:
104,132,185544,2,0,B|87:188|87:188|72:226|101:267,1,140,8|2,1:2|1:2,0:0:0:0:
256,248,186744,1,10,1:0:0:0:
220,172,187044,1,0,3:0:0:0:
192,92,187344,6,0,P|256:68|320:92,2,140,4|8|2,1:0|1:0|1:2,0:0:0:0:
72,208,189144,1,8,1:0:0:0:
132,268,189444,1,2,3:0:0:0:
192,324,189744,6,0,P|256:348|320:324,2,140,4|8|2,3:0|1:0|1:2,0:0:0:0:
28,284,191544,6,0,B|28:228|28:228|28:184|64:156,1,140,8|4,1:0|3:0,0:0:0:0:
128,100,192444,1,2,0:0:0:0:
188,44,192744,2,0,L|328:44,1,140,8|4,1:0|3:0,0:0:0:0:
484,96,193944,6,2,L|516:208,2,105,10|2|0,1:0|3:0|3:0,0:1:0:0:
408,132,195144,2,0,B|425:188|425:188|440:226|411:267,1,140,8|2,1:2|1:2,0:0:0:0:
256,324,196344,1,10,1:0:0:0:
188,276,196644,1,0,3:0:0:0:
128,216,196944,6,0,P|256:116|384:216,1,350,4|4,0:0|3:0,0:0:0:0:
464,240,198744,6,2,P|472:188|464:136,2,105,10|8|0,1:0|0:1|3:0,0:1:0:0:
404,300,199944,1,8,1:0:0:0:
256,380,200544,1,2,1:2:0:0:
172,380,200844,1,4,3:0:0:0:
88,380,201144,6,0,P|56:320|88:260,1,140,8|4,1:0|3:0,0:0:0:0:
132,192,202044,1,2,0:0:0:0:
86,124,202344,2,0,P|54:64|86:4,1,140,8|4,1:0|3:0,0:0:0:0:
256,24,203544,6,2,L|368:24,2,105,10|8|0,1:0|0:1|3:0,0:1:0:0:
240,108,204744,2,0,B|272:132|296:100|320:100|344:132|376:108,1,140,8|2,1:0|1:2,0:0:0:0:
504,216,205944,1,8,1:0:0:0:
444,276,206244,1,0,3:0:0:0:
384,216,206544,6,0,P|256:116|128:216,1,350,4|4,0:0|3:0,0:0:0:0:
48,240,208344,6,2,P|40:188|48:136,2,105,10|8|0,1:0|0:1|3:0,0:1:0:0:
108,300,209544,1,8,1:0:0:0:
256,380,210144,1,2,1:2:0:0:
340,380,210444,1,4,3:0:0:0:
424,380,210744,6,0,P|456:320|424:260,1,140,8|4,1:0|3:0,0:0:0:0:
380,192,211644,1,2,0:0:0:0:
426,124,211944,2,0,P|458:64|426:4,1,140,8|4,1:0|3:0,0:0:0:0:
292,108,213144,6,2,L|220:108,1,70,10|0,1:0|3:1,0:1:0:0:
132,108,213764,1,2,1:2:0:0:
72,167,214064,1,0,3:0:0:0:
72,251,214364,1,0,3:0:0:0:
208,352,214964,5,2,1:2:0:0:
256,284,215264,1,0,3:0:0:0:
304,352,215564,1,0,3:0:0:0:
256,192,216164,5,2,0:0:0:0:
