osu file format v14

[General]
AudioFilename: audio.mp3
AudioLeadIn: 0
PreviewTime: 81937
Countdown: 0
SampleSet: Normal
StackLeniency: 0.7
Mode: 0
LetterboxInBreaks: 0
WidescreenStoryboard: 1

[Editor]
DistanceSpacing: 0.9
BeatDivisor: 6
GridSize: 32
TimelineZoom: 1

[Metadata]
Title:Monster (Nightcore Mix)
TitleUnicode:Monster (Nightcore Mix)
Artist:Meg & Dia
ArtistUnicode:Meg & Dia
Creator:CaptainCraft300
Version:Normal
Source:
Tags:monster speed up
BeatmapID:1001005
BeatmapSetID:465423

[Difficulty]
HPDrainRate:6
CircleSize:3.5
OverallDifficulty:5
ApproachRate:7
SliderMultiplier:1.3
SliderTickRate:1

[Events]
//Background and Video events
0,0,"monstah.jpg",0,0
//Break Periods
2,100155,108584
//Storyboard Layer 0 (Background)
//Storyboard Layer 1 (Fail)
//Storyboard Layer 2 (Pass)
//Storyboard Layer 3 (Foreground)
//Storyboard Sound Samples

[TimingPoints]
10616.3460423467,566.037735849057,4,1,0,100,1,0
126276,-100,4,1,0,100,0,1
144767,-100,4,1,0,100,0,0

[HitObjects]
94,187,10616,6,0,L|241:189,1,130
282,79,11748,2,0,B|346:69|406:107|410:110,1,130
317,194,12880,2,0,P|279:242|338:283,1,130
439,215,14012,2,0,L|447:67,1,130
256,64,15144,1,4,0:0:0:0:
108,144,15710,6,0,B|112:215|164:244|173:208|188:192,1,130
167,102,16842,2,0,B|226:103|280:153|252:179,1,130
307,262,17974,1,0,0:0:0:0:
421,166,18540,1,8,0:0:0:0:
316,88,18823,5,8,0:0:0:0:
316,88,19106,2,8,L|200:180,1,130
367,259,20238,2,0,P|455:292|470:269,1,130
421,153,21371,2,0,B|430:100|371:69|318:98|317:98,1,130
182,152,22503,2,0,P|132:177|168:239,1,130
314,262,23635,5,0,0:0:0:0:
433,203,24201,2,8,P|439:141|441:120,1,65
404,74,24767,2,8,L|321:58,1,65
270,78,25333,2,8,L|207:123,1,65
189,184,25899,2,8,L|195:264,1,65
343,264,26465,5,0,0:0:0:0:
408,265,26748,1,0,0:0:0:0:
380,95,27597,1,0,0:0:0:0:
323,99,27880,1,0,0:0:0:0:
261,103,28163,1,4,0:0:0:0:
135,189,28729,5,0,0:0:0:0:
192,235,29295,1,0,0:0:0:0:
263,257,29861,1,0,0:0:0:0:
338,258,30427,1,0,0:0:0:0:
406,227,30993,1,0,0:0:0:0:
440,161,31559,1,0,0:0:0:0:
425,88,32125,1,4,0:0:0:0:
205,71,32691,5,0,0:0:0:0:
128,188,33257,2,8,L|188:238,1,65
244,260,33823,2,8,L|326:264,1,65
379,240,34389,2,8,L|442:194,1,65
256,192,34955,12,0,37314,0:0:0:0:
107,85,37880,6,0,P|125:134|210:146,1,130
328,77,39012,1,4,0:0:0:0:
413,181,39578,1,0,0:0:0:0:
266,174,40144,2,0,P|283:269|261:284,1,130
152,203,41276,1,4,0:0:0:0:
213,58,41842,5,0,0:0:0:0:
213,58,42125,1,0,0:0:0:0:
213,58,42408,2,0,P|283:84|265:118,1,130
385,183,43540,5,4,0:0:0:0:
228,238,44106,2,0,P|168:200|200:156,1,130
292,82,45238,1,0,0:0:0:0:
412,189,45805,1,0,0:0:0:0:
282,252,46371,1,4,0:0:0:0:
135,100,46937,6,0,L|282:100,1,130
210,172,48069,2,0,L|357:171,1,130
283,237,49201,2,0,L|431:239,1,130
347,297,50333,2,0,P|265:295|252:248,1,130
185,181,51465,6,0,P|151:135|210:131,1,130
262,164,52597,2,0,B|271:201|228:229|197:212|188:197|199:168,1,130
331,170,53729,5,0,0:0:0:0:
392,219,54295,1,0,0:0:0:0:
385,296,54861,1,0,0:0:0:0:
312,310,55427,1,0,0:0:0:0:
256,191,55993,5,4,0:0:0:0:
135,102,56559,6,0,B|181:66|248:70|243:95|235:118,1,130
214,189,57691,2,0,B|219:211|262:196|346:164,1,130
405,169,58540,1,0,0:0:0:0:
452,226,58823,1,0,0:0:0:0:
285,261,59389,5,0,0:0:0:0:
213,258,59672,1,0,0:0:0:0:
141,246,59955,1,4,0:0:0:0:
178,126,60522,6,0,B|263:111|315:138|325:145,1,151.666666666667
226,233,61654,2,0,B|366:277|346:267,1,130
407,185,62786,2,0,B|430:144|396:98|349:91,1,130
143,102,63918,6,0,B|140:170|185:189|237:173,1,130
354,125,65144,5,0,0:0:0:0:
363,197,65710,1,0,0:0:0:0:
316,252,66276,1,0,0:0:0:0:
243,268,66842,1,0,0:0:0:0:
169,251,67408,1,0,0:0:0:0:
116,198,67974,1,0,0:0:0:0:
115,123,68540,1,0,0:0:0:0:
159,65,69106,1,4,0:0:0:0:
237,57,69672,6,0,L|350:66,1,108.333333333333
396,114,70522,1,0,0:0:0:0:
368,219,71371,6,8,L|292:231,1,65
231,234,71937,2,0,P|152:166|154:155,1,130
162,88,73069,2,0,B|229:64|279:72|293:83,1,130
142,79,74201,6,0,L|277:82,1,130
217,137,75333,2,0,L|353:138,1,130
300,197,76465,2,0,L|445:198,1,130
379,254,77597,5,0,0:0:0:0:
305,264,78163,1,0,0:0:0:0:
234,247,78729,1,0,0:0:0:0:
179,197,79295,1,4,0:0:0:0:
256,192,79672,12,0,81559,0:0:0:0:
254,188,82125,6,0,L|398:188,1,130
436,239,83257,1,4,0:0:0:0:
387,297,83823,2,0,L|252:302,1,130
201,252,84955,5,12,0:0:0:0:
170,183,85522,1,8,0:0:0:0:
185,111,86088,2,0,B|255:99|306:111|325:133,1,130
370,169,87220,1,8,0:0:0:0:
402,237,87786,1,8,0:0:0:0:
372,303,88352,1,8,0:0:0:0:
297,298,88918,6,0,P|232:267|236:211,1,130
255,148,90050,2,0,P|314:109|381:138,1,130
414,183,91182,5,0,0:0:0:0:
381,249,91748,1,0,0:0:0:0:
316,288,92314,1,0,0:0:0:0:
241,286,92880,1,0,0:0:0:0:
191,233,93446,1,4,0:0:0:0:
227,168,94012,6,0,L|365:166,1,130
413,118,95144,1,0,0:0:0:0:
394,46,95710,1,0,0:0:0:0:
321,33,96276,1,0,0:0:0:0:
246,44,96842,1,4,0:0:0:0:
179,78,97408,6,8,L|167:144,1,65
172,214,97974,2,8,L|220:262,1,65
280,295,98540,2,8,L|346:293,1,65
409,256,99106,2,8,L|454:197,1,65
461,132,99672,2,4,L|450:60,1,65
137,135,109484,5,0,0:0:0:0:
212,125,110050,1,0,0:0:0:0:
287,134,110616,1,0,0:0:0:0:
359,160,111182,1,0,0:0:0:0:
410,216,111748,1,0,0:0:0:0:
387,284,112314,1,0,0:0:0:0:
319,318,112880,1,0,0:0:0:0:
242,320,113446,1,4,0:0:0:0:
192,266,114012,6,0,L|174:134,1,130
220,80,115144,2,0,L|353:70,1,130
411,110,116276,2,0,L|433:254,1,130
379,291,117408,2,0,L|242:291,1,130
256,192,118163,12,0,121371,0:0:0:0:
158,99,121937,6,0,P|275:85|296:88,1,130
348,128,123069,1,4,0:0:0:0:
353,203,123635,2,0,B|312:230|262:249|223:243,1,130
172,200,124767,1,8,0:0:0:0:
128,139,125333,1,8,0:0:0:0:
210,70,125899,6,0,L|236:73,1,21.6666666666667
395,92,126465,6,0,B|424:132|406:170|393:200|373:219,1,130
322,258,127597,1,4,0:0:0:0:
249,255,128163,2,0,B|202:199|217:164|243:137,1,130
297,97,129295,1,8,0:0:0:0:
372,109,129861,1,8,0:0:0:0:
402,176,130427,1,8,0:0:0:0:
351,232,130993,6,0,L|276:259,2,65
408,209,132125,2,0,L|468:180,2,65
336,196,133257,6,0,B|299:154|257:155|205:166,1,130
172,223,134389,1,4,0:0:0:0:
191,295,134955,2,0,B|288:301|308:276|328:268,1,130
345,205,136088,1,0,0:0:0:0:
332,131,136654,1,0,0:0:0:0:
273,83,137220,1,0,0:0:0:0:
200,75,137786,2,0,B|149:101|115:131|106:166,1,130
112,235,138918,2,0,B|168:259|234:279|235:279,1,130
358,238,140050,5,0,0:0:0:0:
384,202,140333,1,0,0:0:0:0:
401,162,140616,1,0,0:0:0:0:
416,120,140899,6,0,L|416:55,1,65
355,31,141465,2,0,L|282:34,1,65
222,65,142031,2,0,L|185:129,1,65
192,192,142597,6,0,L|193:258,3,65
256,192,143823,12,0,144955,0:0:0:0:
