osu file format v14

[General]
AudioFilename: audio.mp3
AudioLeadIn: 0
PreviewTime: 81937
Countdown: 0
SampleSet: Normal
StackLeniency: 0.7
Mode: 0
LetterboxInBreaks: 0
WidescreenStoryboard: 0

[Editor]
DistanceSpacing: 0.9
BeatDivisor: 6
GridSize: 32
TimelineZoom: 1

[Metadata]
Title:Monster (Nightcore Mix)
TitleUnicode:Monster (Nightcore Mix)
Artist:Meg & Dia
ArtistUnicode:Meg & Dia
Creator:CaptainCraft300
Version:Insane
Source:
Tags:monster speed up
BeatmapID:996377
BeatmapSetID:465423

[Difficulty]
HPDrainRate:6
CircleSize:4
OverallDifficulty:7
ApproachRate:9
SliderMultiplier:1.2
SliderTickRate:1

[Events]
//Background and Video events
0,0,"monstah.jpg",0,0
//Break Periods
2,109211,117374
//Storyboard Layer 0 (Background)
//Storyboard Layer 1 (Fail)
//Storyboard Layer 2 (Pass)
//Storyboard Layer 3 (Foreground)
//Storyboard Sound Samples

[TimingPoints]
10616.3460423467,566.037735849057,4,1,0,100,1,0

[HitObjects]
256,189,10616,5,0,0:0:0:0:
256,189,11182,1,0,0:0:0:0:
256,189,11748,1,0,0:0:0:0:
256,189,12314,1,0,0:0:0:0:
169,116,12880,6,0,P|205:83|247:73,1,80
337,135,14012,2,0,P|345:175|338:223,1,80
257,191,15144,5,0,0:0:0:0:
257,191,15710,1,0,0:0:0:0:
257,191,16276,1,0,0:0:0:0:
257,191,16842,1,0,0:0:0:0:
169,126,17408,6,0,L|207:102,1,40
202,104,17786,1,8,0:0:0:0:
314,96,18540,2,0,L|342:138,1,40
336,129,18918,1,8,0:0:0:0:
359,178,19106,5,0,0:0:0:0:
356,200,19177,1,0,0:0:0:0:
350,223,19248,1,0,0:0:0:0:
345,244,19319,1,0,0:0:0:0:
340,264,19389,1,0,0:0:0:0:
331,282,19460,1,0,0:0:0:0:
230,295,19672,5,0,0:0:0:0:
91,73,20238,1,0,0:0:0:0:
366,269,20805,1,0,0:0:0:0:
409,90,21371,1,0,0:0:0:0:
263,313,21937,1,0,0:0:0:0:
260,55,22503,1,0,0:0:0:0:
99,299,23069,1,0,0:0:0:0:
261,191,23635,1,0,0:0:0:0:
85,58,24201,5,8,0:0:0:0:
320,126,24672,1,8,0:0:0:0:
370,276,25050,2,0,P|294:291|205:269,1,160
256,193,26465,5,0,0:0:0:0:
256,193,26748,1,0,0:0:0:0:
180,149,27031,2,0,L|149:127,2,30
276,191,27597,2,0,L|344:221,1,60
183,150,28163,5,8,0:0:0:0:
423,81,28729,5,0,0:0:0:0:
114,286,29295,1,0,0:0:0:0:
466,185,29861,1,0,0:0:0:0:
77,44,30427,1,0,0:0:0:0:
446,319,30993,1,0,0:0:0:0:
248,45,31559,1,0,0:0:0:0:
252,331,32125,1,0,0:0:0:0:
251,189,32974,6,0,L|253:114,1,60
256,192,33635,12,0,34955,0:0:0:0:
96,81,35522,5,0,0:0:0:0:
259,188,35805,1,0,0:0:0:0:
434,310,36088,1,0,0:0:0:0:
259,188,36371,1,0,0:0:0:0:
434,59,36654,1,0,0:0:0:0:
259,188,36937,1,0,0:0:0:0:
101,302,37220,1,0,0:0:0:0:
135,107,37786,6,0,P|207:78|241:95,1,120
415,302,38918,1,4,0:0:0:0:
352,130,39484,2,0,P|291:102|232:120,1,120
112,248,40616,1,8,0:0:0:0:
312,305,41182,1,8,0:0:0:0:
376,85,41842,5,8,0:0:0:0:
376,85,42125,1,8,0:0:0:0:
376,85,42408,1,4,0:0:0:0:
175,201,42974,1,0,0:0:0:0:
288,264,44012,6,0,L|350:235,1,60
425,164,44578,1,0,0:0:0:0:
332,58,45144,1,0,0:0:0:0:
105,145,45805,1,0,0:0:0:0:
252,309,46371,1,8,0:0:0:0:
256,189,46937,5,0,0:0:0:0:
439,188,47503,1,0,0:0:0:0:
175,65,48069,2,0,P|130:107|125:163,1,120
423,129,49201,1,0,0:0:0:0:
417,310,49767,1,0,0:0:0:0:
199,78,50333,2,0,P|168:97|157:124,1,60
156,117,50899,1,4,0:0:0:0:
354,254,51465,5,0,0:0:0:0:
358,54,52031,1,0,0:0:0:0:
100,264,52597,1,0,0:0:0:0:
97,75,53163,1,0,0:0:0:0:
256,192,53729,5,0,0:0:0:0:
256,192,54295,1,0,0:0:0:0:
256,192,54861,1,0,0:0:0:0:
256,192,55427,1,0,0:0:0:0:
322,145,55805,5,0,0:0:0:0:
331,161,55899,1,0,0:0:0:0:
339,180,55993,1,8,0:0:0:0:
163,75,56276,6,0,P|157:98|173:142,1,60
163,131,56842,1,0,0:0:0:0:
193,236,57125,2,0,P|234:247|303:238,1,100
96,74,58352,6,0,L|144:153,1,80
409,59,59484,2,0,L|371:129,1,80
256,319,60616,1,8,0:0:0:0:
149,256,60899,6,0,P|139:225|152:202,1,60
177,148,61465,1,0,0:0:0:0:
224,103,61748,2,0,P|300:82|315:91,1,100
405,180,62880,6,0,P|399:219|358:239,1,80
129,205,64012,2,0,L|111:114,1,80
117,106,64484,1,0,0:0:0:0:
130,91,64578,1,0,0:0:0:0:
150,82,64672,1,0,0:0:0:0:
172,77,64767,1,0,0:0:0:0:
197,87,64861,1,0,0:0:0:0:
211,107,64955,1,0,0:0:0:0:
300,178,65144,5,8,0:0:0:0:
453,315,65710,1,0,0:0:0:0:
448,108,66276,1,0,0:0:0:0:
162,85,66842,1,0,0:0:0:0:
130,288,67408,1,0,0:0:0:0:
405,165,67974,1,0,0:0:0:0:
219,61,68540,1,0,0:0:0:0:
254,320,69106,1,0,0:0:0:0:
255,170,69672,2,0,L|255:82,1,80
257,92,70616,1,4,0:0:0:0:
255,193,71371,5,0,0:0:0:0:
255,193,71654,1,0,0:0:0:0:
255,193,71937,2,0,B|265:124|236:102|212:81,1,120
261,192,73022,5,0,0:0:0:0:
261,192,73305,2,0,P|300:191|316:183,1,30
107,85,74201,6,0,L|117:211,1,120
208,66,75333,2,0,L|256:192,1,120
326,58,76465,2,0,L|451:90,1,120
432,212,77597,1,0,0:0:0:0:
255,288,78163,1,0,0:0:0:0:
85,208,78729,1,8,0:0:0:0:
186,124,79106,1,8,0:0:0:0:
342,94,79578,5,0,0:0:0:0:
377,115,79672,1,0,0:0:0:0:
396,136,79767,1,0,0:0:0:0:
406,165,79861,1,0,0:0:0:0:
399,192,79955,1,0,0:0:0:0:
384,216,80050,1,0,0:0:0:0:
361,232,80144,1,0,0:0:0:0:
332,239,80238,1,0,0:0:0:0:
303,233,80333,1,0,0:0:0:0:
272,223,80427,1,0,0:0:0:0:
245,199,80522,1,0,0:0:0:0:
239,169,80616,1,0,0:0:0:0:
257,137,80710,1,0,0:0:0:0:
282,124,80805,1,0,0:0:0:0:
316,115,80899,1,0,0:0:0:0:
343,132,80993,1,0,0:0:0:0:
366,161,81088,1,0,0:0:0:0:
364,194,81182,1,0,0:0:0:0:
347,223,81276,1,0,0:0:0:0:
328,244,81371,1,8,0:0:0:0:
257,321,82125,5,0,0:0:0:0:
257,58,82691,1,0,0:0:0:0:
257,189,83257,5,0,0:0:0:0:
88,50,83823,6,0,L|89:166,1,100
88,149,84389,1,4,0:0:0:0:
176,247,85050,1,0,0:0:0:0:
199,262,85144,1,0,0:0:0:0:
221,278,85238,1,0,0:0:0:0:
241,292,85333,1,0,0:0:0:0:
264,309,85427,1,0,0:0:0:0:
286,325,85522,1,0,0:0:0:0:
426,36,86182,6,0,L|420:99,1,60
422,197,86748,1,8,0:0:0:0:
315,316,87314,1,0,0:0:0:0:
257,189,87786,5,4,0:0:0:0:
78,173,88446,5,0,0:0:0:0:
256,61,88729,1,0,0:0:0:0:
415,181,89012,2,0,P|420:210|369:283,1,120
146,255,90144,2,0,P|111:214|117:146,1,120
338,57,91276,6,0,L|422:148,1,120
259,191,92408,5,4,0:0:0:0:
172,65,92974,6,0,L|144:102,2,40
126,137,93540,2,0,L|100:206,1,60
100,258,94106,1,0,0:0:0:0:
257,192,94672,5,4,0:0:0:0:
423,138,95238,6,0,L|417:198,1,60
115,128,95805,2,0,L|128:186,1,60
256,323,96371,1,8,0:0:0:0:
257,191,96937,5,4,0:0:0:0:
146,105,97503,6,0,L|126:170,1,60
217,319,98069,1,0,0:0:0:0:
414,318,98352,1,0,0:0:0:0:
424,129,98635,1,0,0:0:0:0:
217,120,98918,1,0,0:0:0:0:
211,309,99201,1,0,0:0:0:0:
432,309,99484,1,0,0:0:0:0:
425,175,99767,2,0,L|425:102,1,60
164,97,100333,5,0,0:0:0:0:
164,97,100427,1,0,0:0:0:0:
164,97,100522,2,0,L|168:187,1,80
146,263,101182,1,0,0:0:0:0:
276,320,101465,1,0,0:0:0:0:
419,277,101748,1,0,0:0:0:0:
467,152,102031,1,0,0:0:0:0:
467,152,102220,2,4,L|394:104,1,80
400,108,102691,5,0,0:0:0:0:
400,108,102786,2,0,L|324:83,1,80
194,67,103446,1,0,0:0:0:0:
84,117,103729,1,0,0:0:0:0:
115,234,104012,1,0,0:0:0:0:
238,302,104295,2,4,L|286:303,1,40
405,186,104955,5,0,0:0:0:0:
405,186,105050,1,0,0:0:0:0:
405,186,105144,2,0,L|386:93,1,80
268,48,105710,2,0,L|222:44,1,40
228,44,105993,1,0,0:0:0:0:
100,189,106371,1,0,0:0:0:0:
100,189,106559,2,4,L|136:229,1,40
372,329,107220,5,0,0:0:0:0:
372,329,107314,1,0,0:0:0:0:
372,329,107408,2,0,L|446:320,1,60
425,178,107974,1,0,0:0:0:0:
425,178,108069,2,0,L|408:135,1,40
257,75,108635,1,0,0:0:0:0:
257,75,108823,2,4,L|209:100,1,40
256,192,117974,5,8,0:0:0:0:
256,192,118257,12,0,121276,0:0:0:0:
88,61,121937,6,0,L|84:188,1,120
256,191,123069,5,4,0:0:0:0:
390,47,123635,6,0,L|392:143,1,80
391,126,124106,2,0,L|393:214,1,80
355,268,124767,2,0,P|290:285|244:278,1,100
126,216,125710,5,0,0:0:0:0:
106,201,125805,1,0,0:0:0:0:
88,185,125899,1,0,0:0:0:0:
66,167,125993,1,0,0:0:0:0:
49,153,126088,1,8,0:0:0:0:
100,52,126465,6,0,L|124:54,2,20
425,305,127125,1,0,0:0:0:0:
256,190,127691,5,0,0:0:0:0:
131,76,128257,5,0,0:0:0:0:
125,309,128540,1,0,0:0:0:0:
291,306,128729,2,0,L|365:280,1,60
478,188,129389,1,0,0:0:0:0:
256,36,129955,1,4,0:0:0:0:
97,151,130333,6,0,L|137:205,1,60
253,286,131088,1,8,0:0:0:0:
256,135,131371,1,8,0:0:0:0:
322,344,131654,1,8,0:0:0:0:
327,54,131937,1,8,0:0:0:0:
390,289,132220,1,8,0:0:0:0:
393,95,132503,1,8,0:0:0:0:
415,134,132691,5,0,0:0:0:0:
415,160,132786,1,0,0:0:0:0:
404,184,132880,1,0,0:0:0:0:
385,203,132974,1,0,0:0:0:0:
361,218,133069,1,0,0:0:0:0:
334,230,133163,1,0,0:0:0:0:
304,233,133257,1,0,0:0:0:0:
266,232,133352,6,0,L|169:157,1,120
256,193,134484,5,4,0:0:0:0:
256,33,135050,5,0,0:0:0:0:
256,33,135144,2,0,P|202:57|197:95,1,100
190,167,135993,2,0,L|189:211,2,40
408,121,137031,5,0,0:0:0:0:
397,153,137220,2,0,L|371:211,1,60
256,317,137880,1,0,0:0:0:0:
259,54,138446,1,0,0:0:0:0:
74,329,139012,1,0,0:0:0:0:
449,333,139578,1,4,0:0:0:0:
455,46,140144,5,0,0:0:0:0:
434,48,140238,1,0,0:0:0:0:
412,51,140333,1,0,0:0:0:0:
387,55,140427,1,0,0:0:0:0:
361,62,140522,1,0,0:0:0:0:
340,78,140616,1,0,0:0:0:0:
329,99,140710,1,0,0:0:0:0:
323,123,140805,1,0,0:0:0:0:
321,152,140899,1,0,0:0:0:0:
311,178,140993,1,0,0:0:0:0:
295,198,141088,1,0,0:0:0:0:
270,218,141182,1,0,0:0:0:0:
245,231,141276,1,0,0:0:0:0:
215,242,141371,5,0,0:0:0:0:
178,233,141465,1,0,0:0:0:0:
161,200,141559,1,0,0:0:0:0:
167,162,141654,1,0,0:0:0:0:
195,137,141724,1,0,0:0:0:0:
234,144,141842,1,0,0:0:0:0:
254,179,141937,1,0,0:0:0:0:
270,203,142031,1,0,0:0:0:0:
301,232,142125,1,0,0:0:0:0:
332,239,142220,1,0,0:0:0:0:
369,227,142314,1,0,0:0:0:0:
400,210,142408,6,0,L|434:167,2,40
391,268,142880,1,0,0:0:0:0:
346,301,142974,1,0,0:0:0:0:
292,291,143069,1,0,0:0:0:0:
260,245,143163,1,0,0:0:0:0:
250,192,143257,1,0,0:0:0:0:
267,139,143352,1,0,0:0:0:0:
234,93,143446,1,0,0:0:0:0:
179,86,143540,1,0,0:0:0:0:
419,167,143823,5,8,0:0:0:0:
330,87,144106,1,8,0:0:0:0:
231,19,144389,1,8,0:0:0:0:
