osu file format v14

[General]
AudioFilename: audio.mp3
AudioLeadIn: 0
PreviewTime: 81937
Countdown: 0
SampleSet: Normal
StackLeniency: 0.7
Mode: 0
LetterboxInBreaks: 0
WidescreenStoryboard: 1

[Editor]
DistanceSpacing: 0.9
BeatDivisor: 6
GridSize: 32
TimelineZoom: 1

[Metadata]
Title:Monster (Nightcore Mix)
TitleUnicode:Monster (Nightcore Mix)
Artist:Meg & Dia
ArtistUnicode:Meg & Dia
Creator:CaptainCraft300
Version:Bakemono
Source:
Tags:monster speed up
BeatmapID:997195
BeatmapSetID:465423

[Difficulty]
HPDrainRate:6.5
CircleSize:4.5
OverallDifficulty:6
ApproachRate:9
SliderMultiplier:1.6
SliderTickRate:2

[Events]
//Background and Video events
0,0,"monstah.jpg",0,0
//Break Periods
//Storyboard Layer 0 (Background)
//Storyboard Layer 1 (Fail)
//Storyboard Layer 2 (Pass)
//Storyboard Layer 3 (Foreground)
//Storyboard Sound Samples

[TimingPoints]
10616.3460423467,566.037735849057,4,1,0,100,1,0

[HitObjects]
156,120,10616,5,0,0:0:0:0:
425,231,11182,2,0,B|391:264|337:264|297:249|281:214,1,160
394,77,12314,1,0,0:0:0:0:
376,183,12880,6,8,P|421:233|347:266,1,160
199,235,14012,2,8,P|146:172|204:163,1,160
397,102,15144,1,4,0:0:0:0:
182,211,15710,5,0,0:0:0:0:
378,104,16276,1,0,0:0:0:0:
357,271,16842,1,0,0:0:0:0:
193,83,17408,1,0,0:0:0:0:
443,182,17974,1,0,0:0:0:0:
136,270,18540,1,4,0:0:0:0:
121,247,18635,5,0,0:0:0:0:
119,220,18729,1,0,0:0:0:0:
131,198,18823,1,0,0:0:0:0:
154,187,18918,1,0,0:0:0:0:
177,183,19012,1,0,0:0:0:0:
195,166,19106,1,0,0:0:0:0:
213,152,19201,1,0,0:0:0:0:
213,130,19295,1,0,0:0:0:0:
208,107,19389,2,8,L|195:82,1,26.6666666666667
403,81,19672,5,0,0:0:0:0:
156,259,20238,1,0,0:0:0:0:
478,269,20805,5,8,0:0:0:0:
396,144,21088,1,8,0:0:0:0:
307,268,21371,1,8,0:0:0:0:
237,55,21937,5,0,0:0:0:0:
131,280,22503,1,0,0:0:0:0:
391,67,23069,5,8,0:0:0:0:
394,298,23352,1,8,0:0:0:0:
187,181,23635,1,8,0:0:0:0:
320,79,24201,6,0,P|386:71|380:85,1,133.333333333333
132,302,25050,1,4,0:0:0:0:
175,105,25899,5,0,0:0:0:0:
461,292,26182,1,0,0:0:0:0:
403,120,26465,2,0,L|465:58,1,80
292,177,27031,5,0,0:0:0:0:
283,199,27125,1,0,0:0:0:0:
274,222,27220,1,0,0:0:0:0:
265,243,27314,1,0,0:0:0:0:
110,290,27597,5,0,0:0:0:0:
446,84,27880,1,0,0:0:0:0:
102,46,28163,1,4,0:0:0:0:
97,277,28823,5,0,0:0:0:0:
398,76,29389,1,0,0:0:0:0:
203,111,29955,2,0,L|125:78,1,80
445,325,30522,1,0,0:0:0:0:
339,47,30993,5,0,0:0:0:0:
125,315,31559,1,4,0:0:0:0:
102,176,32125,1,8,0:0:0:0:
456,125,32408,1,8,0:0:0:0:
121,333,32691,1,12,0:0:0:0:
287,235,33069,5,0,0:0:0:0:
333,195,33257,2,0,P|355:160|268:102,1,160
89,220,34201,2,0,B|105:269|169:255|197:180|233:160|289:195|320:213,1,240
86,53,35616,5,8,0:0:0:0:
273,265,35899,1,8,0:0:0:0:
202,38,36182,1,8,0:0:0:0:
195,350,36465,1,8,0:0:0:0:
316,40,36748,1,8,0:0:0:0:
53,335,37031,1,8,0:0:0:0:
480,29,37314,1,4,0:0:0:0:
162,81,37880,6,0,P|144:132|228:160,1,160
73,311,39012,1,4,0:0:0:0:
457,149,39578,5,0,0:0:0:0:
159,203,39955,1,8,0:0:0:0:
256,61,40144,1,8,0:0:0:0:
174,245,40710,6,0,B|190:280|298:280|306:225,1,160
393,78,41842,6,0,L|342:155,1,80
292,175,42408,2,0,L|209:192,1,80
150,181,42974,2,0,L|100:117,1,80
165,106,43540,5,8,0:0:0:0:
233,117,43823,1,8,0:0:0:0:
299,134,44106,2,0,L|351:204,1,80
181,313,44672,5,0,0:0:0:0:
270,73,45238,5,0,0:0:0:0:
455,290,45805,5,0,0:0:0:0:
79,181,46371,5,4,0:0:0:0:
359,55,46937,6,0,L|423:108,1,80
238,62,47503,2,0,L|297:124,1,80
94,58,48069,2,0,L|151:126,1,80
61,231,48635,5,8,0:0:0:0:
209,289,48918,1,8,0:0:0:0:
358,263,49201,1,8,0:0:0:0:
416,127,49484,1,8,0:0:0:0:
170,76,49767,5,4,0:0:0:0:
445,282,50333,5,8,0:0:0:0:
262,48,50616,1,8,0:0:0:0:
105,284,50899,1,4,0:0:0:0:
205,193,51465,5,0,0:0:0:0:
295,26,51748,1,0,0:0:0:0:
360,189,52031,1,0,0:0:0:0:
181,86,52314,1,0,0:0:0:0:
404,88,52597,1,0,0:0:0:0:
238,189,52880,1,0,0:0:0:0:
297,114,53163,5,4,0:0:0:0:
78,210,53729,5,0,0:0:0:0:
451,118,54295,1,0,0:0:0:0:
189,87,54861,5,8,0:0:0:0:
428,234,55144,1,8,0:0:0:0:
60,114,55427,1,8,0:0:0:0:
225,68,55710,5,0,0:0:0:0:
268,115,55805,1,0,0:0:0:0:
278,177,55899,1,0,0:0:0:0:
239,226,55993,1,4,0:0:0:0:
162,101,56654,6,0,P|225:58|322:78,1,160
173,119,57786,5,0,0:0:0:0:
189,142,57880,1,0,0:0:0:0:
205,164,57974,1,0,0:0:0:0:
221,183,58069,1,0,0:0:0:0:
237,205,58163,1,0,0:0:0:0:
257,224,58257,6,0,L|345:237,1,80
398,78,58823,1,4,0:0:0:0:
73,252,59389,6,8,L|90:221,1,26.6666666666667
132,188,59578,1,8,0:0:0:0:
188,157,59672,1,8,0:0:0:0:
382,103,59955,6,4,L|361:130,2,26.6666666666667
107,214,60616,5,0,0:0:0:0:
285,92,60899,1,0,0:0:0:0:
348,289,61182,1,4,0:0:0:0:
439,137,61559,5,0,0:0:0:0:
138,245,61937,1,0,0:0:0:0:
216,26,62314,1,4,0:0:0:0:
429,179,62880,6,0,L|343:221,1,80
379,62,63446,1,4,0:0:0:0:
332,230,64012,5,0,0:0:0:0:
281,230,64106,1,0,0:0:0:0:
237,198,64201,1,0,0:0:0:0:
212,152,64295,1,0,0:0:0:0:
200,101,64389,1,0,0:0:0:0:
167,59,64484,1,0,0:0:0:0:
114,51,64578,1,0,0:0:0:0:
64,65,64672,1,0,0:0:0:0:
28,101,64767,1,0,0:0:0:0:
20,154,64861,1,0,0:0:0:0:
43,202,64955,1,0,0:0:0:0:
173,240,65144,5,4,0:0:0:0:
402,243,65710,1,0,0:0:0:0:
283,70,66276,1,0,0:0:0:0:
126,143,66559,1,0,0:0:0:0:
438,178,66842,1,4,0:0:0:0:
366,92,67408,6,0,B|418:121|416:192|387:236,1,160
122,188,68540,2,0,P|141:146|178:124,1,80
376,52,69106,1,4,0:0:0:0:
121,117,69672,5,0,0:0:0:0:
407,248,70144,1,8,0:0:0:0:
402,110,70522,5,4,0:0:0:0:
173,194,71371,6,0,L|218:122,1,80
328,150,71937,2,0,P|374:184|386:206,1,80
312,274,72503,5,8,0:0:0:0:
129,205,72786,1,8,0:0:0:0:
212,84,73069,6,0,L|287:57,1,80
352,76,73635,2,0,P|389:92|420:125,1,80
303,264,74201,5,0,0:0:0:0:
332,66,74484,1,0,0:0:0:0:
130,79,74767,1,4,0:0:0:0:
92,176,75333,5,0,0:0:0:0:
218,277,75616,1,0,0:0:0:0:
45,27,75899,1,4,0:0:0:0:
336,82,76465,6,0,L|407:146,1,80
130,164,77031,1,4,0:0:0:0:
310,248,77597,6,0,P|353:247|389:220,1,80
450,67,78163,1,4,0:0:0:0:
217,90,78729,5,8,0:0:0:0:
117,218,79012,5,0,0:0:0:0:
126,242,79106,1,0,0:0:0:0:
141,262,79201,1,0,0:0:0:0:
165,277,79295,1,0,0:0:0:0:
195,283,79389,1,0,0:0:0:0:
223,279,79484,1,0,0:0:0:0:
256,122,79861,5,0,0:0:0:0:
306,102,79955,1,0,0:0:0:0:
361,100,80050,1,0,0:0:0:0:
409,126,80144,1,0,0:0:0:0:
437,175,80238,1,0,0:0:0:0:
439,229,80333,1,0,0:0:0:0:
256,192,80427,12,0,81559,0:0:0:0:
128,122,82125,6,0,L|216:109,1,80
329,121,82691,1,8,0:0:0:0:
429,204,82974,1,8,0:0:0:0:
323,277,83257,1,8,0:0:0:0:
229,179,83540,1,8,0:0:0:0:
332,68,83823,6,0,L|417:65,1,80
335,187,84389,1,8,0:0:0:0:
335,187,84672,1,8,0:0:0:0:
265,292,85050,6,0,L|357:294,1,80
445,197,85616,1,8,0:0:0:0:
445,197,85899,1,8,0:0:0:0:
440,44,86182,6,0,L|367:106,1,80
226,200,86748,2,0,L|312:145,1,80
242,46,87314,1,8,0:0:0:0:
436,175,87597,1,8,0:0:0:0:
412,24,87880,1,8,0:0:0:0:
259,201,88163,1,8,0:0:0:0:
446,323,88446,6,0,L|374:249,1,80
99,321,89012,2,0,L|150:253,1,80
257,342,89578,1,8,0:0:0:0:
258,186,89861,1,8,0:0:0:0:
256,41,90144,2,0,L|256:131,1,80
257,346,90710,5,8,0:0:0:0:
256,188,90993,1,8,0:0:0:0:
64,189,91276,6,0,L|146:189,1,80
318,191,91842,1,8,0:0:0:0:
318,191,92125,1,8,0:0:0:0:
318,191,92408,2,0,L|422:188,1,80
342,57,92974,6,0,L|256:54,1,80
132,105,93540,1,8,0:0:0:0:
169,240,93823,1,8,0:0:0:0:
209,25,94106,1,8,0:0:0:0:
313,300,94389,1,8,0:0:0:0:
311,50,94672,1,8,0:0:0:0:
157,331,94955,1,8,0:0:0:0:
322,262,95238,6,0,L|406:224,1,80
151,245,95805,2,0,L|230:208,1,80
9,204,96371,1,8,0:0:0:0:
153,88,96654,1,8,0:0:0:0:
336,102,96937,1,8,0:0:0:0:
474,215,97220,1,8,0:0:0:0:
335,311,97503,6,0,L|235:304,1,80
137,253,98069,2,0,L|101:181,1,80
159,75,98635,2,0,L|255:53,1,80
398,163,99201,1,8,0:0:0:0:
398,163,99484,1,8,0:0:0:0:
246,243,99767,1,8,0:0:0:0:
246,243,100050,1,8,0:0:0:0:
142,166,100333,5,0,0:0:0:0:
182,44,100616,1,0,0:0:0:0:
232,165,100899,1,0,0:0:0:0:
101,84,101182,1,0,0:0:0:0:
255,84,101465,1,0,0:0:0:0:
142,166,101748,1,0,0:0:0:0:
317,192,102031,5,8,0:0:0:0:
439,306,102220,1,8,0:0:0:0:
315,77,102597,6,0,L|219:81,1,80
149,182,103163,2,0,L|215:262,1,80
340,237,103729,2,0,L|407:182,1,80
169,183,104295,5,8,0:0:0:0:
47,56,104484,1,8,0:0:0:0:
377,73,104861,6,0,L|383:102,3,26.6666666666667
375,226,105427,1,0,0:0:0:0:
242,269,105710,1,0,0:0:0:0:
140,164,105993,1,0,0:0:0:0:
217,38,106276,1,0,0:0:0:0:
331,122,106559,5,8,0:0:0:0:
374,264,106748,1,8,0:0:0:0:
133,99,107125,6,0,L|154:130,3,26.6666666666667
362,124,107691,1,0,0:0:0:0:
146,272,107974,1,0,0:0:0:0:
361,268,108257,1,0,0:0:0:0:
257,61,108540,1,0,0:0:0:0:
255,234,108823,6,8,L|254:295,1,53.3333333333333
396,78,109484,6,0,L|457:154,1,80
425,250,110050,2,0,L|361:301,1,80
297,153,110616,1,0,0:0:0:0:
297,153,110899,1,0,0:0:0:0:
184,58,111182,5,8,0:0:0:0:
103,284,111371,1,8,0:0:0:0:
396,103,111748,6,0,L|418:139,3,26.6666666666667
368,220,112314,1,0,0:0:0:0:
184,280,112597,1,0,0:0:0:0:
64,144,112880,1,0,0:0:0:0:
181,9,113163,1,0,0:0:0:0:
332,85,113446,5,8,0:0:0:0:
485,243,113635,1,8,0:0:0:0:
146,203,114012,6,0,L|143:172,3,26.6666666666667
365,187,114578,1,0,0:0:0:0:
67,197,114861,1,0,0:0:0:0:
346,58,115144,1,0,0:0:0:0:
144,292,115427,1,0,0:0:0:0:
336,228,115710,5,8,0:0:0:0:
434,140,115899,1,8,0:0:0:0:
230,46,116276,6,0,L|232:82,3,26.6666666666667
116,173,116842,1,0,0:0:0:0:
222,295,117125,1,0,0:0:0:0:
340,174,117408,1,0,0:0:0:0:
466,61,117691,1,0,0:0:0:0:
177,76,117974,6,8,L|133:123,1,53.3333333333333
256,192,118257,12,0,121371,0:0:0:0:
123,163,121937,6,0,B|143:118|184:98|227:85|254:84,1,160
371,252,123069,1,4,0:0:0:0:
295,107,123635,5,8,0:0:0:0:
157,212,123918,1,8,0:0:0:0:
392,245,124201,1,8,0:0:0:0:
150,63,124484,1,8,0:0:0:0:
93,204,124767,6,0,P|97:234|154:260,1,80
168,162,125333,2,0,P|200:161|225:212,1,80
341,161,125899,5,0,0:0:0:0:
362,151,125993,1,0,0:0:0:0:
383,139,126088,1,0,0:0:0:0:
208,240,126465,6,0,L|136:191,1,80
327,142,127031,1,8,0:0:0:0:
327,142,127314,1,8,0:0:0:0:
230,267,127597,1,8,0:0:0:0:
230,267,127880,1,8,0:0:0:0:
288,58,128163,6,0,L|372:61,1,80
76,174,128729,2,0,L|153:192,1,80
292,294,129295,1,8,0:0:0:0:
465,142,129578,1,8,0:0:0:0:
205,37,129861,1,8,0:0:0:0:
176,213,130144,1,8,0:0:0:0:
386,139,130427,1,8,0:0:0:0:
329,320,130710,1,8,0:0:0:0:
114,201,130993,6,0,L|114:221,2,13.3333333333333
212,85,131276,2,0,L|212:61,2,13.3333333333333
442,120,131559,6,0,L|458:112,2,13.3333333333333
177,262,131842,2,0,L|157:274,2,13.3333333333333
141,64,132125,6,0,L|127:46,2,13.3333333333333
411,282,132408,2,0,L|422:290,2,13.3333333333333
213,266,132691,5,8,0:0:0:0:
180,223,132786,1,8,0:0:0:0:
165,170,132880,1,8,0:0:0:0:
183,120,132974,1,8,0:0:0:0:
344,69,133257,5,0,0:0:0:0:
424,268,133540,1,0,0:0:0:0:
447,28,133823,1,0,0:0:0:0:
247,320,134106,1,0,0:0:0:0:
171,76,134389,5,8,0:0:0:0:
171,76,134672,1,8,0:0:0:0:
287,317,134955,1,8,0:0:0:0:
287,317,135238,1,8,0:0:0:0:
326,84,135522,6,0,L|406:117,1,80
410,239,136088,2,0,L|331:276,1,80
106,63,136654,2,0,L|185:107,1,80
90,284,137220,2,0,L|169:252,1,80
398,48,137880,5,8,0:0:0:0:
88,313,138446,1,8,0:0:0:0:
149,60,139012,1,8,0:0:0:0:
435,295,139578,1,4,0:0:0:0:
388,88,140144,5,0,0:0:0:0:
344,81,140238,1,0,0:0:0:0:
299,75,140333,1,0,0:0:0:0:
255,68,140427,1,0,0:0:0:0:
212,72,140522,1,0,0:0:0:0:
168,93,140616,1,0,0:0:0:0:
142,129,140710,1,0,0:0:0:0:
124,169,140805,1,0,0:0:0:0:
113,213,140899,1,0,0:0:0:0:
123,255,140993,1,0,0:0:0:0:
149,292,141088,1,0,0:0:0:0:
189,311,141182,1,0,0:0:0:0:
234,324,141276,6,8,L|331:308,1,80
366,299,141654,5,0,0:0:0:0:
410,266,141748,1,0,0:0:0:0:
432,217,141842,1,0,0:0:0:0:
432,165,141937,1,0,0:0:0:0:
419,112,142031,1,0,0:0:0:0:
392,66,142125,1,0,0:0:0:0:
344,42,142220,1,0,0:0:0:0:
291,35,142314,1,0,0:0:0:0:
238,37,142408,1,0,0:0:0:0:
190,62,142503,1,0,0:0:0:0:
158,105,142597,1,0,0:0:0:0:
150,157,142691,1,0,0:0:0:0:
158,211,142786,1,0,0:0:0:0:
188,255,142880,1,0,0:0:0:0:
228,292,142974,1,0,0:0:0:0:
281,298,143069,1,0,0:0:0:0:
332,283,143163,1,0,0:0:0:0:
372,247,143257,1,0,0:0:0:0:
400,201,143352,1,0,0:0:0:0:
409,147,143446,1,0,0:0:0:0:
387,97,143540,1,0,0:0:0:0:
348,60,143635,1,0,0:0:0:0:
296,50,143729,1,0,0:0:0:0:
243,58,143823,5,8,0:0:0:0:
136,199,144106,1,8,0:0:0:0:
334,197,144389,1,4,0:0:0:0:
