osu file format v14

[General]
AudioFilename: audio.mp3
AudioLeadIn: 0
PreviewTime: 27642
Countdown: 1
SampleSet: Soft
StackLeniency: 0.7
Mode: 0
LetterboxInBreaks: 0
WidescreenStoryboard: 0

[Editor]
DistanceSpacing: 1
BeatDivisor: 4
GridSize: 4
TimelineZoom: 1

[Metadata]
Title:Monster (DotEXE Remix)
TitleUnicode:Monster (DotEXE Remix)
Artist:Meg & Dia
ArtistUnicode:Meg & Dia
Creator:Nokome
Version:Easy
Source:
Tags:Remix Monster Inde DotEXE
BeatmapID:2047148
BeatmapSetID:978183

[Difficulty]
HPDrainRate:3
CircleSize:2.5
OverallDifficulty:2
ApproachRate:3
SliderMultiplier:0.9
SliderTickRate:1

[Events]
//Background and Video events
0,0,"Monster.jpg",0,0
//Break Periods
//Storyboard Layer 0 (Background)
//Storyboard Layer 1 (Fail)
//Storyboard Layer 2 (Pass)
//Storyboard Layer 3 (Foreground)
//Storyboard Layer 4 (Overlay)
//Storyboard Sound Samples

[TimingPoints]
187,428.571428571429,4,2,0,60,1,0
13901,-90.9090909090909,4,2,0,75,0,0
27615,-90.9090909090909,4,2,0,85,0,0
41329,-86.9565217391304,4,1,0,100,0,1
68758,-90.9090909090909,4,2,0,75,0,0
89329,-100,4,2,0,30,0,0
94472,-100,4,2,0,30,0,0

[Colours]
Combo1 : 82,82,82
Combo2 : 255,0,0
Combo3 : 45,45,45
Combo4 : 192,192,192
Combo5 : 240,78,0

[HitObjects]
32,320,187,6,0,B|101:260|101:260|142:140,1,180,8|0,0:0|0:0,0:0:0:0:
208,14,1901,2,0,B|287:54|287:54|306:151,1,180,8|0,0:0|0:0,0:0:0:0:
252,316,3615,2,0,B|164:292|164:292|141:203,1,180,8|0,0:0|0:0,0:0:0:0:
148,28,5329,2,0,B|236:28|236:28|324:92|324:92,1,180,8|0,0:0|0:0,0:0:0:0:
360,256,7044,38,0,P|280:288|184:256,1,180,8|0,0:0|0:0,0:0:0:0:
328,144,8758,2,0,P|243:118|160:150,1,180,8|0,0:0|0:0,0:0:0:0:
40,280,10472,2,0,B|24:192|24:192|72:104,1,180,8|0,0:0|0:0,0:0:0:0:
244,76,12187,2,0,B|292:76|292:76|340:124|340:124|404:124,1,180,8|0,0:0|0:0,0:0:0:0:
400,212,13472,5,2,0:0:0:0:
380,308,13901,2,0,B|316:308|316:308|268:260|268:260|188:260,1,198.000006042481,4|4,0:0|0:0,0:0:0:0:
104,88,15615,2,0,P|204:57|306:68,1,198.000006042481,4|4,0:0|0:0,0:0:0:0:
360,252,17329,2,0,B|296:252|296:252|248:300|248:300|152:300,1,198.000006042481,4|4,0:0|0:0,0:0:0:0:
8,204,19044,2,0,B|8:104|8:104|104:28|104:28,1,198.000006042481,12|4,0:0|0:0,0:0:0:0:
184,48,20329,1,0,0:0:0:0:
284,48,20758,38,0,B|356:116|356:116|356:220,1,198.000006042481,4|4,0:0|0:0,0:0:0:0:
168,284,22472,2,0,B|99:210|99:210|172:142,1,198.000006042481,4|4,0:0|0:0,0:0:0:0:
368,124,24187,2,0,P|368:316|352:348,1,198.000006042481,4|4,0:0|0:0,0:0:0:0:
272,344,25472,1,0,0:0:0:0:
176,312,25901,2,0,P|176:216|192:168,2,99.0000030212403,0|4|0,0:0|0:0|0:0,0:0:0:0:
284,144,27615,54,0,P|346:128|381:136,1,99.0000030212403,4|0,0:0|0:0,0:0:0:0:
438,216,28472,2,0,P|391:231|342:225,1,99.0000030212403,4|0,0:0|0:0,0:0:0:0:
244,216,29329,1,0,0:0:0:0:
144,216,29758,2,0,B|176:280|176:280|176:344,2,99.0000030212403,0|4|0,0:0|0:0|0:0,0:0:0:0:
128,120,31044,22,0,L|32:168,1,99.0000030212403,4|0,0:0|0:0,0:0:0:0:
36,264,31901,1,0,0:0:0:0:
136,268,32329,2,0,B|136:332|136:332|184:380,2,99.0000030212403
224,220,33615,1,0,0:0:0:0:
260,312,34044,38,0,B|324:312|324:312|352:291,2,99.0000030212403,0|4|0,0:0|0:0|0:0,0:0:0:0:
288,216,35329,1,0,0:0:0:0:
200,172,35758,22,0,B|232:124|232:124|280:92,2,99.0000030212403,0|4|0,0:0|0:0|0:0,0:0:0:0:
220,268,37044,2,0,P|268:300|348:300,1,99.0000030212403
328,208,37901,6,0,P|288:179|240:169,1,99.0000030212403,0|4,0:0|0:0,0:0:0:0:
312,100,38758,2,0,P|360:132|440:132,1,99.0000030212403,0|4,0:0|0:0,0:0:0:0:
500,148,39615,2,0,P|484:196|420:244,1,99.0000030212403,4|4,0:0|0:0,0:0:0:0:
352,224,40472,1,0,0:0:0:0:
352,224,40901,1,0,0:0:0:0:
256,188,41329,22,0,B|280:88|280:88|184:40,1,207.000003948212
88,16,42615,1,0,0:0:0:0:
0,72,43044,2,0,B|28:172|28:172|136:140,1,207.000003948212
160,240,44329,1,0,0:0:0:0:
256,276,44758,54,0,P|256:212|208:164,1,103.500001974106
204,84,45615,1,8,0:0:0:0:
100,84,46044,1,8,0:0:0:0:
0,84,46472,2,0,L|0:196,1,103.500001974106,8|0,0:0|0:0,0:0:0:0:
48,280,47329,2,0,B|112:280|112:280|192:248,1,103.500001974106
248,292,48187,6,0,P|312:292|360:260,2,103.500001974106
216,196,49472,1,8,0:0:0:0:
316,168,49901,2,0,B|300:152|300:152|300:72,1,103.500001974106,8|0,0:0|0:0,0:0:0:0:
404,72,50758,1,0,0:0:0:0:
408,176,51187,1,0,0:0:0:0:
408,280,51615,54,8,B|446:287|446:287|510:287,2,103.500001974106
312,236,52901,1,8,0:0:0:0:
212,264,53329,2,0,B|148:184|148:184|228:88,1,207.000003948212
288,28,54615,1,0,0:0:0:0:
392,32,55044,6,0,B|392:145|392:145|344:225,1,207.000003948212
248,188,56329,2,0,L|184:284,1,103.500001974106
120,348,57187,1,8,0:0:0:0:
44,276,57615,1,8,0:0:0:0:
124,208,58044,1,8,0:0:0:0:
72,120,58472,54,0,B|40:88|40:88|40:24,1,103.500001974106,8|0,0:0|0:0,0:0:0:0:
144,40,59329,2,0,P|208:72|240:104,2,103.500001974106
64,108,60615,1,8,0:0:0:0:
80,212,61044,2,0,L|208:212,1,103.500001974106
288,204,61901,5,8,0:0:0:0:
336,296,62329,2,0,L|432:248,2,103.500001974106
236,328,63615,2,0,L|128:344,1,103.500001974106
56,272,64472,1,8,0:0:0:0:
36,172,64901,1,8,0:0:0:0:
120,112,65329,54,0,P|216:112|264:128,2,103.500001974106,8|0|8,0:0|0:0|0:0,0:0:0:0:
112,8,66615,1,0,0:0:0:0:
216,8,67044,2,0,P|268:4|318:15,1,103.500001974106
376,100,67901,2,0,P|324:104|273:92,1,103.500001974106
216,188,68758,38,0,B|408:256,1,198.000006042481,8|4,0:0|0:0,0:0:0:0:
232,352,70472,2,0,B|45:285,1,198.000006042481,8|4,0:0|0:0,0:0:0:0:
160,124,72187,2,0,B|260:120|260:120|304:220,1,198.000006042481,0|4,0:0|0:0,0:0:0:0:
184,372,73901,2,0,B|184:308|184:308|216:276,1,99.0000030212403
276,356,74758,2,0,B|300:331|300:331|300:267,1,99.0000030212403
308,168,75615,22,0,B|244:168|244:168|196:216|196:216|196:312,1,198.000006042481,0|4,0:0|0:0,0:0:0:0:
368,376,77329,2,0,B|432:376|432:376|480:328|480:328|480:232,1,198.000006042481,0|4,0:0|0:0,0:0:0:0:
396,84,79044,2,0,B|496:84|496:84|496:184,1,198.000006042481,0|4,0:0|0:0,0:0:0:0:
364,332,80758,2,0,B|264:332|264:332|264:232,1,198.000006042481,0|4,0:0|0:0,0:0:0:0:
200,156,82044,1,0,0:0:0:0:
104,184,82472,38,0,L|104:392,1,198.000006042481,0|4,0:0|0:0,0:0:0:0:
304,380,84187,2,0,B|400:360|400:360|432:260,1,198.000006042481,0|4,0:0|0:0,0:0:0:0:
420,68,85901,2,0,B|375:68|375:68|327:36|327:36|231:36,1,198.000006042481,0|4,0:0|0:0,0:0:0:0:
140,212,87615,2,0,B|169:212|169:212|217:244|217:244|329:244,1,198.000006042481,0|4,0:0|0:0,0:0:0:0:
480,148,89329,6,0,B|414:148|414:148|366:132|366:132|302:132,1,180
164,248,91044,2,0,B|244:248|244:248|276:232|276:232|340:232,1,180
256,192,92758,12,0,96187,0:0:0:0:
