osu file format v14

[General]
AudioFilename: Meg & Dia - Monster (DotEXE Dubstep Remix).mp3
AudioLeadIn: 2000
PreviewTime: 180
Countdown: 0
SampleSet: Normal
StackLeniency: 0.7
Mode: 0
LetterboxInBreaks: 1
EpilepsyWarning: 1
WidescreenStoryboard: 1

[Editor]
Bookmarks: 140179
DistanceSpacing: 0.7
BeatDivisor: 4
GridSize: 4
TimelineZoom: 3.499998

[Metadata]
Title:Monster (DotEXE Remix) (Nightcore Mix)
TitleUnicode:Monster (DotEXE Remix) (Nightcore Mix)
Artist:Meg & Dia
ArtistUnicode:Meg & Dia
Creator:moonlightleaf
Version:Insane
Source:
Tags:Electronic and English Sped Up Dreamworld
BeatmapID:584313
BeatmapSetID:254801

[Difficulty]
HPDrainRate:6
CircleSize:4
OverallDifficulty:6.5
ApproachRate:8
SliderMultiplier:1.7
SliderTickRate:1

[Events]
//Background and Video events
0,0,"bg.jpg",0,0
//Break Periods
//Storyboard Layer 0 (Background)
//Storyboard Layer 1 (Fail)
//Storyboard Layer 2 (Pass)
//Storyboard Layer 3 (Foreground)
//Storyboard Layer 4 (Overlay)
//Storyboard Sound Samples

[TimingPoints]
180,357.142857142857,4,2,1,40,1,0
11608,-100,4,2,1,60,0,0
23037,-100,4,1,1,50,0,0
34465,-100,4,1,1,80,0,1
35090,-100,4,1,1,5,0,1
35179,-100,4,1,1,80,0,1
36787,-100,4,1,1,5,0,1
36965,-100,4,1,1,80,0,1
40090,-100,4,1,1,5,0,1
40179,-100,4,1,1,80,0,1
40358,-100,4,1,1,5,0,1
40537,-100,4,1,1,80,0,1
43215,-100,4,1,1,5,0,1
43394,-100,4,1,1,80,0,1
43572,-100,4,1,1,5,0,1
43751,-100,4,1,1,80,0,1
46787,-100,4,1,1,5,0,1
46965,-100,4,1,1,80,0,1
47144,-100,4,1,1,5,0,1
47322,-100,4,1,1,80,0,1
48929,-100,4,1,1,5,0,1
49108,-100,4,1,1,80,0,1
49287,-100,4,1,1,5,0,1
49465,-100,4,1,1,80,0,1
51787,-100,4,1,1,5,0,1
51965,-100,4,1,1,80,0,1
52144,-100,4,1,1,5,0,1
52233,-100,4,1,1,80,0,1
54644,-100,4,1,1,5,0,1
54822,-100,4,1,1,80,0,1
55001,-100,4,1,1,5,0,1
55179,-100,4,1,1,80,0,1
55894,-100,4,2,2,80,0,1
57322,-100,4,1,1,80,0,1
60358,-100,4,1,1,5,0,1
60537,-100,4,1,1,80,0,1
60715,-100,4,1,1,5,0,1
60894,-100,4,1,1,80,0,1
62947,-100,4,1,1,5,0,1
63037,-100,4,1,1,80,0,1
63215,-100,4,1,1,5,0,1
63394,-100,4,1,1,80,0,1
63572,-100,4,1,1,5,0,1
63751,-100,4,1,1,80,0,1
66072,-100,4,1,1,5,0,1
66251,-100,4,1,1,80,0,1
66429,-100,4,1,1,5,0,1
66608,-100,4,1,1,80,0,1
69644,-100,4,1,1,5,0,1
69822,-100,4,1,1,80,0,1
70001,-100,4,1,1,5,0,1
70179,-100,4,1,1,80,0,1
71787,-100,4,1,1,5,0,1
71965,-100,4,1,1,80,0,1
72144,-100,4,1,1,5,0,1
72322,-100,4,1,1,80,0,1
74376,-100,4,1,1,5,0,1
74465,-100,4,1,1,80,0,1
74644,-100,4,1,1,5,0,1
74822,-100,4,1,1,80,0,1
75001,-100,4,1,1,5,0,1
75179,-100,4,1,1,80,0,1
77501,-100,4,1,1,5,0,1
77679,-100,4,1,1,80,0,1
77858,-100,4,1,1,5,0,1
78037,-100,4,1,1,80,0,1
78751,-100,4,2,2,80,0,1
80179,-100,4,2,1,50,0,0
91251,-100,4,2,1,40,0,0
91340,-100,4,2,1,5,0,0
91608,-100,4,2,1,50,0,0
100715,-100,4,2,1,40,0,0
101608,-100,4,2,1,60,0,0
103037,-100,4,1,1,70,0,0
103215,-100,4,1,1,5,0,0
103394,-100,4,1,1,70,0,0
113037,-100,4,1,1,40,0,0
113929,-100,4,1,1,5,0,0
114108,-100,4,1,1,70,0,0
114465,-100,4,1,1,85,0,1
117501,-100,4,1,1,5,0,1
117679,-100,4,1,1,85,0,1
117858,-100,4,1,1,5,0,1
118037,-100,4,1,1,85,0,1
120090,-100,4,1,1,5,0,1
120179,-100,4,1,1,85,0,1
120358,-100,4,1,1,5,0,1
120537,-100,4,1,1,85,0,1
120715,-100,4,1,1,5,0,1
120894,-100,4,1,1,85,0,1
123215,-100,4,1,1,5,0,1
123394,-100,4,1,1,85,0,1
123572,-100,4,1,1,5,0,1
123751,-100,4,1,1,85,0,1
126787,-100,4,1,1,5,0,1
126965,-100,4,1,1,85,0,1
127144,-100,4,1,1,5,0,1
127322,-100,4,1,1,85,0,1
128929,-100,4,1,1,5,0,1
129108,-100,4,1,1,85,0,1
129287,-100,4,1,1,5,0,1
129465,-100,4,1,1,85,0,1
131429,-100,4,1,1,5,0,1
131608,-100,4,1,1,85,0,1
131787,-100,4,1,1,5,0,1
131965,-100,4,1,1,85,0,1
132144,-100,4,1,1,5,0,1
132233,-100,4,1,1,85,0,1
134644,-100,4,1,1,5,0,1
134822,-100,4,1,1,85,0,1
135001,-100,4,1,1,5,0,1
135179,-100,4,1,1,85,0,1
135894,-100,4,2,1,85,0,1
137322,-100,4,1,1,85,0,1
139644,-100,4,1,1,5,0,1
139822,-100,4,1,1,85,0,1
140358,-100,4,1,1,5,0,1
140537,-100,4,1,1,85,0,1
140715,-100,4,1,1,5,0,1
140894,-100,4,1,1,85,0,1
142947,-100,4,1,1,5,0,1
143037,-100,4,1,1,85,0,1
143215,-100,4,1,1,5,0,1
143394,-100,4,1,1,85,0,1
143572,-100,4,1,1,5,0,1
143751,-100,4,1,1,85,0,1
146072,-100,4,1,1,5,0,1
146251,-100,4,1,1,85,0,1
146429,-100,4,1,1,5,0,1
146608,-100,4,1,1,85,0,1
148572,-100,4,1,1,5,0,1
148662,-100,4,1,1,85,0,1
149644,-100,4,1,1,5,0,1
149822,-100,4,1,1,85,0,1
150001,-100,4,1,1,5,0,1
150179,-100,4,1,1,85,0,1
151787,-100,4,1,1,5,0,1
151965,-100,4,1,1,85,0,1
152144,-100,4,1,1,5,0,1
152322,-100,4,1,1,85,0,1
154376,-100,4,1,1,5,0,1
154465,-100,4,1,1,85,0,1
154644,-100,4,1,1,5,0,1
154822,-100,4,1,1,85,0,1
155001,-100,4,1,1,5,0,1
155179,-100,4,1,1,85,0,1
157590,-100,4,1,1,5,0,1
157679,-100,4,1,1,85,0,1
157858,-100,4,1,1,5,0,1
158037,-100,4,1,1,85,0,1
158751,-100,4,2,1,85,0,1
159465,-100,4,1,1,85,0,1
160179,-100,4,2,1,50,0,0
171608,-100,4,2,1,40,0,0
173037,-100,4,2,1,30,0,0
177322,-100,4,2,1,25,0,0
178751,-100,4,2,1,20,0,0

[Colours]
Combo1 : 172,172,255
Combo2 : 255,128,192
Combo3 : 255,173,91

[HitObjects]
335,268,180,5,2,0:0:0:0:
352,306,537,1,0,0:0:0:0:
373,147,1251,6,0,L|234:135,1,127.5,0|0,0:0|0:0,0:0:0:0:
205,125,1608,5,2,0:0:0:0:
211,169,1965,1,0,0:0:0:0:
103,260,2679,5,0,0:0:0:0:
169,313,2858,1,0,0:0:0:0:
284,257,3037,5,2,0:0:0:0:
274,304,3394,1,0,0:0:0:0:
197,136,4108,5,0,0:0:0:0:
270,181,4287,1,0,0:0:0:0:
347,145,4465,6,0,L|419:100,1,85,2|0,0:0|0:0,0:0:0:0:
439,182,4822,2,0,L|366:226,1,85,2|0,0:0|0:0,0:0:0:0:
270,181,5179,2,0,L|197:136,1,85,2|0,0:0|0:0,0:0:0:0:
133,192,5537,2,0,L|205:236,1,85,2|0,0:0|0:0,0:0:0:0:
317,299,5894,5,2,0:0:0:0:
303,346,6251,1,0,0:0:0:0:
205,236,6965,6,0,L|74:202,1,127.5,0|0,0:0|0:0,0:0:0:0:
42,194,7322,5,2,0:0:0:0:
53,235,7679,1,0,0:0:0:0:
135,64,8394,5,0,0:0:0:0:
204,112,8572,1,0,0:0:0:0:
321,61,8751,5,2,0:0:0:0:
341,101,9108,1,0,0:0:0:0:
388,243,9822,5,0,0:0:0:0:
310,277,10001,1,0,0:0:0:0:
259,209,10179,2,0,L|259:97,1,85,2|0,0:0|0:0,0:0:0:0:
342,107,10537,2,0,L|409:162,1,85,2|0,0:0|0:0,0:0:0:0:
388,243,10894,2,0,L|310:277,1,85,2|0,0:0|0:0,0:0:0:0:
196,230,11251,5,4,0:3:0:0:
196,230,11429,5,4,0:3:0:0:
196,230,11608,6,0,B|142:253|76:202|29:223,2,170,4|0|8,1:0|0:0|0:0,0:0:0:0:
274,67,12679,2,0,L|274:194,1,127.5,0|0,0:0|0:0,0:0:0:0:
275,240,13037,2,0,L|275:336,2,85,4|0|0,1:0|0:0|0:0,0:0:0:0:
179,133,13572,1,4,0:3:0:0:
83,224,13751,2,0,L|83:309,1,85,8|0,0:0|0:0,0:0:0:0:
63,127,14108,1,0,0:0:0:0:
169,223,14287,1,0,0:0:0:0:
261,127,14465,6,0,P|220:56|139:59,2,170,4|0|8,1:0|0:0|0:0,0:0:0:0:
261,127,15537,5,0,0:0:0:0:
257,272,15715,1,0,0:0:0:0:
379,173,15894,2,0,P|421:165|460:180,1,85,4|0,1:0|0:0,0:0:0:0:
338,279,16251,2,0,P|296:287|257:272,1,85,0|4,0:0|0:3,0:0:0:0:
304,203,16519,1,4,0:3:0:0:
304,203,16608,2,0,P|296:161|311:122,1,85,8|0,0:0|0:0,0:0:0:0:
414,249,16965,2,0,P|422:291|407:330,1,85,8|0,0:3|0:0,0:0:0:0:
257,272,17322,6,0,P|177:291|144:366,2,170,4|0|8,1:0|0:0|0:0,0:0:0:0:
95,194,18394,2,0,L|222:189,1,127.5,0|0,0:0|0:0,0:0:0:0:
265,189,18751,2,0,L|379:186,2,85,4|0|0,1:0|0:0|0:0,0:0:0:0:
169,104,19287,1,4,0:3:0:0:
95,194,19465,2,0,L|95:279,1,85,8|0,0:0|0:0,0:0:0:0:
68,91,19822,1,0,0:0:0:0:
187,189,20001,1,0,0:0:0:0:
236,39,20179,6,0,P|315:56|344:132,1,170,4|0,1:0|0:0,0:0:0:0:
285,219,20715,1,4,0:3:0:0:
285,219,20804,1,4,0:3:0:0:
285,218,20894,1,8,0:0:0:0:
206,284,21072,1,4,0:3:0:0:
152,117,21251,1,4,0:3:0:0:
118,224,21429,1,4,3:0:0:0:
257,122,21608,6,0,L|345:102,1,85,8|0,0:0|0:0,0:0:0:0:
465,142,21965,1,0,0:0:0:0:
390,235,22144,1,4,0:3:0:0:
390,235,22233,1,4,0:3:0:0:
390,235,22322,1,8,0:0:0:0:
471,321,22501,1,4,0:3:0:0:
283,256,22679,2,0,L|198:248,1,85,8|0,0:0|0:0,0:0:0:0:
328,341,23037,6,0,P|377:275|356:196,2,170,4|4|4,0:0|0:3|0:3,0:0:0:0:
328,341,24108,1,8,0:0:0:0:
247,172,24287,1,0,0:0:0:0:
206,296,24465,1,4,0:3:0:0:
356,196,24644,1,0,0:0:0:0:
169,214,24822,1,8,0:0:0:0:
169,214,25179,1,8,0:0:0:0:
169,214,25537,2,0,L|128:207,2,42.5,8|0|0,1:0|0:0|0:0,0:0:0:0:
356,196,25894,6,0,P|423:147|433:65,2,170,4|4|4,0:0|0:3|0:3,0:0:0:0:
356,196,26965,1,8,0:0:0:0:
236,83,27144,1,0,0:0:0:0:
200,177,27322,1,4,0:3:0:0:
335,95,27501,1,0,0:0:0:0:
267,246,27679,1,8,0:0:0:0:
267,246,28037,1,8,0:0:0:0:
267,246,28394,2,0,L|249:284,2,42.5,8|0|8,0:0|0:0|0:0,0:0:0:0:
236,83,28751,6,0,P|154:81|108:149,2,170,4|4|12,0:0|0:3|0:3,0:0:0:0:
236,83,29822,1,4,0:3:0:0:
328,198,30001,1,0,0:0:0:0:
174,287,30179,2,0,P|113:232|108:150,1,170,4|4,0:0|0:3,0:0:0:0:
263,280,30715,1,0,0:0:0:0:
263,280,30894,2,0,P|233:357|154:375,1,170,0|4,0:0|0:3,0:0:0:0:
30,229,31429,1,0,0:0:0:0:
30,229,31608,6,0,B|114:217,1,85,4|4,0:2|0:3,0:0:0:0:
288,189,31965,1,4,0:3:0:0:
174,287,32144,1,4,0:3:0:0:
141,134,32322,1,4,0:2:0:0:
263,280,32501,1,4,0:3:0:0:
230,117,32679,1,4,0:2:0:0:
114,217,32858,1,4,0:3:0:0:
263,280,33037,5,4,0:3:0:0:
290,287,33126,1,4,0:3:0:0:
319,284,33215,1,4,0:3:0:0:
346,273,33304,1,4,0:3:0:0:
368,252,33394,1,4,0:3:0:0:
380,226,33483,1,4,0:3:0:0:
383,197,33572,1,4,0:3:0:0:
377,167,33662,1,4,0:3:0:0:
364,140,33751,2,0,B|327:134|327:134|282:112|282:112|234:135|234:135|204:135,1,170,2|0,0:0|0:0,0:0:0:0:
267,199,34465,6,0,P|277:240|263:280,1,85,4|0,0:0|0:0,0:0:0:0:
86,279,34822,2,0,P|134:238|196:236,1,127.5,0|0,0:0|0:0,0:0:0:0:
150,216,35179,2,0,L|140:131,1,85,10|0,0:0|0:0,0:0:0:0:
34,76,35537,2,0,L|44:161,1,85,10|0,0:0|0:0,0:0:0:0:
58,334,35894,6,0,L|68:249,1,85,10|0,0:0|0:0,0:0:0:0:
140,131,36251,1,0,0:0:0:0:
196,267,36429,1,8,0:0:0:0:
351,148,36608,2,0,L|268:167,1,85,8|0,0:0|0:0,0:0:0:0:
132,215,36965,1,0,0:0:0:0:
259,320,37144,1,0,0:0:0:0:
268,166,37322,6,0,P|347:145|403:204,2,170,4|0|10,0:0|0:0|0:0,0:0:0:0:
204,284,38215,1,0,0:0:0:0:
188,139,38394,1,10,0:0:0:0:
323,224,38572,1,0,0:0:0:0:
127,225,38751,6,0,L|169:218,1,42.5,10|0,0:0|0:0,0:0:0:0:
245,276,38929,2,0,L|204:284,1,42.5,0|0,0:0|0:0,0:0:0:0:
133,324,39108,1,0,0:0:0:0:
52,184,39287,1,8,0:0:0:0:
52,184,39376,1,8,0:0:0:0:
52,184,39465,1,8,0:0:0:0:
60,276,39644,1,0,0:0:0:0:
134,136,39822,2,0,P|176:91|236:102,1,127.5,0|0,0:0|0:0,0:0:0:0:
277,128,40179,6,0,P|318:136|359:125,1,85,4|0,0:0|0:0,0:0:0:0:
456,40,40537,1,0,0:0:0:0:
504,203,40715,1,0,0:0:0:0:
504,203,40894,2,0,P|462:192|427:168,1,85,10|0,0:0|0:0,0:0:0:0:
329,308,41251,2,0,P|314:269|308:227,1,85,2|0,0:0|0:0,0:0:0:0:
149,201,41608,6,0,P|187:182|228:173,1,85,6|0,0:0|0:0,0:0:0:0:
388,211,41965,1,0,0:0:0:0:
282,87,42144,1,8,0:0:0:0:
240,254,42322,1,8,0:0:0:0:
303,180,42501,1,0,0:0:0:0:
149,201,42679,1,0,0:0:0:0:
240,339,42858,1,0,0:0:0:0:
96,271,43037,6,0,L|13:285,1,85,4|0,0:0|0:0,0:0:0:0:
12,90,43394,2,0,P|37:125|54:164,1,85,8|0,0:0|0:0,0:0:0:0:
221,327,43751,1,10,0:0:0:0:
96,271,43929,1,0,0:0:0:0:
207,185,44108,1,2,0:0:0:0:
176,257,44287,1,0,0:0:0:0:
285,113,44465,6,0,L|282:156,1,42.5,2|0,0:0|0:0,0:0:0:0:
319,284,44644,2,0,L|323:242,1,42.5,0|0,0:0|0:0,0:0:0:0:
380,158,44822,2,0,P|421:162|453:189,1,85,10|0,0:0|0:0,0:0:0:0:
472,269,45090,1,8,0:0:0:0:
472,269,45179,2,0,L|464:353,1,85,8|0,0:0|0:0,0:0:0:0:
394,234,45537,1,0,0:0:0:0:
509,138,45715,1,8,0:0:0:0:
308,192,45894,6,0,L|306:58,1,127.5,4|0,0:0|0:0,0:0:0:0:
305,26,46251,1,0,0:0:0:0:
394,149,46519,5,0,0:0:0:0:
394,149,46608,2,0,L|394:234,1,85,2|0,0:0|0:0,0:0:0:0:
317,334,46965,2,0,P|286:304|271:265,1,85,10|0,0:0|0:0,0:0:0:0:
262,123,47322,6,0,P|293:152|308:192,1,85,2|0,0:0|0:0,0:0:0:0:
317,334,47679,1,0,0:0:0:0:
183,249,47858,1,8,0:0:0:0:
373,253,48037,1,8,0:0:0:0:
154,284,48394,5,0,0:0:0:0:
345,296,48572,1,0,0:0:0:0:
246,129,48751,6,0,P|261:169|259:211,1,85,4|0,0:0|0:0,0:0:0:0:
165,366,49108,2,0,P|152:326|154:284,1,85,4|0,0:0|0:0,0:0:0:0:
155,153,49465,1,10,0:0:0:0:
295,126,49644,1,0,0:0:0:0:
116,224,49822,1,2,0:0:0:0:
241,309,50001,1,0,0:0:0:0:
94,309,50179,6,0,L|135:301,1,42.5,2|0,0:0|0:0,0:0:0:0:
239,229,50358,2,0,L|197:235,1,42.5,0|0,0:0|0:0,0:0:0:0:
116,224,50537,2,0,L|123:138,1,85,0|0,0:0|0:0,0:0:0:0:
41,74,50804,1,8,0:0:0:0:
41,74,50894,2,0,L|34:158,1,85,8|0,0:0|0:0,0:0:0:0:
21,330,51251,2,0,L|27:245,1,85,0|0,0:0|0:0,0:0:0:0:
277,232,51608,6,0,L|194:251,1,85,4|0,0:0|0:0,0:0:0:0:
360,128,51965,2,0,L|277:147,1,85,0|0,0:0|0:0,0:0:0:0:
109,125,52233,1,0,0:0:0:0:
109,125,52322,2,0,L|187:160,1,85,10|0,0:0|0:0,0:0:0:0:
152,253,52679,2,0,L|152:337,1,85,2|0,0:0|0:0,0:0:0:0:
277,232,53037,6,0,L|277:147,1,85,2|0,0:0|0:0,0:0:0:0:
371,51,53394,1,0,0:0:0:0:
419,188,53572,1,0,0:0:0:0:
277,147,53751,1,8,0:0:0:0:
442,107,53929,1,0,0:0:0:0:
363,243,54108,1,8,0:0:0:0:
288,65,54287,1,8,0:0:0:0:
254,274,54465,6,0,L|262:358,1,85,4|0,0:0|0:0,0:0:0:0:
150,161,54822,2,0,L|158:245,1,85,0|0,0:0|0:0,0:0:0:0:
12,228,55179,1,2,0:0:0:0:
94,340,55358,1,0,0:0:0:0:
183,206,55537,1,2,0:0:0:0:
101,249,55715,1,0,0:0:0:0:
277,240,55894,6,0,P|273:158|209:107,1,170,2|2,0:0|0:0,0:0:0:0:
9,214,56608,2,0,P|12:296|76:347,1,170,2|2,0:0|0:0,0:0:0:0:
263,168,57322,6,0,P|336:132|411:165,1,170,4|0,0:0|0:0,0:0:0:0:
463,296,57858,1,0,0:0:0:0:
463,296,57947,1,0,0:0:0:0:
463,296,58037,1,2,0:0:0:0:
501,205,58215,1,0,0:0:0:0:
388,348,58394,1,10,0:0:0:0:
360,230,58751,6,0,L|366:315,1,85,2|0,0:0|0:0,0:0:0:0:
432,136,59108,1,0,0:0:0:0:
280,218,59287,1,8,0:0:0:0:
451,263,59465,1,8,0:0:0:0:
382,126,59822,5,0,0:0:0:0:
354,293,60001,1,0,0:0:0:0:
239,195,60179,6,0,P|203:175|161:173,1,85,4|0,0:0|0:0,0:0:0:0:
157,340,60537,2,0,P|175:301|179:259,1,85,0|0,0:0|0:0,0:0:0:0:
48,132,60894,1,10,0:0:0:0:
94,274,61072,1,0,0:0:0:0:
0,188,61251,1,2,0:0:0:0:
64,342,61429,1,0,0:0:0:0:
125,178,61608,6,0,L|127:135,1,42.5,2|0,0:0|0:0,0:0:0:0:
215,63,61787,2,0,L|217:106,1,42.5,0|0,0:0|0:0,0:0:0:0:
222,212,61965,1,0,0:0:0:0:
131,62,62144,1,8,0:0:0:0:
131,62,62233,1,8,0:0:0:0:
131,62,62322,1,8,0:0:0:0:
121,216,62501,1,0,0:0:0:0:
259,142,62679,6,0,P|312:153|403:122,1,127.5,0|0,0:0|0:0,0:0:0:0:
337,172,63037,6,0,B|325:200|345:232|337:256,1,85,4|0,0:0|0:0,0:0:0:0:
321,90,63394,2,0,P|283:107|259:142,1,85,0|0,0:0|0:0,0:0:0:0:
263,289,63751,2,0,P|287:323|325:340,1,85,10|0,0:0|0:0,0:0:0:0:
421,208,64108,2,0,L|337:214,1,85,2|0,0:0|0:0,0:0:0:0:
152,216,64465,6,0,L|237:216,1,85,2|0,0:0|0:0,0:0:0:0:
64,271,64822,1,0,0:0:0:0:
240,141,65001,1,8,0:0:0:0:
88,121,65179,1,8,0:0:0:0:
207,309,65358,1,0,0:0:0:0:
152,216,65537,1,0,0:0:0:0:
119,358,65715,1,0,0:0:0:0:
299,291,65894,6,0,L|383:300,1,85,4|0,0:0|0:0,0:0:0:0:
494,192,66251,2,0,L|409:201,1,85,0|0,0:0|0:0,0:0:0:0:
174,157,66608,1,10,0:0:0:0:
271,217,66787,1,0,0:0:0:0:
201,81,66965,1,2,0:0:0:0:
247,288,67144,1,0,0:0:0:0:
284,116,67322,6,0,L|309:151,1,42.5,2|0,0:0|0:0,0:0:0:0:
422,209,67501,2,0,L|397:174,1,42.5,0|0,0:0|0:0,0:0:0:0:
356,79,67679,1,0,0:0:0:0:
343,265,67858,1,8,0:0:0:0:
343,265,67947,1,8,0:0:0:0:
343,265,68037,1,8,0:0:0:0:
508,182,68215,1,0,0:0:0:0:
397,174,68394,1,0,0:0:0:0:
461,288,68572,1,0,0:0:0:0:
343,265,68751,6,0,B|307:261|307:261|259:315|187:305,1,170,4|0,0:0|0:0,0:0:0:0:
96,231,69287,1,0,0:0:0:0:
222,113,69465,2,0,B|210:145|230:165|219:197,1,85,10|0,0:0|0:0,0:0:0:0:
320,283,69822,2,0,B|308:251|328:231|316:199,1,85,2|0,0:0|0:0,0:0:0:0:
405,72,70179,6,0,B|394:104|414:124|402:156,1,85,2|0,0:0|0:0,0:0:0:0:
399,284,70537,1,0,0:0:0:0:
298,124,70715,1,8,0:0:0:0:
495,142,70894,1,8,0:0:0:0:
325,43,71251,5,8,0:0:0:0:
392,183,71429,1,0,0:0:0:0:
254,241,71608,6,0,P|212:234|176:211,1,85,4|0,0:0|0:0,0:0:0:0:
46,112,71965,2,0,P|81:89|123:83,1,85,0|0,0:0|0:0,0:0:0:0:
231,128,72322,1,10,0:0:0:0:
183,290,72501,1,0,0:0:0:0:
121,185,72679,1,2,0:0:0:0:
304,197,72858,1,0,0:0:0:0:
231,128,73037,6,0,L|221:170,1,42.5,2|0,0:0|0:0,0:0:0:0:
256,310,73215,2,0,L|266:268,1,42.5,0|0,0:0|0:0,0:0:0:0:
304,197,73394,1,0,0:0:0:0:
386,302,73572,1,8,0:0:0:0:
386,302,73662,1,8,0:0:0:0:
386,302,73751,1,8,0:0:0:0:
450,179,73929,1,0,0:0:0:0:
309,107,74108,6,0,P|247:115|212:166,1,127.5,0|0,0:0|0:0,0:0:0:0:
202,216,74465,6,0,L|208:309,1,85,4|0,0:0|0:0,0:0:0:0:
127,165,74822,2,0,P|159:139|199:126,1,85,0|0,0:0|0:0,0:0:0:0:
384,165,75179,2,0,P|352:139|312:126,1,85,10|0,0:0|0:0,0:0:0:0:
265,290,75537,2,0,L|258:205,1,85,2|0,0:0|0:0,0:0:0:0:
193,40,75894,6,0,L|200:125,1,85,2|0,0:0|0:0,0:0:0:0:
93,78,76251,1,0,0:0:0:0:
279,133,76429,1,8,0:0:0:0:
110,115,76608,1,8,0:0:0:0:
291,95,76787,1,0,0:0:0:0:
177,215,76965,1,0,0:0:0:0:
190,57,77144,1,0,0:0:0:0:
277,219,77322,6,0,P|319:222|357:204,1,85,4|0,0:0|0:0,0:0:0:0:
512,115,77679,2,0,P|473:96|432:99,1,85,0|0,0:0|0:0,0:0:0:0:
302,138,78037,1,10,0:0:0:0:
460,179,78215,1,0,0:0:0:0:
346,61,78394,1,2,0:0:0:0:
396,248,78572,1,0,0:0:0:0:
257,218,78751,6,0,B|214:197|207:151|207:151|159:161|126:132,1,170,2|2,0:0|0:0,0:0:0:0:
185,49,79287,1,2,0:0:0:0:
55,77,79465,2,0,P|38:116|37:159,1,85,2|2,0:0|0:0,0:0:0:0:
36,272,79822,2,0,P|79:269|117:251,1,85,2|0,0:0|0:0,0:0:0:0:
230,187,80179,6,0,P|294:236|284:316,2,170,4|0|8,1:0|0:0|0:0,0:0:0:0:
375,42,81251,2,0,B|390:78|390:78|386:126|386:126|397:171,1,127.5,0|0,0:0|0:0,0:0:0:0:
369,200,81608,2,0,P|429:145|506:170,1,170,4|0,1:0|0:0,0:0:0:0:
495,327,82144,1,4,0:3:0:0:
448,228,82322,1,8,0:0:0:0:
293,294,82679,5,0,0:0:0:0:
369,200,82858,1,0,0:0:0:0:
230,138,83037,6,0,P|155:170|140:250,2,170,4|0|8,1:0|0:0|0:0,0:0:0:0:
97,125,84108,1,0,0:0:0:0:
226,224,84287,1,0,0:0:0:0:
91,311,84465,2,0,B|125:290|125:290|165:350|241:341,1,170,4|0,1:0|0:0,0:0:0:0:
459,311,85001,1,4,0:3:0:0:
459,311,85090,1,4,0:3:0:0:
459,311,85179,2,0,B|424:290|424:290|384:350|309:341,1,170,8|0,0:0|0:0,0:0:0:0:
417,107,85894,6,0,P|343:141|329:222,2,170,4|0|8,1:0|0:0|0:0,0:0:0:0:
470,304,86965,2,0,B|431:319|431:319|381:310|381:310|335:313,1,127.5,0|0,0:0|0:0,0:0:0:0:
304,321,87322,2,0,P|238:271|230:189,1,170,4|0,1:0|0:0,0:0:0:0:
356,66,87858,1,4,0:3:0:0:
329,222,88037,1,8,0:0:0:0:
157,178,88394,5,2,0:0:0:0:
221,306,88572,1,0,0:0:0:0:
241,116,88751,6,0,P|170:72|91:95,2,170,4|0|8,1:0|0:0|0:0,0:0:0:0:
179,236,89822,1,0,0:0:0:0:
298,279,90001,1,0,0:0:0:0:
138,347,90179,2,0,P|74:292|64:210,1,170,4|0,1:0|0:0,0:0:0:0:
159,75,90715,1,4,0:3:0:0:
159,75,90804,1,4,0:3:0:0:
159,75,90894,2,0,L|169:164,1,85,8|0,0:0|0:0,0:0:0:0:
283,219,91251,2,0,L|291:177,1,42.5,2|0,0:0|0:0,0:0:0:0:
346,275,91608,6,0,P|269:302|206:252,2,170,4|0|8,1:0|0:0|0:0,0:0:0:0:
369,72,92679,2,0,P|307:78|267:126,1,127.5,0|0,0:0|0:0,0:0:0:0:
262,169,93037,2,0,L|262:339,1,170,4|0,1:0|0:0,0:0:0:0:
184,223,93572,1,4,0:3:0:0:
346,275,93751,1,8,0:0:0:0:
491,193,94108,5,0,0:0:0:0:
454,41,94287,1,0,0:0:0:0:
331,156,94465,6,0,P|250:141|201:75,1,170,4|0,1:0|0:0,0:0:0:0:
409,80,95179,2,0,P|437:157|404:233,1,170,8|0,0:0|0:0,0:0:0:0:
293,261,95715,1,0,0:0:0:0:
271,367,95894,2,0,L|271:197,1,170,4|0,1:0|0:0,0:0:0:0:
272,70,96429,1,4,0:3:0:0:
272,70,96519,1,4,0:3:0:0:
272,70,96608,1,8,0:0:0:0:
186,183,96965,1,0,0:0:0:0:
195,40,97322,6,0,P|114:58|59:121,2,170,4|0|8,1:0|0:0|0:0,0:0:0:0:
199,244,98394,2,0,P|194:181|228:128,1,127.5,0|0,0:0|0:0,0:0:0:0:
269,114,98751,2,0,P|352:122|427:83,1,170,4|0,1:0|0:0,0:0:0:0:
468,285,99287,1,0,0:0:0:0:
475,163,99465,1,8,0:0:0:0:
315,204,99822,5,0,0:0:0:0:
404,217,100001,1,0,0:0:0:0:
309,118,100179,6,0,P|242:163|245:245,1,170,4|0,1:0|0:0,0:0:0:0:
303,349,100715,1,0,0:0:0:0:
303,349,100804,1,0,0:0:0:0:
303,349,100894,1,0,0:0:0:0:
367,253,101072,1,0,0:0:0:0:
246,246,101251,1,0,0:0:0:0:
246,246,101429,1,0,0:0:0:0:
299,155,101608,6,0,L|395:155,1,85,4|0,0:3|0:0,0:0:0:0:
205,127,101965,2,0,L|120:119,1,85,2|0,0:0|0:0,0:0:0:0:
260,36,102322,2,0,L|356:36,1,85,8|0,0:0|0:0,0:0:0:0:
441,163,102679,1,8,0:3:0:0:
441,163,103037,6,0,L|441:248,2,85,4|0|4,0:2|0:0|0:3,0:0:0:0:
345,252,103751,2,0,L|345:337,1,85,8|0,0:0|0:0,0:0:0:0:
256,145,104108,1,4,0:3:0:0:
269,252,104287,1,0,0:0:0:0:
177,208,104465,1,4,0:3:0:0:
346,171,104644,1,0,0:0:0:0:
210,55,104822,1,4,0:3:0:0:
210,55,105179,1,8,0:0:0:0:
210,55,105537,2,0,L|252:59,2,42.5,0|0|0,0:0|0:0|0:0,0:0:0:0:
116,118,105894,6,0,P|71:186|89:267,1,170,4|4,0:2|0:3,0:0:0:0:
271,229,106608,2,0,L|188:212,1,85,8|0,0:0|0:0,0:0:0:0:
33,155,106965,1,4,0:3:0:0:
89,267,107144,1,0,0:0:0:0:
194,111,107322,1,4,0:3:0:0:
121,169,107501,1,0,0:0:0:0:
253,269,107679,1,4,0:3:0:0:
253,269,108037,1,8,0:0:0:0:
253,269,108394,2,0,L|295:266,2,42.5,0|0|0,0:0|0:0|0:0,0:0:0:0:
190,191,108751,6,0,P|153:267|189:344,1,170,4|4,0:2|0:3,0:0:0:0:
372,195,109465,2,0,L|287:195,1,85,8|0,0:0|0:0,0:0:0:0:
179,271,109822,1,4,0:3:0:0:
129,164,110001,1,0,0:0:0:0:
140,340,110179,2,0,P|220:340|258:269,1,170,4|4,0:2|0:3,0:0:0:0:
168,94,110894,2,0,P|87:93|49:164,1,170,8|4,0:0|0:3,0:0:0:0:
179,271,111608,5,4,0:2:0:0:
331,248,111787,1,4,0:3:0:0:
234,117,111965,1,4,0:3:0:0:
394,181,112144,1,4,0:3:0:0:
247,209,112322,1,4,0:2:0:0:
351,326,112501,1,4,0:3:0:0:
313,157,112679,1,4,0:2:0:0:
262,300,112858,1,4,0:3:0:0:
442,261,113037,5,8,0:3:0:0:
456,235,113126,1,8,0:3:0:0:
463,206,113215,1,8,0:3:0:0:
462,176,113304,1,8,0:3:0:0:
454,148,113394,1,8,0:3:0:0:
439,122,113483,1,8,0:3:0:0:
417,102,113572,1,8,0:3:0:0:
391,87,113662,1,8,0:3:0:0:
362,82,113751,2,0,P|321:93|279:89,1,85,8|0,0:0|0:0,0:0:0:0:
101,100,114108,2,0,P|143:96|184:107,1,85,0|0,0:0|0:0,0:0:0:0:
247,244,114465,5,4,0:0:0:0:
457,70,114822,1,0,0:0:0:0:
379,356,115179,5,10,0:0:0:0:
280,67,115537,1,2,0:0:0:0:
219,153,115894,5,2,0:0:0:0:
381,134,116072,1,0,0:0:0:0:
280,67,116251,1,0,0:0:0:0:
322,267,116429,1,8,0:0:0:0:
367,47,116608,1,8,0:0:0:0:
367,47,116965,5,8,0:0:0:0:
304,160,117144,1,0,0:0:0:0:
144,60,117322,6,0,L|227:77,1,85,4|0,0:0|0:0,0:0:0:0:
257,224,117679,2,0,L|175:200,1,85,0|0,0:0|0:0,0:0:0:0:
41,84,118037,1,10,0:0:0:0:
28,248,118215,1,0,0:0:0:0:
175,200,118394,1,2,0:0:0:0:
85,168,118572,1,0,0:0:0:0:
167,51,118751,6,0,L|173:92,1,42.5,2|0,0:0|0:0,0:0:0:0:
279,172,118929,2,0,L|270:130,1,42.5,0|0,0:0|0:0,0:0:0:0:
252,45,119108,1,0,0:0:0:0:
175,200,119287,1,8,0:0:0:0:
175,200,119376,1,8,0:0:0:0:
175,200,119465,1,8,0:0:0:0:
298,276,119644,1,0,0:0:0:0:
474,225,119822,6,0,P|441:172|380:168,1,127.5,0|0,0:0|0:0,0:0:0:0:
357,219,120179,6,0,P|356:177|350:135,1,85,4|0,0:0|0:0,0:0:0:0:
253,349,120537,2,0,P|253:306|260:264,1,85,0|0,0:0|0:0,0:0:0:0:
118,267,120894,2,0,P|155:247|195:232,1,85,10|0,0:0|0:0,0:0:0:0:
121,110,121251,2,0,P|157:132|190:159,1,85,2|0,0:0|0:0,0:0:0:0:
259,35,121608,6,0,P|258:77|251:119,1,85,2|0,0:0|0:0,0:0:0:0:
195,232,121965,1,0,0:0:0:0:
121,110,122144,1,8,0:0:0:0:
251,119,122322,1,8,0:0:0:0:
95,200,122501,1,0,0:0:0:0:
185,50,122679,1,0,0:0:0:0:
281,206,122858,1,0,0:0:0:0:
63,281,123037,6,0,L|147:277,1,85,4|0,0:0|0:0,0:0:0:0:
334,336,123394,2,0,L|249:332,1,85,0|0,0:0|0:0,0:0:0:0:
241,224,123751,1,2,0:0:0:0:
345,258,123929,1,0,0:0:0:0:
341,86,124108,1,2,0:0:0:0:
401,193,124287,1,0,0:0:0:0:
267,141,124465,6,0,L|226:133,1,42.5,2|0,0:0|0:0,0:0:0:0:
103,188,124644,2,0,L|144:196,1,42.5,0|0,0:0|0:0,0:0:0:0:
241,224,124822,1,0,0:0:0:0:
87,321,125001,1,8,0:0:0:0:
87,321,125090,1,8,0:0:0:0:
87,320,125179,2,0,P|164:293|237:331,1,170,8|0,0:0|0:0,0:0:0:0:
373,354,125715,1,0,0:0:0:0:
362,219,125894,6,0,P|387:140|458:95,1,170,4|0,0:0|0:0,0:0:0:0:
494,224,126429,1,0,0:0:0:0:
347,110,126608,2,0,L|414:161,1,85,10|0,0:0|0:0,0:0:0:0:
230,72,126965,2,0,L|309:39,1,85,2|0,0:0|0:0,0:0:0:0:
139,154,127322,6,0,L|150:69,1,85,2|0,0:0|0:0,0:0:0:0:
257,213,127679,1,0,0:0:0:0:
217,148,127858,1,8,0:0:0:0:
154,297,128037,1,8,0:0:0:0:
149,69,128394,5,8,0:0:0:0:
181,223,128572,1,0,0:0:0:0:
380,136,128751,6,0,L|295:144,1,85,4|0,0:0|0:0,0:0:0:0:
254,256,129108,2,0,L|338:247,1,85,0|0,0:0|0:0,0:0:0:0:
504,211,129465,1,10,0:0:0:0:
454,343,129644,1,0,0:0:0:0:
386,160,129822,1,2,0:0:0:0:
423,260,130001,1,0,0:0:0:0:
463,138,130179,6,0,L|473:96,1,42.5,2|0,0:0|0:0,0:0:0:0:
395,26,130358,2,0,L|384:67,1,42.5,0|0,0:0|0:0,0:0:0:0:
355,156,130537,1,0,0:0:0:0:
253,52,130715,1,8,0:0:0:0:
253,52,130804,1,8,0:0:0:0:
253,52,130894,1,8,0:0:0:0:
247,209,131072,1,0,0:0:0:0:
90,138,131251,2,0,L|174:126,1,85,0|0,0:0|0:0,0:0:0:0:
56,299,131608,6,0,L|44:215,1,85,4|0,0:0|0:0,0:0:0:0:
186,359,131965,2,0,L|198:274,1,85,0|0,0:0|0:0,0:0:0:0:
212,198,132233,1,0,0:0:0:0:
212,197,132322,2,0,P|253:190|296:192,1,85,10|0,0:0|0:0,0:0:0:0:
287,42,132679,2,0,P|310:77|329:115,1,85,2|0,0:0|0:0,0:0:0:0:
481,143,133037,6,0,P|439:147|399:159,1,85,2|0,0:0|0:0,0:0:0:0:
260,187,133394,1,0,0:0:0:0:
307,344,133572,1,8,0:0:0:0:
420,239,133751,1,8,0:0:0:0:
326,258,133929,1,0,0:0:0:0:
405,324,134108,1,0,0:0:0:0:
238,276,134287,1,0,0:0:0:0:
265,98,134465,6,0,P|305:113|335:141,1,85,4|0,0:0|0:0,0:0:0:0:
238,276,134822,2,0,P|198:261|167:232,1,85,0|0,0:0|0:0,0:0:0:0:
134,105,135179,1,10,0:0:0:0:
69,217,135358,1,0,0:0:0:0:
219,170,135537,1,2,0:0:0:0:
156,305,135715,1,0,0:0:0:0:
297,194,135894,6,0,B|337:200|337:200|378:187|378:187|429:201|429:201|461:195,1,170,2|2,0:0|0:0,0:0:0:0:
401,326,136608,2,0,B|361:320|361:320|320:333|320:333|269:319|269:319|236:324,1,170,2|0,2:0|2:0,0:0:0:0:
255,93,137322,5,4,0:0:0:0:
473,315,137679,1,0,0:0:0:0:
418,165,138037,2,0,L|440:83,1,85,10|0,0:0|0:0,0:0:0:0:
353,277,138394,2,0,L|373:360,1,85,2|0,0:0|0:0,0:0:0:0:
281,163,138751,6,0,B|207:122,1,85,2|0,0:0|0:0,0:0:0:0:
348,200,139108,1,0,0:0:0:0:
286,73,139287,1,8,0:0:0:0:
119,196,139465,1,8,0:0:0:0:
119,196,139822,5,0,0:0:0:0:
267,320,140001,1,0,0:0:0:0:
266,162,140179,6,0,P|235:132|194:123,1,85,4|0,0:0|0:0,0:0:0:0:
128,326,140537,2,0,P|158:355|199:364,1,85,0|0,0:0|0:0,0:0:0:0:
338,274,140894,1,10,0:0:0:0:
385,188,141072,1,0,0:0:0:0:
384,346,141251,1,2,0:0:0:0:
245,258,141429,1,0,0:0:0:0:
308,191,141608,6,0,L|285:156,1,42.5,2|0,0:0|0:0,0:0:0:0:
173,141,141787,2,0,L|196:176,1,42.5,0|0,0:0|0:0,0:0:0:0:
245,258,141965,1,0,0:0:0:0:
146,342,142144,1,8,0:0:0:0:
146,342,142233,1,8,0:0:0:0:
146,342,142322,1,8,0:0:0:0:
107,212,142501,1,0,0:0:0:0:
248,344,142679,2,0,P|307:323|328:265,1,127.5,0|0,0:0|0:0,0:0:0:0:
308,215,143037,6,0,L|392:225,1,85,4|0,0:0|0:0,0:0:0:0:
504,143,143394,2,0,L|419:132,1,85,0|0,0:0|0:0,0:0:0:0:
315,40,143751,2,0,L|325:130,1,85,10|0,0:0|0:0,0:0:0:0:
173,205,144108,2,0,L|241:154,1,85,2|0,0:0|0:0,0:0:0:0:
387,245,144465,6,0,L|299:211,1,85,2|0,0:0|0:0,0:0:0:0:
158,53,144822,1,0,0:0:0:0:
173,205,145001,1,8,0:0:0:0:
261,65,145179,1,8,0:0:0:0:
78,134,145358,1,0,0:0:0:0:
241,251,145537,1,0,0:0:0:0:
195,116,145715,1,0,0:0:0:0:
117,265,145894,6,0,B|113:287|113:287|129:323|129:323|123:345,1,85,4|0,0:0|0:0,0:0:0:0:
247,170,146251,2,0,B|253:193|253:193|237:229|237:229|241:251,1,85,0|0,0:0|0:0,0:0:0:0:
325,71,146608,1,10,0:0:0:0:
435,200,146787,1,0,0:0:0:0:
403,73,146965,1,2,0:0:0:0:
371,246,147144,1,0,0:0:0:0:
484,125,147322,5,2,0:0:0:0:
308,167,147501,1,0,0:0:0:0:
447,284,147679,1,0,0:0:0:0:
261,234,147858,1,8,0:0:0:0:
298,253,147947,1,8,0:0:0:0:
326,284,148037,2,0,B|321:314|326:351|326:351|308:347,1,85,8|0,0:0|0:0,0:0:0:0:
215,313,148394,2,0,B|160:300|160:300|141:321,1,85,0|0,0:0|0:0,0:0:0:0:
58,350,148662,1,0,0:0:0:0:
58,350,148751,6,0,P|24:274|52:195,1,170,4|0,0:0|0:0,0:0:0:0:
127,98,149287,1,0,0:0:0:0:
240,187,149465,2,0,P|248:145|240:103,1,85,10|0,0:0|0:0,0:0:0:0:
156,277,149822,2,0,P|199:278|239:264,1,85,2|0,0:0|0:0,0:0:0:0:
402,155,150179,6,0,L|402:240,1,85,2|0,0:0|0:0,0:0:0:0:
283,86,150537,1,0,0:0:0:0:
312,209,150715,1,8,0:0:0:0:
416,64,150894,1,8,0:0:0:0:
416,64,151251,1,0,0:0:0:0:
481,208,151429,1,0,0:0:0:0:
335,177,151608,6,0,L|250:168,1,85,4|0,0:0|0:0,0:0:0:0:
160,260,151965,2,0,L|244:251,1,85,0|0,0:0|0:0,0:0:0:0:
149,177,152322,1,10,0:0:0:0:
212,333,152501,1,0,0:0:0:0:
250,168,152679,1,2,0:0:0:0:
160,260,152858,1,0,0:0:0:0:
303,304,153037,6,0,L|342:288,1,42.5,2|0,0:0|0:0,0:0:0:0:
414,196,153215,2,0,L|374:211,1,42.5,0|0,0:0|0:0,0:0:0:0:
284,231,153394,1,0,0:0:0:0:
267,88,153572,1,8,0:0:0:0:
267,88,153662,1,8,0:0:0:0:
267,88,153751,1,8,0:0:0:0:
153,186,153929,1,0,0:0:0:0:
48,98,154108,2,0,L|175:97,1,127.5,0|0,0:0|0:0,0:0:0:0:
267,88,154465,6,0,P|268:130|279:171,1,85,4|0,0:0|0:0,0:0:0:0:
305,330,154822,2,0,P|315:288|317:246,1,85,0|0,0:0|0:0,0:0:0:0:
435,142,155179,2,0,P|393:151|357:173,1,85,10|0,0:0|0:0,0:0:0:0:
164,272,155537,2,0,P|206:263|242:241,1,85,2|0,0:0|0:0,0:0:0:0:
263,69,155894,6,0,L|263:154,1,85,2|0,0:0|0:0,0:0:0:0:
284,340,156251,1,0,0:0:0:0:
388,264,156429,1,8,0:0:0:0:
241,241,156608,1,8,0:0:0:0:
367,342,156787,1,0,0:0:0:0:
344,112,156965,1,0,0:0:0:0:
315,262,157144,1,0,0:0:0:0:
89,322,157322,6,0,L|216:319,1,127.5,4|0,0:0|0:0,0:0:0:0:
240,241,157679,2,0,P|250:199|250:157,1,85,0|0,0:0|0:0,0:0:0:0:
114,50,158037,1,10,0:0:0:0:
55,198,158215,1,0,0:0:0:0:
178,166,158394,1,2,0:0:0:0:
41,108,158572,1,0,0:0:0:0:
141,249,158751,6,0,P|183:258|223:246,1,85,2|2,0:0|0:0,0:0:0:0:
348,155,159108,2,0,P|306:145|266:157,1,85,2|2,0:0|0:0,0:0:0:0:
317,315,159465,2,0,L|309:231,1,85,2|0,2:0|2:0,0:0:0:0:
186,81,159822,2,0,L|178:166,1,85,0|0,2:0|2:0,0:0:0:0:
178,166,160179,6,0,P|98:187|29:141,2,170,4|0|8,1:0|0:0|0:0,0:0:0:0:
367,89,161251,2,0,P|312:59|256:84,1,127.5,0|0,0:0|0:0,0:0:0:0:
260,128,161608,2,0,P|261:210|194:257,1,170,4|0,1:0|0:0,0:0:0:0:
62,165,162144,1,4,0:3:0:0:
99,259,162322,1,8,0:0:0:0:
139,356,162679,5,0,0:0:0:0:
194,256,162858,1,0,0:0:0:0:
294,289,163037,6,0,P|377:297|429:217,2,170,4|0|8,1:0|0:0|0:0,0:0:0:0:
233,157,164108,1,0,0:0:0:0:
294,289,164287,1,0,0:0:0:0:
371,137,164465,2,0,L|341:217,1,85,4|0,1:0|0:0,0:0:0:0:
509,218,164822,2,0,L|427:235,1,85,0|4,0:0|0:3,0:0:0:0:
377,306,165090,1,4,0:3:0:0:
377,306,165179,2,0,L|294:289,1,85,8|0,0:0|0:0,0:0:0:0:
158,232,165537,2,0,L|240:213,1,85,8|0,0:3|0:0,0:0:0:0:
150,314,165894,6,0,P|82:268|86:187,2,170,4|0|8,1:0|0:0|0:0,0:0:0:0:
117,112,166965,2,0,B|170:128|170:128|248:108,1,127.5,0|0,0:0|0:0,0:0:0:0:
281,98,167322,2,8,P|349:145|367:226,1,170,4|0,1:0|0:0,0:0:0:0:
307,310,167858,1,4,0:3:0:0:
472,232,168037,1,8,0:0:0:0:
367,226,168394,5,0,0:0:0:0:
418,333,168572,1,0,0:0:0:0:
263,219,168751,6,0,P|212:284|228:365,2,170,4|0|8,1:0|0:0|0:0,0:0:0:0:
367,226,169822,1,0,0:0:0:0:
300,122,170001,1,0,0:0:0:0:
186,201,170179,2,0,P|144:198|105:183,1,85,4|0,1:0|0:0,0:0:0:0:
266,262,170537,2,0,P|242:297|209:323,1,85,0|4,0:0|0:3,0:0:0:0:
273,178,170804,1,4,0:3:0:0:
273,178,170894,2,0,P|315:180|354:195,1,85,8|0,0:0|0:0,0:0:0:0:
401,318,171251,1,0,0:0:0:0:
473,205,171429,1,0,0:0:0:0:
370,99,171608,6,0,B|323:78|323:78|275:99|275:99|209:107,2,170,4|0|8,1:0|0:0|0:0,0:0:0:0:
447,287,172679,2,0,P|388:265|328:283,1,127.5,0|0,0:0|0:0,0:0:0:0:
341,325,173037,2,0,B|356:271|356:271|349:204|349:204|359:158,1,170,4|0,1:0|0:0,0:0:0:0:
316,72,173572,1,4,0:3:0:0:
200,130,173751,2,0,B|116:141|116:141|37:107,1,170,8|0,0:0|0:0,0:0:0:0:
128,38,174287,1,0,0:0:0:0:
121,173,174465,2,0,B|125:220|125:220|146:256|146:256|143:337,1,170,4|0,1:0|0:0,0:0:0:0:
372,211,175179,6,0,P|293:180|210:192,1,170,8|0,0:0|0:0,0:0:0:0:
72,280,175715,1,0,0:0:0:0:
227,352,175894,2,0,P|235:310|234:267,1,85,4|0,1:0|0:0,0:0:0:0:
120,124,176251,2,0,P|119:166|127:208,1,85,0|4,0:0|0:3,0:0:0:0:
288,208,176519,1,4,0:3:0:0:
288,208,176608,2,0,P|251:188|209:192,1,85,8|0,0:0|0:0,0:0:0:0:
319,285,176965,2,0,P|353:262|371:224,1,85,0|0,0:0|0:0,0:0:0:0:
342,79,177322,6,0,L|345:121,3,42.5,4|0|0|0,1:0|0:0|0:0|0:0,0:0:0:0:
454,130,177679,2,0,L|451:172,3,42.5,0|0|0|0,0:0|0:0|0:0|0:0,0:0:0:0:
371,224,178037,2,0,P|290:199|210:223,1,170,8|0,0:0|0:0,0:0:0:0:
148,312,178572,1,0,0:0:0:0:
66,232,178751,6,0,L|64:189,3,42.5,4|0|0|0,1:0|0:0|0:0|0:0,0:0:0:0:
140,141,179108,2,0,L|144:98,3,42.5,0|0|4|0,0:0|0:0|0:3|0:0,0:0:0:0:
238,78,179465,2,0,P|318:101|399:77,1,170,8|0,0:0|0:0,0:0:0:0:
471,153,180001,1,0,0:0:0:0:
399,230,180179,6,0,L|399:272,3,42.5,4|0|0|0,1:0|0:0|0:0|0:0,0:0:0:0:
311,309,180537,2,0,L|228:296,1,85,0|4,0:0|0:3,0:0:0:0:
138,278,180804,1,4,0:3:0:0:
138,278,180894,1,8,0:0:0:0:
51,360,181072,1,4,0:3:0:0:
72,220,181251,1,4,0:3:0:0:
182,350,181429,1,0,0:0:0:0:
238,219,181608,6,0,L|244:176,3,42.5,8|0|0|0,0:0|0:0|0:0|0:0,0:0:0:0:
305,124,181965,2,0,L|346:130,3,42.5,0|0|4|4,0:0|0:0|0:3|0:3,0:0:0:0:
406,185,182322,2,0,L|425:223,3,42.5,4|0|4|0,0:3|0:0|0:3|0:0,0:0:0:0:
375,293,182679,6,0,L|375:335,1,42.5,0|0,0:0|0:0,0:0:0:0:
291,327,182858,2,0,L|291:284,1,42.5,0|0,0:0|0:0,0:0:0:0:
326,213,183037,1,0,0:0:0:0:
