osu file format v14

[General]
AudioFilename: audio.mp3
AudioLeadIn: 0
PreviewTime: 24
Countdown: 0
SampleSet: None
StackLeniency: 0.2
Mode: 3
LetterboxInBreaks: 0
SpecialStyle: 0
WidescreenStoryboard: 1

[Editor]
Bookmarks: 22349,27930,33512,44675,55837,78163,100489,133977
DistanceSpacing: 0.1
BeatDivisor: 4
GridSize: 8
TimelineZoom: 1.8

[Metadata]
Title:Outbreak
TitleUnicode:Outbreak
Artist:Mediks
ArtistUnicode:Mediks
Creator:fufu-
Version:4k Epidemic
Source:
Tags:
BeatmapID:1408457
BeatmapSetID:665534

[Difficulty]
HPDrainRate:9
CircleSize:4
OverallDifficulty:9
ApproachRate:10
SliderMultiplier:2
SliderTickRate:1

[Events]
//Background and Video events
0,0,"hospital.jpg",0,0
//Break Periods
//Storyboard Layer 0 (Background)
//Storyboard Layer 1 (Fail)
//Storyboard Layer 2 (Pass)
//Storyboard Layer 3 (Foreground)
//Storyboard Sound Samples

[TimingPoints]
24,348.837209302326,4,2,25,25,1,0
33512,-100,4,2,25,25,0,1
55837,-100,4,2,25,25,0,0
78163,-100,4,2,25,25,0,1
100489,-100,4,2,25,25,0,0

[Colours]
Combo1 : 44,57,180
Combo2 : 155,40,61

[HitObjects]
64,192,24,5,0,0:0:0:0:
192,192,24,1,0,0:0:0:0:
320,192,24,1,0,0:0:0:0:
320,192,721,1,0,0:0:0:0:
320,192,1419,1,0,0:0:0:0:
320,192,2117,1,0,0:0:0:0:
320,192,2814,1,0,0:0:0:0:
320,192,3512,1,0,0:0:0:0:
320,192,4210,1,0,0:0:0:0:
320,192,4907,1,0,0:0:0:0:
320,192,5605,1,0,0:0:0:0:
320,192,6303,1,0,0:0:0:0:
320,192,7000,1,0,0:0:0:0:
320,192,7698,1,0,0:0:0:0:
320,192,8396,1,0,0:0:0:0:
320,192,9093,1,0,0:0:0:0:
320,192,9791,1,0,0:0:0:0:
320,192,10489,1,0,0:0:0:0:
64,192,11012,1,0,0:0:0:0:
192,192,11099,1,0,0:0:0:0:
448,192,11186,1,0,0:0:0:0:
320,192,11186,128,0,11535:0:0:0:0:
448,192,11535,128,0,11884:0:0:0:0:
320,192,11884,128,0,22262:0:0:0:0:
192,192,11884,1,0,0:0:0:0:
192,192,12582,1,0,0:0:0:0:
192,192,13279,1,0,0:0:0:0:
192,192,13977,1,0,0:0:0:0:
192,192,14675,1,0,0:0:0:0:
192,192,15372,1,0,0:0:0:0:
192,192,16070,1,0,0:0:0:0:
192,192,16768,1,0,0:0:0:0:
192,192,17465,1,0,0:0:0:0:
192,192,18163,1,0,0:0:0:0:
192,192,18861,1,0,0:0:0:0:
192,192,19558,1,0,0:0:0:0:
192,192,20256,1,0,0:0:0:0:
192,192,20954,1,0,0:0:0:0:
192,192,21651,1,0,0:0:0:0:
448,192,22349,5,0,0:0:0:0:
320,192,22349,1,0,0:0:0:0:
192,192,22698,1,0,0:0:0:0:
448,192,23047,1,0,0:0:0:0:
192,192,23396,1,0,0:0:0:0:
448,192,23744,1,0,0:0:0:0:
192,192,24093,1,0,0:0:0:0:
448,192,24442,1,0,0:0:0:0:
192,192,24791,1,0,0:0:0:0:
64,192,25140,1,0,0:0:0:0:
320,192,25489,1,0,0:0:0:0:
64,192,25837,1,0,0:0:0:0:
320,192,26186,1,0,0:0:0:0:
64,192,26535,1,0,0:0:0:0:
320,192,26884,1,0,0:0:0:0:
64,192,27233,1,0,0:0:0:0:
320,192,27582,1,0,0:0:0:0:
320,192,27930,1,0,0:0:0:0:
448,192,27930,1,0,0:0:0:0:
320,192,28105,1,0,0:0:0:0:
192,192,28279,1,0,0:0:0:0:
192,192,28454,1,0,0:0:0:0:
320,192,28628,1,0,0:0:0:0:
320,192,28803,1,0,0:0:0:0:
192,192,28977,1,0,0:0:0:0:
192,192,29151,1,0,0:0:0:0:
448,192,29326,1,0,0:0:0:0:
448,192,29500,1,0,0:0:0:0:
64,192,29675,1,0,0:0:0:0:
64,192,29849,1,0,0:0:0:0:
448,192,30024,1,0,0:0:0:0:
448,192,30198,1,0,0:0:0:0:
64,192,30372,1,0,0:0:0:0:
64,192,30547,1,0,0:0:0:0:
64,192,30721,1,0,0:0:0:0:
448,192,30721,1,0,0:0:0:0:
192,192,30837,1,0,0:0:0:0:
320,192,30954,1,0,0:0:0:0:
192,192,31070,1,0,0:0:0:0:
64,192,31070,1,0,0:0:0:0:
320,192,31186,1,0,0:0:0:0:
448,192,31303,1,0,0:0:0:0:
64,192,31419,1,0,0:0:0:0:
320,192,31419,1,0,0:0:0:0:
192,192,31535,1,0,0:0:0:0:
448,192,31651,1,0,0:0:0:0:
64,192,31768,1,0,0:0:0:0:
320,192,31768,1,0,0:0:0:0:
192,192,31884,1,0,0:0:0:0:
448,192,32000,1,0,0:0:0:0:
64,192,32117,1,0,0:0:0:0:
192,192,32117,1,0,0:0:0:0:
320,192,32233,1,0,0:0:0:0:
320,192,32465,1,0,0:0:0:0:
320,192,32698,1,0,0:0:0:0:
64,192,32814,1,0,0:0:0:0:
192,192,32814,1,0,0:0:0:0:
64,192,33047,1,0,0:0:0:0:
320,192,33163,1,0,0:0:0:0:
192,192,33163,1,0,0:0:0:0:
448,192,33163,1,0,0:0:0:0:
448,192,33512,128,0,34210:0:0:0:0:
192,192,33512,1,0,0:0:0:0:
64,192,33512,1,0,0:0:0:0:
320,192,33861,128,0,34210:0:0:0:0:
192,192,33861,1,0,0:0:0:0:
64,192,34210,1,0,0:0:0:0:
192,192,34210,1,0,0:0:0:0:
64,192,34326,1,0,0:0:0:0:
64,192,34442,1,0,0:0:0:0:
192,192,34558,1,0,0:0:0:0:
192,192,34675,1,0,0:0:0:0:
192,192,34791,1,0,0:0:0:0:
320,192,34907,1,0,0:0:0:0:
320,192,35024,1,0,0:0:0:0:
320,192,35140,1,0,0:0:0:0:
448,192,35256,1,0,0:0:0:0:
448,192,35372,1,0,0:0:0:0:
448,192,35489,1,0,0:0:0:0:
320,192,35605,1,0,0:0:0:0:
320,192,35721,1,0,0:0:0:0:
320,192,35837,1,0,0:0:0:0:
192,192,35954,1,0,0:0:0:0:
192,192,36070,1,0,0:0:0:0:
192,192,36186,1,0,0:0:0:0:
448,192,36303,1,0,0:0:0:0:
320,192,36303,1,0,0:0:0:0:
64,192,36303,1,0,0:0:0:0:
320,192,36535,1,0,0:0:0:0:
448,192,36535,1,0,0:0:0:0:
64,192,36535,1,0,0:0:0:0:
64,192,36768,1,0,0:0:0:0:
320,192,36768,1,0,0:0:0:0:
64,192,36884,1,0,0:0:0:0:
320,192,36884,1,0,0:0:0:0:
64,192,37000,1,0,0:0:0:0:
320,192,37000,1,0,0:0:0:0:
448,192,37000,1,0,0:0:0:0:
64,192,37233,1,0,0:0:0:0:
320,192,37233,1,0,0:0:0:0:
448,192,37233,1,0,0:0:0:0:
320,192,37465,1,0,0:0:0:0:
448,192,37465,1,0,0:0:0:0:
320,192,37582,1,0,0:0:0:0:
448,192,37582,1,0,0:0:0:0:
320,192,37698,1,0,0:0:0:0:
448,192,37698,1,0,0:0:0:0:
64,192,37698,128,0,38047:0:0:0:0:
192,192,37930,1,0,0:0:0:0:
320,192,38047,128,0,38396:0:0:0:0:
448,192,38047,1,0,0:0:0:0:
192,192,38396,1,0,0:0:0:0:
64,192,38396,1,0,0:0:0:0:
64,192,38628,1,0,0:0:0:0:
320,192,38628,1,0,0:0:0:0:
192,192,38744,1,0,0:0:0:0:
448,192,38744,1,0,0:0:0:0:
192,192,39093,128,0,39442:0:0:0:0:
64,192,39093,1,0,0:0:0:0:
448,192,39093,1,0,0:0:0:0:
448,192,39442,128,0,39791:0:0:0:0:
320,192,39442,1,0,0:0:0:0:
64,192,39442,1,0,0:0:0:0:
64,192,39791,1,0,0:0:0:0:
320,192,39791,1,0,0:0:0:0:
320,192,39907,1,0,0:0:0:0:
320,192,40024,1,0,0:0:0:0:
192,192,40140,1,0,0:0:0:0:
192,192,40256,1,0,0:0:0:0:
192,192,40372,1,0,0:0:0:0:
448,192,40489,1,0,0:0:0:0:
448,192,40605,1,0,0:0:0:0:
448,192,40721,1,0,0:0:0:0:
64,192,40837,1,0,0:0:0:0:
64,192,40954,1,0,0:0:0:0:
64,192,41070,1,0,0:0:0:0:
448,192,41186,1,0,0:0:0:0:
448,192,41303,1,0,0:0:0:0:
448,192,41419,1,0,0:0:0:0:
64,192,41535,1,0,0:0:0:0:
64,192,41651,1,0,0:0:0:0:
64,192,41768,1,0,0:0:0:0:
448,192,41884,1,0,0:0:0:0:
64,192,41884,1,0,0:0:0:0:
320,192,42000,1,0,0:0:0:0:
192,192,42117,1,0,0:0:0:0:
448,192,42233,1,0,0:0:0:0:
64,192,42233,1,0,0:0:0:0:
320,192,42349,1,0,0:0:0:0:
192,192,42465,1,0,0:0:0:0:
448,192,42582,1,0,0:0:0:0:
64,192,42582,1,0,0:0:0:0:
320,192,42698,1,0,0:0:0:0:
64,192,42814,1,0,0:0:0:0:
448,192,42930,1,0,0:0:0:0:
192,192,42930,1,0,0:0:0:0:
320,192,43047,1,0,0:0:0:0:
64,192,43163,1,0,0:0:0:0:
448,192,43279,1,0,0:0:0:0:
320,192,43279,1,0,0:0:0:0:
320,192,43396,1,0,0:0:0:0:
448,192,43396,1,0,0:0:0:0:
192,192,43512,1,0,0:0:0:0:
64,192,43512,1,0,0:0:0:0:
320,192,43628,1,0,0:0:0:0:
448,192,43628,1,0,0:0:0:0:
320,192,43744,1,0,0:0:0:0:
448,192,43744,1,0,0:0:0:0:
192,192,43861,1,0,0:0:0:0:
64,192,43861,1,0,0:0:0:0:
320,192,43977,1,0,0:0:0:0:
448,192,43977,1,0,0:0:0:0:
448,192,44326,1,0,0:0:0:0:
64,192,44442,1,0,0:0:0:0:
448,192,44558,1,0,0:0:0:0:
64,192,44675,128,0,45024:0:0:0:0:
192,192,44675,1,0,0:0:0:0:
320,192,44675,1,0,0:0:0:0:
320,192,45024,128,0,45372:0:0:0:0:
192,192,45024,1,0,0:0:0:0:
448,192,45024,1,0,0:0:0:0:
192,192,45372,1,0,0:0:0:0:
448,192,45372,1,0,0:0:0:0:
448,192,45489,1,0,0:0:0:0:
448,192,45605,1,0,0:0:0:0:
320,192,45721,1,0,0:0:0:0:
320,192,45837,1,0,0:0:0:0:
320,192,45954,1,0,0:0:0:0:
192,192,46070,1,0,0:0:0:0:
192,192,46186,1,0,0:0:0:0:
192,192,46303,1,0,0:0:0:0:
64,192,46419,1,0,0:0:0:0:
64,192,46535,1,0,0:0:0:0:
64,192,46651,1,0,0:0:0:0:
448,192,46768,1,0,0:0:0:0:
448,192,46884,1,0,0:0:0:0:
448,192,47000,1,0,0:0:0:0:
320,192,47117,1,0,0:0:0:0:
320,192,47233,1,0,0:0:0:0:
320,192,47349,1,0,0:0:0:0:
64,192,47465,1,0,0:0:0:0:
192,192,47465,1,0,0:0:0:0:
448,192,47465,1,0,0:0:0:0:
448,192,47698,1,0,0:0:0:0:
64,192,47698,1,0,0:0:0:0:
192,192,47698,1,0,0:0:0:0:
64,192,47930,1,0,0:0:0:0:
448,192,47930,1,0,0:0:0:0:
448,192,48047,1,0,0:0:0:0:
64,192,48047,1,0,0:0:0:0:
64,192,48163,1,0,0:0:0:0:
192,192,48163,1,0,0:0:0:0:
448,192,48163,1,0,0:0:0:0:
64,192,48396,1,0,0:0:0:0:
192,192,48396,1,0,0:0:0:0:
448,192,48396,1,0,0:0:0:0:
192,192,48628,1,0,0:0:0:0:
320,192,48628,1,0,0:0:0:0:
192,192,48744,1,0,0:0:0:0:
320,192,48744,1,0,0:0:0:0:
448,192,48861,1,0,0:0:0:0:
320,192,48861,1,0,0:0:0:0:
192,192,48861,1,0,0:0:0:0:
64,192,49093,1,0,0:0:0:0:
192,192,49093,1,0,0:0:0:0:
320,192,49210,1,0,0:0:0:0:
448,192,49210,1,0,0:0:0:0:
448,192,49558,1,0,0:0:0:0:
192,192,49558,1,0,0:0:0:0:
64,192,49791,1,0,0:0:0:0:
448,192,49791,1,0,0:0:0:0:
320,192,49907,1,0,0:0:0:0:
192,192,49907,1,0,0:0:0:0:
64,192,50256,128,0,50605:0:0:0:0:
448,192,50256,1,0,0:0:0:0:
320,192,50256,1,0,0:0:0:0:
448,192,50605,128,0,50954:0:0:0:0:
320,192,50605,1,0,0:0:0:0:
192,192,50605,1,0,0:0:0:0:
320,192,50954,1,0,0:0:0:0:
320,192,51070,1,0,0:0:0:0:
320,192,51186,1,0,0:0:0:0:
192,192,51303,1,0,0:0:0:0:
192,192,51419,1,0,0:0:0:0:
192,192,51535,1,0,0:0:0:0:
64,192,51651,1,0,0:0:0:0:
64,192,51768,1,0,0:0:0:0:
64,192,51884,1,0,0:0:0:0:
320,192,52000,1,0,0:0:0:0:
320,192,52117,1,0,0:0:0:0:
320,192,52233,1,0,0:0:0:0:
192,192,52349,1,0,0:0:0:0:
192,192,52465,1,0,0:0:0:0:
192,192,52582,1,0,0:0:0:0:
64,192,52698,1,0,0:0:0:0:
64,192,52814,1,0,0:0:0:0:
64,192,52930,1,0,0:0:0:0:
448,192,53047,1,0,0:0:0:0:
320,192,53047,1,0,0:0:0:0:
192,192,53163,1,0,0:0:0:0:
320,192,53279,1,0,0:0:0:0:
192,192,53396,1,0,0:0:0:0:
64,192,53396,1,0,0:0:0:0:
320,192,53512,1,0,0:0:0:0:
192,192,53628,1,0,0:0:0:0:
320,192,53744,1,0,0:0:0:0:
448,192,53744,1,0,0:0:0:0:
192,192,53861,1,0,0:0:0:0:
320,192,53977,1,0,0:0:0:0:
192,192,54093,1,0,0:0:0:0:
64,192,54093,1,0,0:0:0:0:
320,192,54210,1,0,0:0:0:0:
192,192,54326,1,0,0:0:0:0:
320,192,54442,1,0,0:0:0:0:
64,192,54442,1,0,0:0:0:0:
64,192,54558,1,0,0:0:0:0:
320,192,54558,1,0,0:0:0:0:
192,192,54675,1,0,0:0:0:0:
448,192,54675,1,0,0:0:0:0:
64,192,54791,1,0,0:0:0:0:
320,192,54791,1,0,0:0:0:0:
64,192,54907,1,0,0:0:0:0:
320,192,54907,1,0,0:0:0:0:
192,192,55024,1,0,0:0:0:0:
448,192,55024,1,0,0:0:0:0:
320,192,55140,1,0,0:0:0:0:
64,192,55140,1,0,0:0:0:0:
320,192,55721,1,0,0:0:0:0:
64,192,55837,1,0,0:0:0:0:
448,192,55837,1,0,0:0:0:0:
192,192,55837,128,0,56186:0:0:0:0:
448,192,56186,128,0,56535:0:0:0:0:
64,192,56535,128,0,56884:0:0:0:0:
192,192,56884,128,0,57117:0:0:0:0:
320,192,57117,128,0,57465:0:0:0:0:
448,192,57465,128,0,57814:0:0:0:0:
320,192,57814,128,0,57930:0:0:0:0:
192,192,57930,128,0,58163:0:0:0:0:
320,192,58163,128,0,58279:0:0:0:0:
64,192,58279,128,0,58512:0:0:0:0:
192,192,58512,128,0,58628:0:0:0:0:
448,192,58628,1,0,0:0:0:0:
320,192,58628,1,0,0:0:0:0:
192,192,58861,128,0,58977:0:0:0:0:
320,192,58977,1,0,0:0:0:0:
448,192,58977,1,0,0:0:0:0:
448,192,59093,1,0,0:0:0:0:
448,192,59210,1,0,0:0:0:0:
320,192,59326,1,0,0:0:0:0:
320,192,59442,1,0,0:0:0:0:
320,192,59558,1,0,0:0:0:0:
192,192,59675,1,0,0:0:0:0:
192,192,59791,1,0,0:0:0:0:
192,192,59907,128,0,60024:0:0:0:0:
320,192,60024,1,0,0:0:0:0:
448,192,60024,1,0,0:0:0:0:
192,192,60256,128,0,60372:0:0:0:0:
320,192,60372,1,0,0:0:0:0:
448,192,60372,1,0,0:0:0:0:
448,192,60605,128,0,60721:0:0:0:0:
320,192,60721,1,0,0:0:0:0:
192,192,60721,1,0,0:0:0:0:
320,192,60954,128,0,61070:0:0:0:0:
192,192,61070,1,0,0:0:0:0:
448,192,61070,1,0,0:0:0:0:
320,192,61303,1,0,0:0:0:0:
64,192,61419,128,0,61535:0:0:0:0:
192,192,61419,128,0,61535:0:0:0:0:
192,192,61768,1,0,0:0:0:0:
320,192,61768,1,0,0:0:0:0:
64,192,62000,128,0,62117:0:0:0:0:
192,192,62000,128,0,62117:0:0:0:0:
320,192,62117,1,0,0:0:0:0:
448,192,62117,1,0,0:0:0:0:
64,192,62349,128,0,62465:0:0:0:0:
192,192,62349,128,0,62465:0:0:0:0:
320,192,62465,1,0,0:0:0:0:
448,192,62465,1,0,0:0:0:0:
64,192,62698,128,0,62814:0:0:0:0:
192,192,62698,128,0,62814:0:0:0:0:
320,192,62814,1,0,0:0:0:0:
448,192,62814,1,0,0:0:0:0:
64,192,63047,128,0,63163:0:0:0:0:
192,192,63047,128,0,63163:0:0:0:0:
320,192,63163,1,0,0:0:0:0:
448,192,63163,1,0,0:0:0:0:
192,192,63396,1,0,0:0:0:0:
320,192,63396,1,0,0:0:0:0:
448,192,63512,128,0,63628:0:0:0:0:
64,192,63512,128,0,63628:0:0:0:0:
64,192,63744,1,0,0:0:0:0:
448,192,63744,1,0,0:0:0:0:
320,192,63861,128,0,63977:0:0:0:0:
192,192,63861,128,0,63977:0:0:0:0:
448,192,64210,128,0,64326:0:0:0:0:
192,192,64210,128,0,64326:0:0:0:0:
64,192,64558,1,0,0:0:0:0:
320,192,64558,1,0,0:0:0:0:
192,192,64791,128,0,64907:0:0:0:0:
448,192,64791,128,0,64907:0:0:0:0:
320,192,64907,1,0,0:0:0:0:
64,192,64907,1,0,0:0:0:0:
448,192,65140,128,0,65256:0:0:0:0:
192,192,65140,128,0,65256:0:0:0:0:
320,192,65256,1,0,0:0:0:0:
64,192,65256,1,0,0:0:0:0:
192,192,65489,128,0,65605:0:0:0:0:
448,192,65489,128,0,65605:0:0:0:0:
64,192,65605,1,0,0:0:0:0:
320,192,65605,1,0,0:0:0:0:
64,192,65721,1,0,0:0:0:0:
320,192,65721,1,0,0:0:0:0:
64,192,65837,1,0,0:0:0:0:
320,192,65837,1,0,0:0:0:0:
192,192,65954,1,0,0:0:0:0:
448,192,65954,1,0,0:0:0:0:
192,192,66070,1,0,0:0:0:0:
448,192,66070,1,0,0:0:0:0:
192,192,66186,1,0,0:0:0:0:
448,192,66186,1,0,0:0:0:0:
320,192,66303,1,0,0:0:0:0:
64,192,66303,1,0,0:0:0:0:
192,192,66651,1,0,0:0:0:0:
448,192,66768,1,0,0:0:0:0:
192,192,66884,1,0,0:0:0:0:
448,192,67000,1,0,0:0:0:0:
64,192,67000,1,0,0:0:0:0:
320,192,67000,128,0,67349:0:0:0:0:
192,192,67349,128,0,67698:0:0:0:0:
64,192,67349,1,0,0:0:0:0:
448,192,67349,1,0,0:0:0:0:
448,192,67698,128,0,68047:0:0:0:0:
320,192,67698,1,0,0:0:0:0:
64,192,67698,1,0,0:0:0:0:
320,192,68047,1,0,0:0:0:0:
192,192,68047,1,0,0:0:0:0:
64,192,68279,128,0,68396:0:0:0:0:
320,192,68396,1,0,0:0:0:0:
448,192,68396,1,0,0:0:0:0:
192,192,68628,128,0,68744:0:0:0:0:
320,192,68744,1,0,0:0:0:0:
448,192,68744,1,0,0:0:0:0:
192,192,68977,128,0,69093:0:0:0:0:
448,192,69093,1,0,0:0:0:0:
320,192,69093,1,0,0:0:0:0:
64,192,69093,128,0,69442:0:0:0:0:
448,192,69326,128,0,69442:0:0:0:0:
192,192,69442,128,0,69791:0:0:0:0:
320,192,69442,1,0,0:0:0:0:
320,192,69675,128,0,69791:0:0:0:0:
448,192,69791,1,0,0:0:0:0:
64,192,69791,1,0,0:0:0:0:
320,192,70024,128,0,70140:0:0:0:0:
448,192,70140,1,0,0:0:0:0:
192,192,70140,1,0,0:0:0:0:
192,192,70256,1,0,0:0:0:0:
192,192,70372,1,0,0:0:0:0:
448,192,70489,1,0,0:0:0:0:
448,192,70605,1,0,0:0:0:0:
448,192,70721,1,0,0:0:0:0:
64,192,70837,1,0,0:0:0:0:
64,192,70954,1,0,0:0:0:0:
64,192,71070,128,0,71186:0:0:0:0:
192,192,71186,1,0,0:0:0:0:
320,192,71186,1,0,0:0:0:0:
64,192,71419,128,0,71535:0:0:0:0:
192,192,71535,1,0,0:0:0:0:
320,192,71535,1,0,0:0:0:0:
64,192,71768,128,0,71884:0:0:0:0:
192,192,71884,1,0,0:0:0:0:
320,192,71884,128,0,72117:0:0:0:0:
192,192,72117,128,0,72233:0:0:0:0:
64,192,72233,128,0,72465:0:0:0:0:
448,192,72233,1,0,0:0:0:0:
192,192,72465,128,0,72582:0:0:0:0:
320,192,72582,128,0,72698:0:0:0:0:
448,192,72582,128,0,72698:0:0:0:0:
320,192,72814,128,0,72930:0:0:0:0:
448,192,72814,128,0,72930:0:0:0:0:
192,192,72930,1,0,0:0:0:0:
64,192,72930,1,0,0:0:0:0:
448,192,73163,128,0,73279:0:0:0:0:
64,192,73279,128,0,73396:0:0:0:0:
192,192,73279,128,0,73396:0:0:0:0:
64,192,73512,128,0,73628:0:0:0:0:
192,192,73512,128,0,73628:0:0:0:0:
320,192,73628,1,0,0:0:0:0:
448,192,73628,1,0,0:0:0:0:
64,192,73861,128,0,73977:0:0:0:0:
320,192,73977,128,0,74093:0:0:0:0:
448,192,73977,128,0,74093:0:0:0:0:
320,192,74210,128,0,74326:0:0:0:0:
448,192,74210,128,0,74326:0:0:0:0:
192,192,74326,1,0,0:0:0:0:
64,192,74326,1,0,0:0:0:0:
448,192,74558,128,0,74675:0:0:0:0:
192,192,74675,128,0,74791:0:0:0:0:
64,192,74675,128,0,74791:0:0:0:0:
64,192,74907,128,0,75024:0:0:0:0:
192,192,74907,128,0,75024:0:0:0:0:
320,192,75024,1,0,0:0:0:0:
448,192,75024,1,0,0:0:0:0:
64,192,75256,128,0,75372:0:0:0:0:
192,192,75372,128,0,75460:0:0:0:0:
448,192,75372,1,0,0:0:0:0:
448,192,75547,1,0,0:0:0:0:
448,192,75721,1,0,0:0:0:0:
448,192,75896,1,0,0:0:0:0:
192,192,75896,128,0,75983:0:0:0:0:
448,192,76070,1,0,0:0:0:0:
192,192,76070,128,0,76157:0:0:0:0:
448,192,76244,1,0,0:0:0:0:
448,192,76419,1,0,0:0:0:0:
448,192,76593,1,0,0:0:0:0:
192,192,76593,128,0,76680:0:0:0:0:
448,192,76768,1,0,0:0:0:0:
192,192,76768,128,0,76855:0:0:0:0:
64,192,76768,1,0,0:0:0:0:
192,192,76942,1,0,0:0:0:0:
320,192,76942,1,0,0:0:0:0:
320,192,77117,1,0,0:0:0:0:
448,192,77117,1,0,0:0:0:0:
64,192,77291,1,0,0:0:0:0:
192,192,77291,1,0,0:0:0:0:
64,192,77465,1,0,0:0:0:0:
320,192,77465,1,0,0:0:0:0:
192,192,77640,1,0,0:0:0:0:
448,192,77640,1,0,0:0:0:0:
320,192,77814,1,0,0:0:0:0:
64,192,77814,1,0,0:0:0:0:
192,192,77814,1,0,0:0:0:0:
448,192,78163,128,0,78861:0:0:0:0:
64,192,78163,1,0,0:0:0:0:
192,192,78512,128,0,78861:0:0:0:0:
320,192,78512,1,0,0:0:0:0:
64,192,78861,1,0,0:0:0:0:
320,192,78861,1,0,0:0:0:0:
64,192,79035,1,0,0:0:0:0:
320,192,79035,1,0,0:0:0:0:
64,192,79210,1,0,0:0:0:0:
320,192,79210,1,0,0:0:0:0:
64,192,79384,1,0,0:0:0:0:
320,192,79384,1,0,0:0:0:0:
192,192,79558,1,0,0:0:0:0:
320,192,79558,1,0,0:0:0:0:
192,192,79733,1,0,0:0:0:0:
320,192,79733,1,0,0:0:0:0:
192,192,79907,1,0,0:0:0:0:
320,192,79907,1,0,0:0:0:0:
192,192,80082,1,0,0:0:0:0:
320,192,80082,1,0,0:0:0:0:
448,192,80256,1,0,0:0:0:0:
192,192,80256,1,0,0:0:0:0:
192,192,80430,1,0,0:0:0:0:
448,192,80430,1,0,0:0:0:0:
448,192,80605,1,0,0:0:0:0:
192,192,80605,1,0,0:0:0:0:
192,192,80779,1,0,0:0:0:0:
448,192,80779,1,0,0:0:0:0:
64,192,80954,128,0,81041:0:0:0:0:
448,192,80954,128,0,81041:0:0:0:0:
192,192,81128,1,0,0:0:0:0:
320,192,81303,1,0,0:0:0:0:
448,192,81303,1,0,0:0:0:0:
64,192,81477,128,0,81564:0:0:0:0:
192,192,81477,128,0,81564:0:0:0:0:
64,192,81651,128,0,81739:0:0:0:0:
320,192,81651,128,0,81739:0:0:0:0:
448,192,81826,1,0,0:0:0:0:
64,192,82000,1,0,0:0:0:0:
320,192,82000,1,0,0:0:0:0:
192,192,82175,128,0,82262:0:0:0:0:
64,192,82175,128,0,82262:0:0:0:0:
64,192,82349,128,0,82436:0:0:0:0:
448,192,82349,128,0,82698:0:0:0:0:
320,192,82698,128,0,83047:0:0:0:0:
192,192,82698,1,0,0:0:0:0:
64,192,83047,128,0,83221:0:0:0:0:
448,192,83047,1,0,0:0:0:0:
192,192,83221,128,0,83396:0:0:0:0:
448,192,83221,1,0,0:0:0:0:
320,192,83396,128,0,83744:0:0:0:0:
448,192,83396,1,0,0:0:0:0:
64,192,83744,128,0,84442:0:0:0:0:
192,192,83744,1,0,0:0:0:0:
448,192,84093,1,0,0:0:0:0:
320,192,84093,128,0,84442:0:0:0:0:
192,192,84442,1,0,0:0:0:0:
448,192,84442,1,0,0:0:0:0:
192,192,84617,1,0,0:0:0:0:
448,192,84617,1,0,0:0:0:0:
192,192,84791,1,0,0:0:0:0:
448,192,84791,1,0,0:0:0:0:
192,192,84965,1,0,0:0:0:0:
448,192,84965,1,0,0:0:0:0:
64,192,85140,1,0,0:0:0:0:
320,192,85140,1,0,0:0:0:0:
64,192,85314,1,0,0:0:0:0:
320,192,85314,1,0,0:0:0:0:
64,192,85489,1,0,0:0:0:0:
320,192,85489,1,0,0:0:0:0:
64,192,85663,1,0,0:0:0:0:
320,192,85663,1,0,0:0:0:0:
192,192,85837,1,0,0:0:0:0:
448,192,85837,1,0,0:0:0:0:
448,192,86012,1,0,0:0:0:0:
192,192,86012,1,0,0:0:0:0:
192,192,86186,1,0,0:0:0:0:
448,192,86186,1,0,0:0:0:0:
192,192,86361,1,0,0:0:0:0:
448,192,86361,1,0,0:0:0:0:
64,192,86535,128,0,86651:0:0:0:0:
192,192,86651,128,0,86768:0:0:0:0:
448,192,86768,128,0,86884:0:0:0:0:
320,192,86884,128,0,87000:0:0:0:0:
192,192,87000,128,0,87117:0:0:0:0:
64,192,87117,128,0,87233:0:0:0:0:
320,192,87233,128,0,87349:0:0:0:0:
448,192,87349,128,0,87465:0:0:0:0:
64,192,87465,128,0,87582:0:0:0:0:
192,192,87582,128,0,87698:0:0:0:0:
448,192,87698,128,0,87814:0:0:0:0:
320,192,87814,128,0,87930:0:0:0:0:
192,192,87930,1,0,0:0:0:0:
64,192,87930,1,0,0:0:0:0:
64,192,88105,1,0,0:0:0:0:
192,192,88105,1,0,0:0:0:0:
64,192,88279,1,0,0:0:0:0:
192,192,88279,1,0,0:0:0:0:
64,192,88454,1,0,0:0:0:0:
192,192,88454,1,0,0:0:0:0:
64,192,88628,1,0,0:0:0:0:
192,192,88628,1,0,0:0:0:0:
320,192,88628,1,0,0:0:0:0:
448,192,88977,1,0,0:0:0:0:
320,192,88977,1,0,0:0:0:0:
320,192,89151,1,0,0:0:0:0:
192,192,89151,1,0,0:0:0:0:
64,192,89326,128,0,90024:0:0:0:0:
448,192,89326,1,0,0:0:0:0:
192,192,89675,128,0,90024:0:0:0:0:
320,192,89675,1,0,0:0:0:0:
448,192,90024,1,0,0:0:0:0:
320,192,90024,1,0,0:0:0:0:
448,192,90198,1,0,0:0:0:0:
320,192,90198,1,0,0:0:0:0:
448,192,90372,1,0,0:0:0:0:
320,192,90372,1,0,0:0:0:0:
448,192,90547,1,0,0:0:0:0:
320,192,90547,1,0,0:0:0:0:
192,192,90721,1,0,0:0:0:0:
64,192,90721,1,0,0:0:0:0:
192,192,90896,1,0,0:0:0:0:
64,192,90896,1,0,0:0:0:0:
192,192,91070,1,0,0:0:0:0:
64,192,91070,1,0,0:0:0:0:
192,192,91244,1,0,0:0:0:0:
64,192,91244,1,0,0:0:0:0:
320,192,91419,1,0,0:0:0:0:
448,192,91419,1,0,0:0:0:0:
448,192,91593,1,0,0:0:0:0:
320,192,91593,1,0,0:0:0:0:
320,192,91768,1,0,0:0:0:0:
448,192,91768,1,0,0:0:0:0:
448,192,91942,1,0,0:0:0:0:
320,192,91942,1,0,0:0:0:0:
64,192,92117,128,0,92204:0:0:0:0:
192,192,92117,128,0,92204:0:0:0:0:
320,192,92117,128,0,92204:0:0:0:0:
320,192,92465,1,0,0:0:0:0:
448,192,92465,1,0,0:0:0:0:
64,192,92640,128,0,92727:0:0:0:0:
192,192,92640,128,0,92727:0:0:0:0:
320,192,92640,128,0,92727:0:0:0:0:
64,192,92814,128,0,92901:0:0:0:0:
320,192,92814,128,0,92901:0:0:0:0:
192,192,92814,128,0,92901:0:0:0:0:
320,192,93163,1,0,0:0:0:0:
448,192,93163,1,0,0:0:0:0:
192,192,93337,128,0,93425:0:0:0:0:
64,192,93337,128,0,93425:0:0:0:0:
320,192,93337,128,0,93425:0:0:0:0:
192,192,93512,128,0,93861:0:0:0:0:
320,192,93861,128,0,94210:0:0:0:0:
64,192,93861,1,0,0:0:0:0:
448,192,94210,1,0,0:0:0:0:
192,192,94210,128,0,94384:0:0:0:0:
320,192,94384,1,0,0:0:0:0:
64,192,94384,128,0,94558:0:0:0:0:
448,192,94558,128,0,94907:0:0:0:0:
192,192,94558,1,0,0:0:0:0:
320,192,94907,1,0,0:0:0:0:
192,192,94907,128,0,95605:0:0:0:0:
320,192,95256,128,0,95605:0:0:0:0:
448,192,95256,1,0,0:0:0:0:
64,192,95605,1,0,0:0:0:0:
448,192,95605,1,0,0:0:0:0:
64,192,95779,1,0,0:0:0:0:
448,192,95779,1,0,0:0:0:0:
64,192,95954,1,0,0:0:0:0:
448,192,95954,1,0,0:0:0:0:
64,192,96128,1,0,0:0:0:0:
448,192,96128,1,0,0:0:0:0:
192,192,96303,1,0,0:0:0:0:
320,192,96303,1,0,0:0:0:0:
192,192,96477,1,0,0:0:0:0:
320,192,96477,1,0,0:0:0:0:
192,192,96651,1,0,0:0:0:0:
320,192,96651,1,0,0:0:0:0:
192,192,96826,1,0,0:0:0:0:
320,192,96826,1,0,0:0:0:0:
64,192,97000,1,0,0:0:0:0:
448,192,97000,1,0,0:0:0:0:
448,192,97175,1,0,0:0:0:0:
64,192,97175,1,0,0:0:0:0:
64,192,97349,1,0,0:0:0:0:
448,192,97349,1,0,0:0:0:0:
64,192,97524,1,0,0:0:0:0:
448,192,97524,1,0,0:0:0:0:
64,192,97698,128,0,97814:0:0:0:0:
192,192,97814,128,0,97930:0:0:0:0:
320,192,97930,128,0,98047:0:0:0:0:
64,192,98047,128,0,98163:0:0:0:0:
192,192,98163,128,0,98279:0:0:0:0:
320,192,98279,128,0,98396:0:0:0:0:
64,192,98396,128,0,98512:0:0:0:0:
192,192,98512,128,0,98628:0:0:0:0:
448,192,98628,128,0,98744:0:0:0:0:
64,192,98744,128,0,98861:0:0:0:0:
192,192,98861,128,0,98977:0:0:0:0:
448,192,98977,128,0,99093:0:0:0:0:
320,192,99093,1,0,0:0:0:0:
64,192,99093,1,0,0:0:0:0:
448,192,99268,1,0,0:0:0:0:
192,192,99268,1,0,0:0:0:0:
320,192,99442,1,0,0:0:0:0:
64,192,99442,1,0,0:0:0:0:
192,192,99617,1,0,0:0:0:0:
448,192,99617,1,0,0:0:0:0:
320,192,99791,1,0,0:0:0:0:
192,192,99791,1,0,0:0:0:0:
64,192,99791,1,0,0:0:0:0:
64,192,100140,1,0,0:0:0:0:
320,192,100314,1,0,0:0:0:0:
64,192,100489,1,0,0:0:0:0:
192,192,100489,1,0,0:0:0:0:
448,192,100489,1,0,0:0:0:0:
320,192,100663,1,0,0:0:0:0:
192,192,100837,1,0,0:0:0:0:
448,192,100837,1,0,0:0:0:0:
64,192,101012,1,0,0:0:0:0:
192,192,101186,1,0,0:0:0:0:
320,192,101186,1,0,0:0:0:0:
448,192,101186,1,0,0:0:0:0:
448,192,101361,1,0,0:0:0:0:
64,192,101535,1,0,0:0:0:0:
320,192,101535,1,0,0:0:0:0:
192,192,101710,1,0,0:0:0:0:
320,192,101884,1,0,0:0:0:0:
448,192,101884,1,0,0:0:0:0:
64,192,101884,1,0,0:0:0:0:
192,192,102058,1,0,0:0:0:0:
320,192,102233,1,0,0:0:0:0:
448,192,102233,1,0,0:0:0:0:
64,192,102407,1,0,0:0:0:0:
192,192,102582,1,0,0:0:0:0:
320,192,102582,1,0,0:0:0:0:
448,192,102582,1,0,0:0:0:0:
448,192,102756,1,0,0:0:0:0:
64,192,102930,1,0,0:0:0:0:
192,192,102930,1,0,0:0:0:0:
320,192,103105,1,0,0:0:0:0:
192,192,103279,1,0,0:0:0:0:
448,192,103279,1,0,0:0:0:0:
64,192,103279,1,0,0:0:0:0:
320,192,103454,1,0,0:0:0:0:
448,192,103628,1,0,0:0:0:0:
64,192,103628,1,0,0:0:0:0:
192,192,103803,1,0,0:0:0:0:
320,192,103977,1,0,0:0:0:0:
448,192,103977,1,0,0:0:0:0:
64,192,103977,1,0,0:0:0:0:
192,192,104151,1,0,0:0:0:0:
64,192,104326,1,0,0:0:0:0:
320,192,104326,1,0,0:0:0:0:
192,192,104500,1,0,0:0:0:0:
64,192,104675,1,0,0:0:0:0:
448,192,104675,1,0,0:0:0:0:
320,192,104675,1,0,0:0:0:0:
192,192,104762,1,0,0:0:0:0:
448,192,104849,1,0,0:0:0:0:
320,192,104936,1,0,0:0:0:0:
64,192,105024,1,0,0:0:0:0:
192,192,105024,1,0,0:0:0:0:
320,192,105198,1,0,0:0:0:0:
448,192,105372,1,0,0:0:0:0:
192,192,105372,1,0,0:0:0:0:
64,192,105372,1,0,0:0:0:0:
448,192,105547,1,0,0:0:0:0:
192,192,105547,1,0,0:0:0:0:
64,192,105547,1,0,0:0:0:0:
64,192,105721,1,0,0:0:0:0:
320,192,105721,1,0,0:0:0:0:
192,192,105896,1,0,0:0:0:0:
64,192,106070,128,0,106332:0:0:0:0:
448,192,106070,128,0,106332:0:0:0:0:
448,192,106419,1,0,0:0:0:0:
64,192,106419,1,0,0:0:0:0:
320,192,106419,1,0,0:0:0:0:
64,192,106768,1,0,0:0:0:0:
448,192,106768,1,0,0:0:0:0:
192,192,106768,1,0,0:0:0:0:
320,192,106942,1,0,0:0:0:0:
448,192,107117,1,0,0:0:0:0:
192,192,107117,1,0,0:0:0:0:
64,192,107291,1,0,0:0:0:0:
448,192,107465,1,0,0:0:0:0:
192,192,107465,128,0,107553:0:0:0:0:
320,192,107465,1,0,0:0:0:0:
320,192,107640,1,0,0:0:0:0:
448,192,107814,1,0,0:0:0:0:
64,192,107814,1,0,0:0:0:0:
192,192,107989,1,0,0:0:0:0:
320,192,108163,1,0,0:0:0:0:
448,192,108163,1,0,0:0:0:0:
64,192,108163,1,0,0:0:0:0:
320,192,108337,1,0,0:0:0:0:
448,192,108337,1,0,0:0:0:0:
64,192,108337,1,0,0:0:0:0:
192,192,108512,1,0,0:0:0:0:
64,192,108512,1,0,0:0:0:0:
320,192,108686,1,0,0:0:0:0:
64,192,108861,1,0,0:0:0:0:
448,192,108861,1,0,0:0:0:0:
192,192,108861,1,0,0:0:0:0:
320,192,109035,1,0,0:0:0:0:
192,192,109210,1,0,0:0:0:0:
64,192,109210,1,0,0:0:0:0:
448,192,109384,1,0,0:0:0:0:
320,192,109558,1,0,0:0:0:0:
64,192,109558,1,0,0:0:0:0:
448,192,109558,1,0,0:0:0:0:
192,192,109733,1,0,0:0:0:0:
320,192,109907,1,0,0:0:0:0:
64,192,109907,1,0,0:0:0:0:
448,192,110082,1,0,0:0:0:0:
320,192,110256,1,0,0:0:0:0:
192,192,110256,1,0,0:0:0:0:
64,192,110430,1,0,0:0:0:0:
448,192,110430,1,0,0:0:0:0:
192,192,110430,1,0,0:0:0:0:
320,192,110605,1,0,0:0:0:0:
448,192,110605,1,0,0:0:0:0:
320,192,110779,1,0,0:0:0:0:
64,192,110779,1,0,0:0:0:0:
192,192,110779,1,0,0:0:0:0:
64,192,110954,1,0,0:0:0:0:
448,192,110954,1,0,0:0:0:0:
192,192,110954,128,0,111564:0:0:0:0:
64,192,111651,1,0,0:0:0:0:
320,192,111651,1,0,0:0:0:0:
448,192,111651,1,0,0:0:0:0:
192,192,111826,1,0,0:0:0:0:
64,192,112000,1,0,0:0:0:0:
320,192,112000,1,0,0:0:0:0:
448,192,112175,1,0,0:0:0:0:
64,192,112349,1,0,0:0:0:0:
192,192,112349,1,0,0:0:0:0:
320,192,112349,1,0,0:0:0:0:
64,192,112524,1,0,0:0:0:0:
192,192,112698,1,0,0:0:0:0:
448,192,112698,1,0,0:0:0:0:
320,192,112872,1,0,0:0:0:0:
448,192,113047,1,0,0:0:0:0:
64,192,113047,1,0,0:0:0:0:
192,192,113047,1,0,0:0:0:0:
320,192,113221,1,0,0:0:0:0:
64,192,113396,1,0,0:0:0:0:
192,192,113396,1,0,0:0:0:0:
448,192,113570,1,0,0:0:0:0:
64,192,113744,1,0,0:0:0:0:
192,192,113744,1,0,0:0:0:0:
320,192,113744,1,0,0:0:0:0:
64,192,113919,1,0,0:0:0:0:
192,192,113919,1,0,0:0:0:0:
320,192,113919,1,0,0:0:0:0:
320,192,114093,1,0,0:0:0:0:
448,192,114093,1,0,0:0:0:0:
192,192,114268,1,0,0:0:0:0:
448,192,114442,1,0,0:0:0:0:
64,192,114442,1,0,0:0:0:0:
320,192,114442,1,0,0:0:0:0:
192,192,114617,1,0,0:0:0:0:
448,192,114791,1,0,0:0:0:0:
64,192,114791,1,0,0:0:0:0:
320,192,114965,1,0,0:0:0:0:
448,192,115140,1,0,0:0:0:0:
64,192,115140,1,0,0:0:0:0:
192,192,115140,1,0,0:0:0:0:
320,192,115314,1,0,0:0:0:0:
192,192,115489,1,0,0:0:0:0:
448,192,115489,1,0,0:0:0:0:
320,192,115663,1,0,0:0:0:0:
192,192,115837,1,0,0:0:0:0:
64,192,115837,1,0,0:0:0:0:
448,192,115837,1,0,0:0:0:0:
320,192,115925,1,0,0:0:0:0:
64,192,116012,1,0,0:0:0:0:
192,192,116099,1,0,0:0:0:0:
320,192,116186,1,0,0:0:0:0:
448,192,116186,1,0,0:0:0:0:
192,192,116361,1,0,0:0:0:0:
448,192,116535,1,0,0:0:0:0:
320,192,116535,1,0,0:0:0:0:
64,192,116535,1,0,0:0:0:0:
448,192,116710,1,0,0:0:0:0:
320,192,116710,1,0,0:0:0:0:
64,192,116710,1,0,0:0:0:0:
192,192,116884,1,0,0:0:0:0:
448,192,116884,1,0,0:0:0:0:
320,192,117058,1,0,0:0:0:0:
64,192,117233,128,0,117494:0:0:0:0:
448,192,117233,128,0,117494:0:0:0:0:
192,192,117582,1,0,0:0:0:0:
448,192,117582,1,0,0:0:0:0:
64,192,117582,1,0,0:0:0:0:
320,192,117930,1,0,0:0:0:0:
64,192,117930,1,0,0:0:0:0:
448,192,117930,1,0,0:0:0:0:
192,192,118105,1,0,0:0:0:0:
320,192,118279,1,0,0:0:0:0:
64,192,118279,1,0,0:0:0:0:
448,192,118454,1,0,0:0:0:0:
192,192,118628,1,0,0:0:0:0:
320,192,118628,128,0,118715:0:0:0:0:
64,192,118628,1,0,0:0:0:0:
192,192,118803,1,0,0:0:0:0:
448,192,118977,1,0,0:0:0:0:
64,192,118977,1,0,0:0:0:0:
320,192,119151,1,0,0:0:0:0:
448,192,119326,1,0,0:0:0:0:
64,192,119326,1,0,0:0:0:0:
192,192,119326,1,0,0:0:0:0:
448,192,119500,1,0,0:0:0:0:
64,192,119500,1,0,0:0:0:0:
192,192,119500,1,0,0:0:0:0:
448,192,119675,1,0,0:0:0:0:
320,192,119675,1,0,0:0:0:0:
192,192,119849,1,0,0:0:0:0:
320,192,120024,1,0,0:0:0:0:
64,192,120024,1,0,0:0:0:0:
448,192,120024,1,0,0:0:0:0:
192,192,120198,1,0,0:0:0:0:
448,192,120372,1,0,0:0:0:0:
320,192,120372,1,0,0:0:0:0:
64,192,120547,1,0,0:0:0:0:
64,192,120721,1,0,0:0:0:0:
448,192,120721,1,0,0:0:0:0:
192,192,120721,1,0,0:0:0:0:
320,192,120896,1,0,0:0:0:0:
448,192,121070,1,0,0:0:0:0:
192,192,121070,1,0,0:0:0:0:
64,192,121244,1,0,0:0:0:0:
320,192,121419,1,0,0:0:0:0:
192,192,121419,1,0,0:0:0:0:
64,192,121593,1,0,0:0:0:0:
320,192,121768,1,0,0:0:0:0:
448,192,122117,1,0,0:0:0:0:
320,192,122291,1,0,0:0:0:0:
192,192,122465,1,0,0:0:0:0:
64,192,122640,1,0,0:0:0:0:
320,192,122814,1,0,0:0:0:0:
448,192,122814,1,0,0:0:0:0:
192,192,122814,128,0,133977:0:0:0:0:
64,192,133977,1,0,0:0:0:0:
320,192,133977,1,0,0:0:0:0:
448,192,133977,1,0,0:0:0:0:
