osu file format v14

[General]
AudioFilename: audio.mp3
AudioLeadIn: 0
PreviewTime: 24
Countdown: 0
SampleSet: Soft
StackLeniency: 0.2
Mode: 0
LetterboxInBreaks: 0
WidescreenStoryboard: 1

[Editor]
DistanceSpacing: 1.2
BeatDivisor: 4
GridSize: 8
TimelineZoom: 1.3

[Metadata]
Title:Outbreak
TitleUnicode:Outbreak
Artist:Mediks
ArtistUnicode:Mediks
Creator:Strategas
Version:pishi's Easy
Source:
Tags:ep dnb zombie pishifat cbh DeRandom Otaku Arrival Come[Back]Home Yamicchi 2012
BeatmapID:1123887
BeatmapSetID:527082

[Difficulty]
HPDrainRate:2
CircleSize:3
OverallDifficulty:2
ApproachRate:3
SliderMultiplier:1
SliderTickRate:1

[Events]
//Background and Video events
0,0,"hospital.jpg",0,0
//Break Periods
//Storyboard Layer 0 (Background)
//Storyboard Layer 1 (Fail)
//Storyboard Layer 2 (Pass)
//Storyboard Layer 3 (Foreground)
//Storyboard Sound Samples

[TimingPoints]
24,348.837209302326,4,2,25,25,1,0
20256,-100,4,2,25,30,0,0
20954,-100,4,2,25,35,0,0
21651,-100,4,2,25,40,0,0
22000,-100,4,2,25,5,0,0
22349,-111.111111111111,4,2,25,50,0,0
27930,-100,4,2,25,50,0,0
30721,-100,4,2,25,60,0,0
33163,-100,4,2,25,80,0,0
33512,-100,4,2,25,70,0,0
33861,-100,4,2,25,80,0,0
34210,-100,4,2,25,70,0,0
36303,-100,4,2,25,90,0,0
36826,-100,4,2,25,5,0,0
36884,-100,4,2,25,90,0,0
36942,-100,4,2,25,5,0,0
37000,-100,4,2,25,90,0,0
37524,-100,4,2,25,5,0,0
37582,-100,4,2,25,90,0,0
37640,-100,4,2,25,5,0,0
37698,-100,4,2,25,70,0,0
38047,-100,4,2,25,80,0,0
39791,-100,4,2,25,70,0,0
42582,-100,4,2,25,75,0,0
43279,-100,4,2,25,90,0,0
44326,-100,4,2,25,50,0,0
44675,-100,4,2,25,70,0,0
45024,-100,4,2,25,70,0,0
45372,-100,4,2,25,70,0,0
47465,-100,4,2,25,70,0,0
47989,-100,4,2,25,5,0,0
48047,-100,4,2,25,70,0,0
48105,-100,4,2,25,5,0,0
48163,-100,4,2,25,70,0,0
48628,-100,4,2,25,70,0,0
48686,-100,4,2,25,5,0,0
48744,-100,4,2,25,70,0,0
48803,-100,4,2,25,5,0,0
48861,-100,4,2,25,70,0,0
49210,-100,4,2,25,80,0,0
50954,-100,4,2,25,70,0,0
61419,-100,4,2,25,80,0,0
61768,-100,4,2,25,80,0,0
61884,-100,4,2,25,70,0,0
64210,-100,4,2,25,70,0,0
64559,-100,4,2,25,70,0,0
67000,-100,4,2,25,70,0,0
73977,-100,4,2,25,80,0,0
75372,-100,4,2,25,50,0,0
75983,-100,4,2,25,5,0,0
76070,-100,4,2,25,50,0,0
76768,-100,4,2,25,60,0,0
80954,-100,4,2,25,70,0,0
81564,-100,4,2,25,5,0,0
81651,-100,4,2,25,70,0,0
82262,-100,4,2,25,5,0,0
82349,-100,4,2,25,60,0,0
82611,-100,4,2,25,5,0,0
82698,-100,4,2,25,70,0,0
86535,-100,4,2,25,60,0,0
92117,-100,4,2,25,50,0,0
93861,-100,4,2,25,60,0,0
94907,-100,4,2,25,60,0,0
97698,-100,4,2,25,60,0,0
100140,-100,4,2,25,40,0,0
100489,-111.111111111111,4,2,25,50,0,0
106419,-111.111111111111,4,2,25,65,0,0
106593,-111.111111111111,4,2,25,50,0,0
117582,-111.111111111111,4,2,25,65,0,0
117756,-111.111111111111,4,2,25,50,0,0

[Colours]
Combo1 : 188,198,6
Combo2 : 155,40,61
Combo3 : 44,57,180

[HitObjects]
256,192,16768,12,0,20954,0:0:0:0:
297,314,22349,6,0,P|358:350|477:337,1,179.999994506836,4|2,0:0|0:0,0:0:0:0:
490,153,23744,2,0,P|428:116|309:129,1,179.999994506836,2|2,0:0|0:0,0:0:0:0:
208,314,25140,6,0,P|146:350|27:337,1,179.999994506836,2|2,0:0|0:0,0:0:0:0:
15,153,26535,2,0,P|76:116|195:129,1,179.999994506836,2|2,0:0|0:0,0:0:0:0:
306,280,27930,6,0,L|317:379,2,100,6|2|2,0:0|0:3|0:3,0:0:0:0:
188,119,29326,2,0,L|177:20,2,100,2|2|2,0:3|0:3|0:3,0:0:0:0:
145,314,30721,6,0,P|76:337|41:328,1,100,2|2,0:3|0:3,0:0:0:0:
35,232,31419,2,0,P|105:208|138:216,1,100,2|2,0:3|0:3,0:0:0:0:
220,253,32117,1,2,0:3:0:0:
306,203,32465,1,2,0:3:0:0:
243,124,32814,1,2,0:3:0:0:
331,77,33163,1,8,1:0:0:0:
396,152,33512,6,0,B|408:215|408:215|381:275|381:275|399:367,1,200,4|2,0:0|1:3,0:0:0:0:
479,291,34558,1,8,1:0:0:0:
509,195,34907,2,0,L|487:85,1,100,2|8,1:3|1:0,0:0:0:0:
401,47,35605,2,0,P|345:56|302:95,1,100,2|8,1:3|1:0,0:0:0:0:
254,164,36303,6,0,B|204:175|204:175|144:148,1,100,2|8,1:3|0:1,0:0:0:0:
93,79,37000,2,0,B|43:68|43:68|-17:95,1,100,2|8,1:3|0:1,0:0:0:0:
59,167,37698,2,0,B|90:226|90:226|77:369,1,200,2|2,1:3|1:3,0:0:0:0:
176,339,38744,1,8,1:0:0:0:
268,378,39093,6,0,P|336:364|389:244,1,200,2|2,1:3|1:3,0:0:0:0:
355,161,40140,1,8,1:0:0:0:
413,79,40489,2,0,L|522:88,2,100,2|8|2,1:3|1:0|1:3,0:0:0:0:
332,19,41535,1,8,1:0:0:0:
256,84,41884,6,0,B|230:124|230:124|233:181,1,100,2|8,1:3|1:0,0:0:0:0:
293,255,42582,2,0,B|296:307|296:307|270:347,1,100,2|8,1:3|1:0,0:0:0:0:
198,277,43279,1,8,1:0:0:0:
98,289,43628,1,8,1:0:0:0:
0,301,43977,1,2,1:3:0:0:
164,87,44675,6,0,B|232:82|232:82|280:109|280:109|367:102,1,200,4|2,0:0|1:3,0:0:0:0:
440,49,45721,1,8,1:0:0:0:
505,124,46070,2,0,P|506:177|478:229,1,100,2|8,1:3|1:0,0:0:0:0:
397,265,46768,2,0,L|286:256,1,100,2|8,1:3|1:0,0:0:0:0:
232,181,47465,6,0,B|180:173|180:173|121:205,1,100,2|8,1:3|0:1,0:0:0:0:
56,252,48163,2,0,B|36:202|36:202|46:155,1,100,2|8,1:3|0:1,0:0:0:0:
97,70,48861,2,0,B|215:99|170:28|302:65,1,200,0|2,0:0|1:3,0:0:0:0:
368,125,49907,1,8,1:0:0:0:
290,188,50256,6,0,B|226:264|226:264|246:375,1,200,2|2,1:3|1:3,0:0:0:0:
343,354,51303,1,8,1:0:0:0:
442,345,51651,2,0,P|458:306|452:242,1,100,2|8,1:3|1:0,0:0:0:0:
402,163,52349,2,0,P|392:106|415:51,1,100,2|8,1:3|1:0,0:0:0:0:
488,12,53047,6,0,L|274:-1,1,200,2|2,1:3|1:3,0:0:0:0:
194,34,54093,1,8,1:0:0:0:
269,99,54442,1,8,1:0:0:0:
257,198,54791,1,8,1:0:0:0:
246,297,55140,1,2,1:3:0:0:
86,176,55837,5,2,0:3:0:0:
86,176,58279,1,8,1:0:0:0:
162,240,58628,5,2,1:3:0:0:
215,155,58977,2,0,B|334:134|285:205|426:174,1,200,8|8,1:0|1:0,0:0:0:0:
478,105,60024,2,0,P|469:29|445:2,1,100,2|8,1:3|1:0,0:0:0:0:
361,44,60721,2,0,L|248:51,1,100,2|8,1:3|1:0,0:0:0:0:
167,15,61419,5,2,1:3:0:0:
128,107,61768,1,8,1:0:0:0:
90,199,62117,2,0,L|99:307,1,100,2|8,0:3|0:1,0:0:0:0:
175,362,62814,2,0,P|246:359|286:333,1,100,2|8,0:3|0:1,0:0:0:0:
326,262,63512,2,0,P|397:265|437:291,1,100,2|8,1:3|1:0,0:0:0:0:
475,362,64210,6,0,L|451:146,1,200,2|0,1:3|0:0,0:0:0:0:
477,66,65256,1,8,0:1:0:0:
387,16,65605,1,8,1:0:0:0:
287,29,65954,1,8,1:0:0:0:
188,46,66303,1,2,1:3:0:0:
96,223,67000,6,0,B|216:251|166:178|307:214,1,200,4|2,1:0|1:3,0:0:0:0:
370,269,68047,1,8,1:0:0:0:
462,231,68396,2,0,L|471:124,2,100,2|8|2,1:3|1:0|1:3,0:0:0:0:
453,330,69442,1,8,1:0:0:0:
360,369,69791,5,2,1:3:0:0:
280,308,70140,2,0,B|268:240|268:240|292:184|292:184|277:104,1,200,8|8,1:0|1:0,0:0:0:0:
209,43,71186,2,0,P|144:42|99:67,1,100,2|8,1:3|1:0,0:0:0:0:
61,141,71884,2,0,L|69:248,1,100,2|8,1:3|1:0,0:0:0:0:
43,337,72582,5,2,1:3:0:0:
134,377,72930,1,8,0:1:0:0:
168,283,73279,2,0,L|158:170,1,100,2|8,1:3|0:1,0:0:0:0:
166,83,73977,2,0,P|225:59|274:67,1,100,2|8,1:3|0:1,0:0:0:0:
319,143,74675,2,0,P|391:159|437:151,1,100,2|8,1:3|0:1,0:0:0:0:
502,106,75372,5,0,0:0:0:0:
18,310,76768,1,2,1:3:0:0:
32,210,77117,1,2,1:3:0:0:
131,225,77466,1,2,1:3:0:0:
143,125,77815,1,8,1:0:0:0:
96,34,78163,6,0,B|161:26|161:26|215:49|215:49|294:42,1,200,4|2,1:0|1:3,0:0:0:0:
382,2,79210,1,8,1:0:0:0:
461,62,79558,2,0,P|454:133|432:164,1,100,2|8,1:3|1:0,0:0:0:0:
348,199,80256,2,0,P|321:259|326:300,1,100,2|8,1:3|1:0,0:0:0:0:
421,270,80954,5,2,1:3:0:0:
226,224,81651,1,2,1:3:0:0:
364,79,82349,1,2,1:3:0:0:
284,17,82698,2,0,P|235:18|175:49,1,100,8|2,1:0|1:3,0:0:0:0:
150,131,83396,1,8,1:0:0:0:
234,183,83744,6,0,P|297:242|266:357,1,200,2|2,1:3|1:3,0:0:0:0:
202,279,84791,1,8,1:0:0:0:
109,316,85140,2,0,P|56:314|7:286,1,100,2|8,1:3|1:0,0:0:0:0:
83,219,85837,2,0,L|92:102,1,100,2|8,1:3|1:0,0:0:0:0:
44,30,86535,6,0,B|113:23|113:23|165:52|165:52|252:42,2,200,2|2|8,1:3|1:3|1:0,0:0:0:0:
90,119,88279,1,8,1:0:0:0:
83,219,88628,1,2,1:3:0:0:
256,319,89326,6,0,P|339:327|426:240,1,200,4|2,1:0|1:3,0:0:0:0:
388,158,90372,1,8,1:0:0:0:
432,68,90721,2,0,L|534:77,2,100,2|8|2,1:3|1:0|1:3,0:0:0:0:
353,5,91768,1,8,1:0:0:0:
268,58,92117,5,2,1:3:0:0:
346,241,92814,1,2,1:3:0:0:
159,312,93512,1,2,1:3:0:0:
82,247,93861,2,0,P|134:215|188:218,2,100,8|2|8,1:0|1:3|1:0,0:0:0:0:
36,335,94907,6,0,B|63:220|-11:253|28:130,1,200,2|2,1:3|1:3,0:0:0:0:
85,60,95954,1,8,1:0:0:0:
168,114,96303,2,0,P|254:104|277:88,1,100,2|8,1:3|1:0,0:0:0:0:
326,20,97000,2,0,P|412:30|435:46,1,100,2|8,1:3|1:0,0:0:0:0:
488,110,97698,6,0,B|499:173|499:173|472:233|472:233|486:320,2,200,2|2|12,1:3|1:3|1:0,0:0:0:0:
400,159,99442,1,8,1:0:0:0:
302,135,99791,1,2,1:3:0:0:
109,187,100489,6,0,P|81:259|78:366,1,179.999994506836,4|2,1:0|0:3,0:0:0:0:
170,328,101535,1,8,1:0:0:0:
259,371,101884,2,0,L|361:383,2,89.9999972534181,2|8|2,0:3|1:0|1:3,0:0:0:0:
170,328,102930,1,8,1:0:0:0:
253,274,103279,6,0,P|241:188|208:98,1,179.999994506836,2|2,0:3|0:3,0:0:0:0:
119,59,104326,1,8,1:0:0:0:
199,1,104675,2,0,P|246:6|305:29,1,89.9999972534181,2|8,0:3|1:0,0:0:0:0:
344,99,105372,2,0,P|405:95|441:85,2,89.9999972534181,2|8|2,1:3|1:0|0:3,0:0:0:0:
236,112,106419,5,8,1:0:0:0:
309,192,106768,2,0,P|321:253|320:294,1,89.9999972534181,2|8,0:3|1:0,0:0:0:0:
245,344,107465,2,0,P|157:323|60:319,1,179.999994506836,2|2,0:3|1:3,0:0:0:0:
8,239,108512,1,8,1:0:0:0:
100,202,108861,6,0,P|127:103|136:24,1,179.999994506836,2|2,0:3|0:3,0:0:0:0:
228,62,109907,1,8,1:0:0:0:
314,14,110256,1,8,1:0:0:0:
357,102,110605,1,8,1:0:0:0:
403,189,110954,1,2,1:3:0:0:
254,320,111651,6,0,P|171:289|69:279,2,179.999994506836,4|2|2,1:0|0:3|0:3,0:0:0:0:
337,373,113396,1,8,0:1:0:0:
431,343,113744,2,0,P|444:290|448:239,1,89.9999972534181,2|8,0:3|0:1,0:0:0:0:
351,229,114442,6,0,P|331:154|325:47,1,179.999994506836,2|2,0:3|0:3,0:0:0:0:
417,17,115489,1,8,0:1:0:0:
491,81,115837,2,0,P|500:127|499:183,1,89.9999972534181,2|8,0:3|0:1,0:0:0:0:
447,254,116535,2,0,P|462:338|470:359,2,89.9999972534181,2|8|2,0:3|0:1|0:3,0:0:0:0:
395,169,117582,5,8,0:1:0:0:
305,211,117930,2,0,P|249:203|198:191,1,89.9999972534181,2|8,0:3|0:1,0:0:0:0:
128,149,118628,2,0,P|99:234|90:338,1,179.999994506836,2|0,0:3|0:0,0:0:0:0:
182,358,119675,1,8,1:0:0:0:
263,301,120024,5,2,0:3:0:0:
345,354,120372,2,0,P|411:344|448:331,1,89.9999972534181,8|2,0:1|0:3,0:0:0:0:
496,260,121070,1,8,0:1:0:0:
450,172,121419,1,8,0:3:0:0:
62,172,122814,5,8,0:3:0:0:
256,192,122901,12,0,133977,0:0:0:0:
