osu file format v14

[General]
AudioFilename: audio.mp3
AudioLeadIn: 0
PreviewTime: 24
Countdown: 0
SampleSet: Soft
StackLeniency: 0.3
Mode: 0
LetterboxInBreaks: 0
WidescreenStoryboard: 1

[Editor]
DistanceSpacing: 1.2
BeatDivisor: 4
GridSize: 8
TimelineZoom: 1.3

[Metadata]
Title:Outbreak
TitleUnicode:Outbreak
Artist:Mediks
ArtistUnicode:Mediks
Creator:Strategas
Version:Hard
Source:
Tags:ep dnb zombie pishifat cbh DeRandom Otaku Arrival Come[Back]Home Yamicchi 2012
BeatmapID:1168747
BeatmapSetID:527082

[Difficulty]
HPDrainRate:5
CircleSize:3.6
OverallDifficulty:6
ApproachRate:7.8
SliderMultiplier:1.4
SliderTickRate:1

[Events]
//Background and Video events
0,0,"hospital.jpg",0,0
//Break Periods
//Storyboard Layer 0 (Background)
//Storyboard Layer 1 (Fail)
//Storyboard Layer 2 (Pass)
//Storyboard Layer 3 (Foreground)
//Storyboard Sound Samples

[TimingPoints]
24,348.837209302326,4,2,25,25,1,0
20256,-100,4,2,25,30,0,0
20954,-100,4,2,25,35,0,0
21651,-100,4,2,25,40,0,0
22000,-100,4,2,25,5,0,0
22349,-125,4,2,25,50,0,0
27930,-100,4,2,25,50,0,0
30721,-100,4,2,25,60,0,0
33163,-100,4,2,25,80,0,0
33512,-100,4,2,25,70,0,0
33861,-100,4,2,25,80,0,0
34210,-100,4,2,25,70,0,0
36303,-100,4,2,25,90,0,0
36826,-100,4,2,25,5,0,0
36884,-100,4,2,25,90,0,0
36942,-100,4,2,25,5,0,0
37000,-100,4,2,25,90,0,0
37524,-100,4,2,25,5,0,0
37582,-100,4,2,25,90,0,0
37640,-100,4,2,25,5,0,0
37698,-100,4,2,25,70,0,0
38047,-100,4,2,25,80,0,0
39791,-100,4,2,25,70,0,0
42582,-100,4,2,25,75,0,0
43279,-100,4,2,25,90,0,0
44326,-100,4,2,25,50,0,0
44675,-100,4,2,25,70,0,0
45024,-100,4,2,25,70,0,0
45372,-100,4,2,25,70,0,0
47465,-100,4,2,25,70,0,0
47989,-100,4,2,25,5,0,0
48047,-100,4,2,25,70,0,0
48105,-100,4,2,25,5,0,0
48163,-100,4,2,25,70,0,0
48628,-100,4,2,25,70,0,0
48686,-100,4,2,25,5,0,0
48744,-100,4,2,25,70,0,0
48803,-100,4,2,25,5,0,0
48861,-100,4,2,25,70,0,0
49210,-100,4,2,25,80,0,0
50954,-100,4,2,25,70,0,0
61419,-100,4,2,25,80,0,0
61768,-100,4,2,25,80,0,0
61884,-100,4,2,25,70,0,0
64210,-100,4,2,25,70,0,0
64559,-100,4,2,25,70,0,0
67000,-100,4,2,25,70,0,0
73977,-100,4,2,25,80,0,0
75372,-100,4,2,25,50,0,0
75983,-100,4,2,25,5,0,0
76070,-100,4,2,25,50,0,0
76768,-100,4,2,25,60,0,0
80954,-100,4,2,25,70,0,0
81564,-100,4,2,25,5,0,0
81651,-100,4,2,25,70,0,0
82262,-100,4,2,25,5,0,0
82349,-100,4,2,25,60,0,0
82611,-100,4,2,25,5,0,0
82698,-100,4,2,25,70,0,0
86535,-100,4,2,25,60,0,0
92117,-100,4,2,25,50,0,0
93861,-100,4,2,25,60,0,0
94907,-100,4,2,25,60,0,0
97698,-100,4,2,25,60,0,0
100140,-100,4,2,25,40,0,0
100489,-100,4,2,25,50,0,0
106419,-100,4,2,25,65,0,0
106593,-100,4,2,25,50,0,0
117582,-100,4,2,25,65,0,0
117756,-100,4,2,25,50,0,0
122465,-100,4,2,25,25,0,0
122814,-100,4,2,25,50,0,0

[Colours]
Combo1 : 188,198,6
Combo2 : 155,40,61
Combo3 : 44,57,180

[HitObjects]
256,192,19558,12,0,21651,0:0:0:0:
98,121,22349,6,0,L|213:110,1,112,4|0,0:0|0:0,0:0:0:0:
106,214,23047,2,0,L|221:203,1,112,2|0,0:0|0:0,0:0:0:0:
413,229,23744,2,0,L|302:240,1,112,2|0,0:0|0:0,0:0:0:0:
402,136,24442,2,0,L|291:147,1,112,2|0,0:0|0:0,0:0:0:0:
114,146,25140,6,0,P|126:95|184:51,1,112,2|0,0:0|0:0,0:0:0:0:
119,238,25837,2,0,P|65:224|29:183,1,112,2|0,0:0|0:0,0:0:0:0:
210,232,26535,2,0,P|197:285|156:322,1,112,2|0,0:0|0:0,0:0:0:0:
204,139,27233,2,0,P|258:152|294:193,1,112,2|0,0:0|0:0,0:0:0:0:
357,384,27930,6,0,L|365:313,1,70,6|0,0:0|0:0,0:0:0:0:
374,245,28279,2,0,L|365:315,1,70,2|0,0:3|0:0,0:0:0:0:
265,369,28628,2,0,L|273:298,1,70,2|0,0:3|0:0,0:0:0:0:
282,230,28977,2,0,L|273:300,1,70,2|0,0:3|0:0,0:0:0:0:
245,144,29326,6,0,P|279:136|313:142,1,70,2|0,0:3|0:0,0:0:0:0:
382,141,29675,2,0,P|347:148|313:142,1,70,2|0,0:3|0:0,0:0:0:0:
243,50,30024,2,0,P|277:42|311:48,1,70,2|0,0:3|0:0,0:0:0:0:
380,47,30373,2,0,P|345:54|311:48,1,70,2|0,0:3|0:0,0:0:0:0:
229,135,30721,6,0,L|223:198,2,46.6666666666667,2|2|2,0:3|0:3|0:3,0:0:0:0:
164,80,31070,2,0,L|168:33,2,46.6666666666667,2|2|2,0:3|0:3|0:3,0:0:0:0:
96,130,31419,2,0,L|91:176,2,46.6666666666667,2|2|2,0:3|0:3|0:3,0:0:0:0:
43,63,31768,2,0,L|48:17,2,46.6666666666667,2|2|2,0:3|0:3|0:3,0:0:0:0:
0,136,32117,5,2,0:3:0:0:
0,136,32233,2,0,B|-13:163|-13:163|-6:238,1,93.3333333333333,2|2,0:3|0:3,0:0:0:0:
61,354,32698,1,2,0:3:0:0:
61,354,32814,2,0,B|74:327|74:327|69:264,1,93.3333333333333,2|2,0:3|0:3,0:0:0:0:
119,196,33163,1,8,1:0:0:0:
119,196,33512,6,0,P|185:179|281:205,1,140,4|8,0:0|1:0,0:0:0:0:
345,334,34210,6,0,P|376:335|405:328,2,46.6666666666667,2|0|0,1:3|0:0|0:0,0:0:0:0:
272,291,34558,2,0,P|241:290|212:297,2,46.6666666666667,8|2|2,1:0|0:0|0:0,0:0:0:0:
340,240,34907,2,0,P|371:239|400:246,2,46.6666666666667,2|0|0,1:3|0:0|0:0,0:0:0:0:
269,192,35256,2,0,P|238:191|209:198,2,46.6666666666667,8|2|2,1:0|0:0|0:0,0:0:0:0:
345,155,35605,6,0,L|340:50,1,93.3333333333333,2|2,1:3|1:3,0:0:0:0:
255,61,35954,2,0,L|258:108,2,46.6666666666667,8|2|2,1:0|0:0|0:0,0:0:0:0:
181,19,36303,5,2,1:3:0:0:
129,118,36535,1,2,1:2:0:0:
64,40,36768,1,2,1:2:0:0:
64,40,36884,1,2,1:2:0:0:
64,40,37000,1,2,1:3:0:0:
0,132,37233,1,2,1:2:0:0:
78,226,37465,1,2,1:2:0:0:
78,226,37581,1,2,1:2:0:0:
78,226,37698,6,0,B|126:237|126:237|210:221,1,93.3333333333333,2|2,1:3|0:0,0:0:0:0:
241,182,38047,2,0,B|289:171|289:171|373:187,1,93.3333333333333,8|0,1:0|0:0,0:0:0:0:
394,238,38396,2,0,B|405:286|405:286|389:370,1,93.3333333333333,2|2,1:3|1:3,0:0:0:0:
330,382,38744,1,8,1:0:0:0:
228,304,39093,6,0,P|186:339|244:345,1,140,2|8,1:3|1:0,0:0:0:0:
241,182,39791,6,0,L|233:107,2,46.6666666666667,2|2|2,1:3|0:0|0:0,0:0:0:0:
301,243,40140,2,0,L|309:318,2,46.6666666666667,8|2|2,1:0|0:0|0:0,0:0:0:0:
352,175,40489,2,0,L|344:100,2,46.6666666666667,2|2|2,1:3|0:0|0:0,0:0:0:0:
412,236,40838,2,0,L|420:311,2,46.6666666666667,8|0|2,1:0|0:0|0:0,0:0:0:0:
476,180,41186,6,0,L|467:76,1,93.3333333333333,2|2,1:3|1:3,0:0:0:0:
406,29,41535,1,8,1:0:0:0:
286,73,41884,6,0,P|237:84|180:73,1,93.3333333333333,2|0,1:3|0:0,0:0:0:0:
134,19,42233,2,0,P|85:8|28:19,1,93.3333333333333,8|2,1:0|0:0,0:0:0:0:
0,88,42582,2,0,P|-5:134|5:179,1,93.3333333333333,2|0,1:3|0:0,0:0:0:0:
73,231,42930,2,0,P|118:241|164:236,1,93.3333333333333,8|2,1:0|0:0,0:0:0:0:
229,181,43279,5,8,1:0:0:0:
229,181,43396,1,8,1:0:0:0:
229,181,43512,1,2,1:3:0:0:
229,181,43628,2,0,L|296:178,2,46.6666666666667,8|8|2,1:0|1:0|1:3,0:0:0:0:
164,236,43977,1,2,1:3:0:0:
342,125,44326,1,8,0:3:0:0:
342,125,44442,1,8,0:3:0:0:
342,125,44558,1,8,0:3:0:0:
342,125,44675,6,0,B|374:137|374:137|503:120,1,140,4|8,0:0|1:0,0:0:0:0:
322,225,45372,6,0,L|308:305,2,46.6666666666667,2|2|2,1:3|0:0|0:0,0:0:0:0:
239,211,45721,2,0,L|225:291,2,46.6666666666667,8|2|2,1:0|0:0|0:0,0:0:0:0:
156,197,46070,2,0,L|142:277,2,46.6666666666667,2|2|2,1:3|0:0|0:0,0:0:0:0:
73,183,46419,2,0,L|59:263,2,46.6666666666667,8|2|2,1:0|0:0|0:0,0:0:0:0:
20,113,46768,6,0,L|38:21,1,93.3333333333333,2|2,1:3|1:3,0:0:0:0:
115,58,47117,2,0,L|107:104,2,46.6666666666667,8|0|0,1:0|0:0|0:0,0:0:0:0:
186,9,47465,5,2,1:3:0:0:
240,107,47698,1,2,1:2:0:0:
310,20,47930,1,2,1:2:0:0:
310,20,48047,1,2,1:2:0:0:
310,20,48163,1,2,1:3:0:0:
364,118,48396,1,2,1:2:0:0:
434,31,48628,1,2,1:2:0:0:
434,31,48745,1,2,1:2:0:0:
434,31,48861,6,0,B|464:60|464:60|477:154,1,93.3333333333333,0|2,0:0|0:0,0:0:0:0:
512,186,49210,2,0,B|504:237|504:237|474:266,1,93.3333333333333,8|2,1:0|0:0,0:0:0:0:
403,312,49558,2,0,B|351:304|351:304|322:274,1,93.3333333333333,2|2,1:3|1:3,0:0:0:0:
265,213,49907,1,8,1:0:0:0:
398,137,50256,6,0,P|391:192|353:151,1,140,2|8,1:3|1:0,0:0:0:0:
205,65,50954,6,0,P|178:62|149:64,2,46.6666666666667,2|2|2,1:3|0:0|0:0,0:0:0:0:
203,149,51303,2,0,P|179:152|156:152,2,46.6666666666667,8|0|0,1:0|0:0|0:0,0:0:0:0:
278,108,51651,2,0,P|305:105|334:107,2,46.6666666666667,2|2|2,1:3|0:0|0:0,0:0:0:0:
276,193,52000,2,0,P|299:193|322:190,2,46.6666666666667,8|0|0,1:0|0:0|0:0,0:0:0:0:
202,234,52349,6,0,P|213:295|250:343,1,93.3333333333333,2|0,1:3|1:3,0:0:0:0:
308,350,52698,2,0,P|354:344|395:323,1,93.3333333333333,8|0,1:0|0:0,0:0:0:0:
428,244,53047,6,0,L|423:182,2,46.6666666666667,2|2|2,1:3|0:0|0:0,0:0:0:0:
342,226,53396,2,0,L|337:164,2,46.6666666666667,8|2|2,1:0|0:0|0:0,0:0:0:0:
256,208,53744,2,0,L|251:146,2,46.6666666666667,2|2|2,1:3|0:0|0:0,0:0:0:0:
170,190,54093,2,0,L|165:128,2,46.6666666666667,8|2|2,1:0|0:0|0:0,0:0:0:0:
102,241,54442,5,8,1:0:0:0:
102,241,54558,1,8,1:0:0:0:
102,241,54675,1,2,1:3:0:0:
102,241,54791,2,0,L|107:296,2,46.6666666666667,8|8|2,1:0|1:0|1:3,0:0:0:0:
36,166,55140,1,2,1:3:0:0:
243,148,55721,1,2,0:3:0:0:
243,148,55837,6,0,B|266:179|252:255|252:255|238:221,1,140,2|2,0:3|0:0,0:0:0:0:
240,227,56535,2,0,B|263:258|249:334|249:334|237:306,1,140,2|2,0:0|0:0,0:0:0:0:
378,349,57117,6,0,P|427:358|480:330,1,93.3333333333333,2|0,0:0|0:0,0:0:0:0:
505,256,57465,2,0,P|456:247|403:275,1,93.3333333333333,2|0,0:0|0:0,0:0:0:0:
333,277,57814,1,2,0:0:0:0:
333,277,57930,2,0,P|317:233|326:188,1,93.3333333333333,2|2,0:0|0:0,0:0:0:0:
495,153,58279,2,0,P|449:162|406:146,1,93.3333333333333,8|2,1:0|0:0,0:0:0:0:
355,80,58628,5,2,1:3:0:0:
262,141,58861,1,0,0:0:0:0:
258,145,58977,2,0,L|201:133,2,46.6666666666667,8|2|2,1:0|0:0|0:0,0:0:0:0:
239,228,59326,2,0,L|182:216,2,46.6666666666667,2|2|2,1:3|0:0|0:0,0:0:0:0:
220,311,59675,2,0,L|163:299,2,46.6666666666667,8|2|2,1:0|0:0|1:2,0:0:0:0:
302,286,60024,5,2,1:3:0:0:
370,375,60256,1,2,1:2:0:0:
370,375,60372,1,8,1:0:0:0:
439,287,60605,1,2,1:2:0:0:
439,287,60721,1,2,1:3:0:0:
373,195,60954,1,2,1:3:0:0:
369,191,61070,2,0,L|363:124,2,46.6666666666667,8|0|2,1:0|0:0|1:2,0:0:0:0:
289,107,61419,6,0,B|278:101|278:101|282:182,1,93.3333333333333,2|0,1:3|0:0,0:0:0:0:
285,268,61768,1,8,1:0:0:0:
166,227,62000,6,0,L|108:233,1,46.6666666666667,2|2,1:2|0:3,0:0:0:0:
212,223,62349,2,0,L|165:227,1,46.6666666666667,2|8,1:2|0:1,0:0:0:0:
258,218,62698,2,0,L|200:224,1,46.6666666666667,2|2,1:2|0:3,0:0:0:0:
304,213,63047,2,0,L|246:219,1,46.6666666666667,2|8,1:2|0:1,0:0:0:0:
198,313,63396,5,2,1:2:0:0:
198,313,63512,1,2,1:3:0:0:
309,315,63744,1,2,1:3:0:0:
309,315,63860,1,8,1:0:0:0:
182,211,64210,6,0,B|176:221|176:221|257:217,1,93.3333333333333,2|0,1:3|0:0,0:0:0:0:
343,215,64559,1,8,1:0:0:0:
409,118,64791,6,0,L|415:176,1,46.6666666666667,2|0,1:2|0:0,0:0:0:0:
405,71,65140,2,0,L|409:118,1,46.6666666666667,2|8,1:2|0:1,0:0:0:0:
420,250,65489,1,2,1:2:0:0:
421,254,65605,5,8,1:0:0:0:
422,258,65721,1,8,1:0:0:0:
423,262,65837,1,2,1:3:0:0:
424,266,65954,2,0,L|419:326,2,46.6666666666667,8|8|2,1:0|1:0|1:3,0:0:0:0:
343,215,66303,1,2,1:3:0:0:
248,275,66535,1,2,1:2:0:0:
247,279,66651,1,8,0:3:0:0:
246,283,66767,1,8,0:3:0:0:
245,287,66883,1,8,0:3:0:0:
244,291,67000,6,0,B|219:309|219:309|105:295,1,140,4|8,1:0|1:0,0:0:0:0:
324,230,67698,2,0,B|342:255|342:255|328:363,1,140,2|8,1:3|1:0,0:0:0:0:
295,149,68396,6,0,P|257:177|239:219,1,93.3333333333333,2|2,1:3|1:2,0:0:0:0:
241,305,68744,1,8,1:0:0:0:
324,230,68977,1,2,1:2:0:0:
328,234,69093,1,2,1:3:0:0:
360,342,69326,1,2,1:3:0:0:
364,346,69442,1,8,1:0:0:0:
444,267,69675,1,2,1:2:0:0:
444,267,69791,6,0,P|454:194|435:145,1,93.3333333333333,2|2,1:3|0:0,0:0:0:0:
389,116,70140,2,0,P|386:91|390:65,2,46.6666666666667,8|2|2,1:0|0:0|0:0,0:0:0:0:
368,197,70489,2,0,P|353:215|335:229,2,46.6666666666667,2|2|2,1:3|0:0|0:0,0:0:0:0:
450,175,70837,2,0,P|467:189|482:208,2,46.6666666666667,8|2|2,1:0|0:0|1:2,0:0:0:0:
389,116,71186,5,2,1:3:0:0:
334,229,71419,1,2,1:2:0:0:
338,233,71535,1,8,1:0:0:0:
263,133,71768,1,2,1:2:0:0:
267,137,71884,1,2,1:3:0:0:
321,28,72117,1,2,1:3:0:0:
325,32,72233,1,8,1:0:0:0:
389,116,72465,1,2,1:2:0:0:
393,120,72582,6,0,B|441:125|441:125|511:107,1,93.3333333333333,2|2,1:3|1:2,0:0:0:0:
512,33,72930,1,8,1:0:0:0:
447,210,73163,1,2,1:2:0:0:
443,214,73279,6,0,B|438:262|438:262|456:332,1,93.3333333333333,2|0,1:3|0:0,0:0:0:0:
477,384,73628,1,8,1:0:0:0:
353,266,73861,1,2,1:2:0:0:
349,262,73978,6,0,B|301:257|301:257|231:275,1,93.3333333333333,2|2,1:3|1:2,0:0:0:0:
176,290,74326,1,8,1:0:0:0:
300,174,74558,1,2,1:2:0:0:
304,170,74675,6,0,B|309:122|309:122|291:52,1,93.3333333333333,2|2,1:3|1:3,0:0:0:0:
222,38,75024,1,8,1:0:0:0:
398,120,75256,1,2,1:2:0:0:
398,120,75372,5,2,1:3:0:0:
71,96,75896,2,0,L|140:101,1,70,2|2,0:2|0:2,0:0:0:0:
397,120,76593,1,2,0:0:0:0:
379,282,76768,6,0,L|388:213,1,70,2|2,1:3|1:3,0:0:0:0:
406,50,77117,2,0,L|397:119,1,70,2|2,1:3|1:3,0:0:0:0:
472,175,77465,1,2,1:3:0:0:
313,158,77640,1,2,1:3:0:0:
472,175,77814,1,8,1:0:0:0:
472,175,78163,6,0,B|487:237|464:279|464:279|460:253|440:229,1,140,4|8,1:0|1:0,0:0:0:0:
415,101,78861,1,2,1:3:0:0:
415,101,79035,1,2,1:2:0:0:
381,188,79210,1,8,1:0:0:0:
381,188,79384,1,2,1:2:0:0:
324,114,79558,6,0,P|325:79|339:47,1,70,2|2,1:3|1:2,0:0:0:0:
422,7,79907,2,0,P|455:17|482:38,1,70,8|2,1:0|1:2,0:0:0:0:
415,101,80256,1,2,1:3:0:0:
415,101,80430,1,2,1:2:0:0:
381,188,80605,1,8,1:0:0:0:
381,188,80779,1,2,1:2:0:0:
187,111,80954,6,0,B|255:97|255:97|323:113,1,140,2|8,1:3|1:0,0:0:0:0:
119,194,81477,1,2,1:2:0:0:
119,194,81651,2,0,B|187:208|187:208|255:192,1,140,2|8,1:3|1:0,0:0:0:0:
92,104,82175,1,2,1:2:0:0:
92,104,82349,6,0,P|88:65|117:112,1,140,2|8,1:3|1:0,0:0:0:0:
88,379,83047,1,2,1:3:0:0:
104,287,83221,1,2,1:3:0:0:
119,194,83396,1,8,1:0:0:0:
119,194,83744,6,0,B|157:173|157:173|277:191,1,140,2|8,1:3|1:0,0:0:0:0:
442,233,84442,1,2,1:3:0:0:
443,231,84617,1,2,1:2:0:0:
345,209,84791,1,8,1:0:0:0:
350,211,84965,1,2,1:2:0:0:
404,140,85140,6,0,P|414:97|404:54,1,70,2|2,1:3|1:2,0:0:0:0:
328,28,85489,2,0,P|319:61|321:96,1,70,8|2,1:0|1:2,0:0:0:0:
325,187,85837,1,2,1:3:0:0:
404,234,86012,1,2,1:3:0:0:
486,189,86186,1,8,1:0:0:0:
486,189,86361,1,2,1:2:0:0:
441,320,86535,6,0,L|432:369,2,46.6666666666667,2|0|0,1:3|0:0|0:0,0:0:0:0:
348,357,86884,2,0,L|357:312,2,46.6666666666667,8|0|0,1:0|0:0|0:0,0:0:0:0:
273,304,87233,2,0,L|264:353,2,46.6666666666667,2|0|0,1:3|0:0|0:0,0:0:0:0:
180,341,87582,2,0,L|189:296,2,46.6666666666667,8|0|0,1:0|0:0|0:0,0:0:0:0:
240,222,87930,5,8,1:0:0:0:
305,147,88105,1,2,1:3:0:0:
347,231,88279,1,8,1:0:0:0:
282,306,88454,1,2,1:3:0:0:
445,238,88628,5,2,1:3:0:0:
445,238,88977,5,8,0:3:0:0:
458,145,89151,1,8,0:3:0:0:
471,52,89326,6,0,P|402:22|322:52,1,140,4|8,1:0|1:0,0:0:0:0:
227,180,90024,1,2,1:3:0:0:
227,180,90198,1,2,1:2:0:0:
274,99,90372,1,8,1:0:0:0:
274,99,90546,1,2,1:2:0:0:
179,97,90721,6,0,L|96:103,1,70,2|2,1:3|1:2,0:0:0:0:
67,198,91070,2,0,L|137:193,1,70,8|0,1:0|0:0,0:0:0:0:
227,180,91419,1,2,1:3:0:0:
319,170,91593,1,2,1:3:0:0:
411,160,91768,1,8,1:0:0:0:
415,164,91942,1,2,1:2:0:0:
369,248,92117,6,0,P|376:303|454:357,1,140,2|8,1:3|0:1,0:0:0:0:
275,293,92640,1,2,1:2:0:0:
275,293,92814,2,0,P|220:300|166:378,1,140,2|8,1:3|0:1,0:0:0:0:
165,221,93337,1,2,1:2:0:0:
317,290,93512,6,0,P|293:240|274:292,1,140,2|8,1:3|1:0,0:0:0:0:
307,153,94210,2,0,P|270:155|218:179,1,70,2|2,1:3|1:2,0:0:0:0:
165,221,94558,1,8,1:0:0:0:
237,41,94907,6,0,P|281:75|303:180,1,140,2|8,1:3|1:0,0:0:0:0:
235,327,95604,1,2,1:3:0:0:
235,327,95779,1,2,1:2:0:0:
282,244,95953,1,8,1:0:0:0:
282,244,96128,1,2,1:2:0:0:
327,326,96303,6,0,P|353:303|369:272,1,70,2|2,1:3|1:2,0:0:0:0:
324,190,96651,2,0,P|297:212|281:243,1,70,8|2,1:0|1:2,0:0:0:0:
235,327,97000,1,2,1:3:0:0:
235,327,97175,1,2,1:2:0:0:
193,243,97349,1,8,1:0:0:0:
193,243,97524,1,2,1:2:0:0:
237,156,97698,6,0,P|238:128|233:91,2,46.6666666666667,2|0|0,1:3|0:0|0:0,0:0:0:0:
152,119,98047,2,0,P|151:91|156:54,2,46.6666666666667,8|0|0,1:0|0:0|0:0,0:0:0:0:
236,109,98396,2,0,P|237:81|232:44,2,46.6666666666667,2|0|0,1:3|0:0|0:0,0:0:0:0:
152,72,98744,2,0,P|151:44|156:7,2,46.6666666666667,8|0|0,1:0|0:0|0:0,0:0:0:0:
237,17,99093,5,12,1:0:0:0:
236,109,99268,1,2,1:3:0:0:
316,64,99442,1,8,1:0:0:0:
315,156,99617,1,2,1:3:0:0:
397,16,99791,5,2,1:3:0:0:
72,249,100489,6,0,L|214:237,1,140,4|8,1:0|1:0,0:0:0:0:
443,218,101186,2,0,L|303:229,1,140,2|8,0:3|1:0,0:0:0:0:
68,155,101884,6,0,L|210:143,1,140,2|8,0:3|1:0,0:0:0:0:
439,124,102581,2,0,L|299:135,1,140,2|8,1:3|1:0,0:0:0:0:
450,335,103279,5,2,0:3:0:0:
439,124,103628,1,8,1:0:0:0:
450,335,103977,1,2,0:3:0:0:
439,124,104326,1,8,1:0:0:0:
62,335,104675,5,2,0:3:0:0:
73,124,105024,1,8,1:0:0:0:
62,335,105373,5,2,1:3:0:0:
67,229,105547,1,2,1:3:0:0:
73,124,105721,1,8,1:0:0:0:
73,124,106070,6,0,P|123:102|71:88,1,140,2|8,0:3|1:0,0:0:0:0:
213,79,106768,2,0,L|295:70,2,70,2|0|8,0:3|0:0|1:0,0:0:0:0:
212,305,107465,6,0,L|282:313,2,70,2|0|8,0:3|0:0|1:0,0:0:0:0:
0,246,108163,2,0,L|82:237,1,70,2|2,1:3|1:3,0:0:0:0:
159,230,108512,1,8,1:0:0:0:
256,104,108861,5,2,0:3:0:0:
256,280,109210,1,8,1:0:0:0:
344,192,109558,1,2,0:3:0:0:
168,192,109907,1,8,1:0:0:0:
168,192,110256,5,8,1:0:0:0:
256,192,110430,1,2,1:3:0:0:
168,280,110605,1,8,1:0:0:0:
256,280,110779,1,2,1:3:0:0:
212,116,110954,5,2,1:3:0:0:
431,79,111651,6,0,P|364:64|296:77,1,140,4|8,1:0|0:1,0:0:0:0:
76,118,112349,2,0,P|143:102|211:115,1,140,2|8,0:3|0:1,0:0:0:0:
420,174,113047,6,0,P|352:159|284:172,1,140,2|8,0:3|0:1,0:0:0:0:
81,205,113744,2,0,P|114:197|148:203,1,70,2|2,0:3|0:3,0:0:0:0:
230,247,114093,1,8,0:1:0:0:
256,80,114442,5,2,0:3:0:0:
420,113,114791,1,8,0:1:0:0:
256,80,115140,1,2,0:3:0:0:
420,113,115489,1,8,0:1:0:0:
92,113,115837,5,2,0:3:0:0:
256,80,116186,1,8,0:1:0:0:
92,113,116535,1,2,0:3:0:0:
256,80,116884,1,8,0:1:0:0:
205,240,117233,6,0,P|227:290|241:238,1,140,2|8,0:3|0:1,0:0:0:0:
292,361,117930,2,0,P|225:381|159:363,1,140,2|8,0:3|0:1,0:0:0:0:
56,229,118628,6,0,B|38:197|38:197|45:75,1,140,2|8,0:3|0:1,0:0:0:0:
212,83,119326,2,0,L|207:185,2,70,0|0|8,0:0|0:0|0:1,0:0:0:0:
261,224,120024,2,0,L|256:326,1,70,2|0,0:3|0:0,0:0:0:0:
307,368,120372,1,8,0:1:0:0:
339,180,120721,2,0,L|408:183,2,70,2|0|8,0:3|0:0|0:1,0:0:0:0:
312,40,121419,6,0,B|294:118|236:134|236:134|124:95|157:143|62:142|62:142|130:173|170:165,1,420,12|0,1:0|0:0,0:0:0:0:
79,25,122814,5,4,1:0:0:0:
256,192,123599,12,4,133977,1:0:0:0:
