osu file format v14

[General]
AudioFilename: audio.mp3
AudioLeadIn: 0
PreviewTime: 24
Countdown: 0
SampleSet: Soft
StackLeniency: 0.2
Mode: 0
LetterboxInBreaks: 0
WidescreenStoryboard: 1

[Editor]
Bookmarks: 19558,55837,67000,78163,89326,100489,111651,122814
DistanceSpacing: 1.4
BeatDivisor: 4
GridSize: 8
TimelineZoom: 1.3

[Metadata]
Title:Outbreak
TitleUnicode:Outbreak
Artist:Mediks
ArtistUnicode:Mediks
Creator:Strategas
Version:CBH's Extra
Source:
Tags:ep dnb zombie pishifat cbh DeRandom Otaku Arrival Come[Back]Home Yamicchi 2012
BeatmapID:1127541
BeatmapSetID:527082

[Difficulty]
HPDrainRate:5
CircleSize:3.7
OverallDifficulty:8
ApproachRate:9.6
SliderMultiplier:2
SliderTickRate:1

[Events]
//Background and Video events
0,0,"hospital.jpg",0,0
//Break Periods
2,56037,57709
//Storyboard Layer 0 (Background)
//Storyboard Layer 1 (Fail)
//Storyboard Layer 2 (Pass)
//Storyboard Layer 3 (Foreground)
//Storyboard Sound Samples

[TimingPoints]
24,348.837209302326,4,2,25,25,1,0
124,-100,4,2,25,40,0,0
33512,-86.9565217391304,4,2,25,70,0,0
33861,-86.9565217391304,4,2,25,80,0,0
34210,-86.9565217391304,4,2,25,70,0,0
36303,-86.9565217391304,4,2,25,90,0,0
36651,-68.9655172413793,4,2,25,90,0,0
36826,-68.9655172413793,4,2,25,5,0,0
36884,-68.9655172413793,4,2,25,90,0,0
36942,-68.9655172413793,4,2,25,5,0,0
37000,-68.9655172413793,4,2,25,90,0,0
37524,-68.9655172413793,4,2,25,5,0,0
37582,-68.9655172413793,4,2,25,90,0,0
37640,-68.9655172413793,4,2,25,5,0,0
37698,-86.9565217391304,4,2,25,70,0,0
38047,-86.9565217391304,4,2,25,80,0,0
39093,-117.647058823529,4,2,25,80,0,0
39791,-100,4,2,25,70,0,0
42582,-100,4,2,25,75,0,0
43279,-100,4,2,25,90,0,0
43977,-200,4,2,25,90,0,0
44326,-100,4,2,25,50,0,0
44675,-86.9565217391304,4,2,25,70,0,0
47930,-68.9655172413793,4,2,25,70,0,0
47989,-68.9655172413793,4,2,25,5,0,0
48047,-68.9655172413793,4,2,25,70,0,0
48105,-68.9655172413793,4,2,25,5,0,0
48163,-86.9565217391304,4,2,25,70,0,0
48628,-62.5,4,2,25,70,0,0
48686,-62.5,4,2,25,5,0,0
48744,-62.5,4,2,25,70,0,0
48803,-62.5,4,2,25,5,0,0
48861,-86.9565217391304,4,2,25,70,0,0
49210,-86.9565217391304,4,2,25,80,0,0
50256,-117.647058823529,4,2,25,80,0,0
50954,-100,4,2,25,70,0,0
55140,-200,4,2,25,70,0,0
55489,-100,4,2,25,70,0,0
61419,-100,4,2,25,80,0,0
61884,-100,4,2,25,70,0,0
73977,-100,4,2,25,80,0,0
75372,-100,4,2,25,50,0,0
75983,-100,4,2,25,5,0,0
76070,-100,4,2,25,50,0,0
76768,-100,4,2,25,60,0,0
78163,-86.9565217391304,4,2,25,60,0,0
80954,-86.9565217391304,4,2,25,70,0,0
81564,-86.9565217391304,4,2,25,5,0,0
81651,-86.9565217391304,4,2,25,70,0,0
82262,-86.9565217391304,4,2,25,5,0,0
82349,-86.9565217391304,4,2,25,60,0,0
82611,-86.9565217391304,4,2,25,5,0,0
82698,-86.9565217391304,4,2,25,70,0,0
83657,-86.9565217391304,4,2,25,5,0,0
83744,-86.9565217391304,4,2,25,70,0,0
86535,-86.9565217391304,4,2,25,60,0,0
92117,-86.9565217391304,4,2,25,50,0,0
93861,-86.9565217391304,4,2,25,60,0,0
99791,-125,4,2,25,60,0,0
100140,-86.9565217391304,4,2,25,40,0,0
100489,-111.111111111111,4,2,25,50,0,0
106419,-111.111111111111,4,2,25,65,0,0
106593,-111.111111111111,4,2,25,50,0,0
117582,-111.111111111111,4,2,25,65,0,0
117756,-111.111111111111,4,2,25,50,0,0

[Colours]
Combo1 : 188,198,6
Combo2 : 155,40,61
Combo3 : 44,57,180

[HitObjects]
76,320,22349,6,0,L|101:116,1,200,4|0,0:0|0:0,0:0:0:0:
317,225,23047,2,0,L|292:21,1,200,2|0,0:0|0:0,0:0:0:0:
184,353,23744,6,0,L|209:149,1,200,2|0,0:0|0:0,0:0:0:0:
425,258,24442,2,0,L|400:54,1,200,2|0,0:0|0:0,0:0:0:0:
31,126,25140,6,0,P|102:149|232:100,1,200,2|0,0:0|0:0,0:0:0:0:
405,99,25837,2,0,P|334:76|204:125,1,200,2|0,0:0|0:0,0:0:0:0:
330,357,26535,6,0,P|353:286|304:156,1,200,2|0,0:0|0:0,0:0:0:0:
87,96,27233,2,0,P|64:167|113:297,1,200,2|0,0:0|0:0,0:0:0:0:
337,319,27930,6,0,L|353:205,1,100,6|0,0:0|0:0,0:0:0:0:
254,31,28279,2,0,L|268:131,1,100,2|0,0:3|0:0,0:0:0:0:
105,246,28628,2,0,L|205:233,1,100,2|0,0:3|0:0,0:0:0:0:
486,123,28977,2,0,L|386:109,1,100,2|0,0:3|0:0,0:0:0:0:
205,233,29326,6,0,P|206:290|233:337,1,100,2|0,0:3|0:0,0:0:0:0:
386,109,29675,2,0,P|385:52|358:5,1,100,2|0,0:3|0:0,0:0:0:0:
369,264,30024,2,0,P|426:263|473:236,1,100,2|0,0:3|0:0,0:0:0:0:
245,83,30373,2,0,P|188:84|141:111,1,100,2|0,0:3|0:0,0:0:0:0:
225,196,30721,5,2,0:3:0:0:
229,215,30837,1,2,0:3:0:0:
233,234,30954,1,2,0:3:0:0:
280,298,31070,1,2,0:3:0:0:
276,317,31186,1,2,0:3:0:0:
272,336,31303,1,2,0:3:0:0:
198,304,31419,5,2,0:3:0:0:
179,308,31536,1,2,0:3:0:0:
160,312,31651,1,2,0:3:0:0:
315,224,31768,1,2,0:3:0:0:
334,228,31885,1,2,0:3:0:0:
353,232,32001,1,2,0:3:0:0:
402,294,32117,5,2,0:3:0:0:
431,219,32233,2,0,B|445:147|445:147|426:73,1,133.333333333333,2|2,0:3|0:3,0:0:0:0:
280,31,32698,1,2,0:3:0:0:
242,101,32814,2,0,B|213:123|213:123|96:102,1,133.333333333333,2|2,0:3|0:3,0:0:0:0:
38,92,33163,5,8,1:0:0:0:
170,334,33512,6,0,L|346:310,1,153.333336257935,4|0,0:0|0:0,0:0:0:0:
397,366,33861,2,0,P|410:285|359:228,1,153.333336257935,8|0,1:0|0:0,0:0:0:0:
315,308,34210,5,2,1:3:0:0:
265,230,34326,1,0,0:0:0:0:
313,151,34442,1,0,0:0:0:0:
246,214,34558,1,8,1:0:0:0:
212,127,34675,1,2,0:0:0:0:
273,58,34791,1,2,0:0:0:0:
319,136,34907,5,2,1:3:0:0:
384,201,35024,1,0,0:0:0:0:
475,202,35140,1,0,0:0:0:0:
387,229,35256,1,8,1:0:0:0:
343,309,35372,1,2,0:0:0:0:
413,370,35489,1,2,0:0:0:0:
305,232,35605,5,2,1:3:0:0:
235,360,35721,1,0,0:0:0:0:
167,181,35837,1,2,1:3:0:0:
345,308,35954,2,0,L|431:297,1,76.6666681289673,8|2,1:0|0:0,0:0:0:0:
485,232,36186,1,2,0:0:0:0:
353,59,36303,6,0,L|379:211,1,153.333336257935,2|2,1:3|1:2,0:0:0:0:
295,290,36651,1,8,0:1:0:0:
445,162,36768,2,0,P|410:136|342:138,1,96.6666696166993,2|2,1:2|1:2,0:0:0:0:
266,202,37000,6,0,P|165:231|75:169,1,193.333339233399,2|2,1:3|1:2,0:0:0:0:
34,90,37349,1,8,0:1:0:0:
173,258,37465,2,0,L|159:359,1,96.6666696166993,2|2,1:2|1:2,0:0:0:0:
258,86,37698,6,0,L|272:239,1,153.333336257935,2|2,1:3|0:0,0:0:0:0:
467,0,38047,2,0,L|453:152,1,153.333336257935,8|0,1:0|0:0,0:0:0:0:
165,173,38396,2,0,L|178:325,1,153.333336257935,2|2,1:3|1:3,0:0:0:0:
373,86,38745,2,0,L|359:238,1,153.333336257935,8|0,1:0|0:0,0:0:0:0:
152,60,39093,6,0,L|167:192,1,113.333335494995,2|0,1:3|0:0,0:0:0:0:
346,350,39442,2,0,L|359:238,1,113.333335494995,8|0,1:0|0:0,0:0:0:0:
432,204,39791,5,2,1:3:0:0:
364,161,39907,1,2,0:0:0:0:
293,199,40024,1,2,0:0:0:0:
349,142,40140,1,8,1:0:0:0:
271,122,40256,1,2,0:0:0:0:
215,179,40372,1,2,0:0:0:0:
258,111,40489,5,2,1:3:0:0:
234,257,40605,1,2,0:0:0:0:
329,66,40721,1,2,0:0:0:0:
177,106,40837,1,8,1:0:0:0:
311,279,40954,1,2,0:0:0:0:
220,37,41070,1,2,0:0:0:0:
88,242,41186,6,0,L|187:226,1,66.6666666666667,2|2,1:3|0:0,0:0:0:0:
233,221,41419,1,2,1:3:0:0:
474,129,41535,2,0,L|375:113,1,66.6666666666667,8|2,1:0|0:0,0:0:0:0:
329,108,41768,1,2,0:0:0:0:
362,282,41884,6,0,B|371:312|371:312|388:277,2,66.6666666666667,2|0|0,1:3|0:0|0:0,0:0:0:0:
216,69,42233,2,0,B|207:39|207:39|190:74,2,66.6666666666667,8|2|2,1:0|0:0|0:0,0:0:0:0:
200,148,42582,5,2,1:3:0:0:
255,303,42698,1,0,0:0:0:0:
330,93,42814,1,0,0:0:0:0:
236,218,42930,1,8,1:0:0:0:
388,250,43047,1,2,0:0:0:0:
285,152,43163,1,2,0:0:0:0:
169,264,43279,5,8,1:0:0:0:
149,261,43396,1,8,1:0:0:0:
129,258,43512,1,2,1:3:0:0:
23,218,43628,1,8,1:0:0:0:
43,215,43745,1,8,1:0:0:0:
63,212,43861,1,2,1:3:0:0:
129,150,43977,6,0,L|223:163,1,66.6666666666667,2|0,1:3|0:0,0:0:0:0:
269,127,44326,5,8,0:3:0:0:
260,206,44442,1,8,0:3:0:0:
249,285,44558,1,8,0:3:0:0:
413,199,44675,6,0,L|259:205,1,153.333336257935,4|0,0:0|0:0,0:0:0:0:
173,240,45024,2,0,P|178:159|245:117,1,153.333336257935,8|0,1:0|0:0,0:0:0:0:
412,198,45372,6,0,L|489:195,2,76.6666681289673,2|2|2,1:3|0:0|0:0,0:0:0:0:
173,240,45721,2,0,L|96:236,2,76.6666681289673,8|2|2,1:0|0:0|0:0,0:0:0:0:
226,315,46070,5,2,1:3:0:0:
265,232,46186,1,2,0:0:0:0:
211,156,46303,1,2,0:0:0:0:
173,240,46419,1,8,1:0:0:0:
301,141,46535,1,2,0:0:0:0:
152,76,46651,1,2,0:0:0:0:
265,232,46768,6,0,L|345:227,1,76.6666681289673,2|0,1:3|0:0,0:0:0:0:
433,221,47000,1,2,1:3:0:0:
232,85,47117,2,0,P|217:113|214:160,1,76.6666681289673,8|0,1:0|0:0,0:0:0:0:
265,232,47349,1,0,0:0:0:0:
433,221,47465,6,0,P|397:152|323:136,1,153.333336257935,2|2,1:3|1:2,0:0:0:0:
132,260,47930,2,0,L|141:356,1,96.6666696166993,2|2,1:2|1:2,0:0:0:0:
119,107,48163,6,0,L|132:262,1,153.333336257935,2|2,1:3|1:2,0:0:0:0:
362,379,48628,2,0,L|372:252,1,106.666666666667,2|0,1:2|0:0,0:0:0:0:
381,120,48861,6,0,L|371:274,1,153.333336257935,0|2,0:0|0:0,0:0:0:0:
109,28,49210,2,0,L|118:188,1,153.333336257935,8|2,1:0|0:0,0:0:0:0:
73,261,49558,2,0,P|156:263|201:208,1,153.333336257935,2|2,1:3|1:3,0:0:0:0:
428,44,49907,2,0,P|345:42|300:97,1,153.333336257935,8|0,1:0|0:0,0:0:0:0:
301,91,50256,6,0,L|314:212,1,113.333335494995,2|0,1:3|0:0,0:0:0:0:
187,326,50605,2,0,L|198:213,1,113.333335494995,8|0,1:0|0:0,0:0:0:0:
146,151,50954,5,2,1:3:0:0:
84,202,51070,1,2,0:0:0:0:
70,123,51186,1,2,0:0:0:0:
134,74,51303,1,8,1:0:0:0:
209,99,51419,1,0,0:0:0:0:
221,177,51535,1,0,0:0:0:0:
163,231,51651,5,2,1:3:0:0:
146,151,51768,1,2,0:0:0:0:
221,177,51884,1,2,0:0:0:0:
237,255,52000,2,0,P|212:292|168:308,1,66.6666666666667,8|0,1:0|0:0,0:0:0:0:
113,299,52233,1,0,0:0:0:0:
300,199,52349,6,0,L|376:205,1,66.6666666666667,2|2,1:3|0:0,0:0:0:0:
446,214,52582,1,0,1:3:0:0:
399,278,52698,1,8,1:0:0:0:
366,204,52814,1,0,0:0:0:0:
343,127,52930,1,0,0:0:0:0:
325,48,53047,6,0,L|249:37,2,66.6666666666667,2|2|2,1:3|0:0|0:0,0:0:0:0:
110,231,53396,2,0,L|186:220,2,66.6666666666667,8|2|2,1:0|0:0|0:0,0:0:0:0:
232,151,53744,5,2,1:3:0:0:
322,303,53861,1,2,0:0:0:0:
389,94,53977,1,2,0:0:0:0:
331,278,54093,1,8,1:0:0:0:
314,127,54210,1,2,0:0:0:0:
414,219,54326,1,2,0:0:0:0:
240,315,54442,5,8,1:0:0:0:
220,312,54558,1,8,1:0:0:0:
199,309,54675,1,2,1:3:0:0:
86,279,54791,1,8,1:0:0:0:
106,276,54907,1,8,1:0:0:0:
127,273,55024,1,2,1:3:0:0:
197,228,55140,6,0,L|178:105,1,100,2|0,1:3|0:0,0:0:0:0:
126,70,55605,5,0,0:0:0:0:
204,55,55721,1,2,0:3:0:0:
258,113,55837,1,2,0:3:0:0:
171,341,58279,5,8,1:0:0:0:
367,203,58628,6,0,L|340:34,1,133.333333333333,2|0,1:3|0:0,0:0:0:0:
280,23,58977,1,8,1:0:0:0:
222,78,59093,1,2,0:0:0:0:
142,88,59210,1,2,0:0:0:0:
188,153,59326,5,2,1:3:0:0:
202,231,59442,1,2,0:0:0:0:
153,294,59558,1,2,0:0:0:0:
82,255,59675,2,0,L|71:165,2,66.6666666666667,8|2|2,1:0|0:0|1:2,0:0:0:0:
153,294,60024,6,0,P|228:308|278:251,1,133.333333333333,2|2,1:3|1:2,0:0:0:0:
305,203,60372,2,0,P|358:166|420:183,1,133.333333333333,8|2,1:0|1:2,0:0:0:0:
445,260,60721,1,2,1:3:0:0:
313,351,60954,1,2,1:3:0:0:
235,370,61070,2,0,L|89:358,1,133.333333333333,8|2,1:0|1:2,0:0:0:0:
48,298,61419,6,0,L|63:214,1,66.6666666666667,2|0,1:3|0:0,0:0:0:0:
176,122,61768,2,0,L|161:38,2,66.6666666666667,8|0|2,1:0|0:0|1:2,0:0:0:0:
243,165,62117,6,0,L|233:306,1,133.333333333333,2|2,0:3|1:2,0:0:0:0:
288,355,62465,1,8,0:1:0:0:
145,281,62698,5,2,1:2:0:0:
140,201,62814,2,0,L|130:68,1,133.333333333333,2|2,0:3|1:2,0:0:0:0:
242,164,63163,2,0,L|233:297,1,133.333333333333,8|2,0:1|1:2,0:0:0:0:
288,355,63512,1,2,1:3:0:0:
427,276,63744,1,2,1:3:0:0:
387,205,63861,2,0,B|372:136|372:136|398:68,1,133.333333333333,8|0,1:0|0:0,0:0:0:0:
394,77,64210,6,0,L|245:97,1,133.333333333333,2|0,1:3|0:0,0:0:0:0:
189,62,64558,1,8,1:0:0:0:
94,191,64791,1,2,1:2:0:0:
94,191,64907,2,0,B|107:264|107:264|86:327,1,133.333333333333,0|2,0:0|1:2,0:0:0:0:
249,374,65256,2,0,B|230:317|230:317|243:244,1,133.333333333333,8|2,0:1|1:2,0:0:0:0:
296,184,65605,5,8,1:0:0:0:
315,188,65721,1,8,1:0:0:0:
334,192,65837,1,2,1:3:0:0:
238,125,65954,1,8,1:0:0:0:
219,129,66070,1,8,1:0:0:0:
200,133,66186,1,2,1:3:0:0:
120,119,66303,6,0,P|137:188|197:213,1,133.333333333333,2|2,1:3|1:2,0:0:0:0:
268,217,66651,2,0,P|299:222|349:257,1,66.6666666666667,8|8,0:3|0:3,0:0:0:0:
386,295,66884,1,8,0:3:0:0:
329,238,67000,6,0,L|341:86,1,133.333333333333,4|0,1:0|0:0,0:0:0:0:
198,345,67349,2,0,L|186:192,1,133.333333333333,8|0,1:0|0:0,0:0:0:0:
116,175,67698,1,2,1:3:0:0:
244,80,67930,1,0,0:0:0:0:
294,142,68047,2,0,B|333:157|333:157|427:137,1,133.333333333333,8|0,1:0|0:0,0:0:0:0:
244,80,68396,6,0,B|205:65|205:65|111:85,1,133.333333333333,2|2,1:3|1:2,0:0:0:0:
75,153,68744,2,0,L|90:306,1,133.333333333333,8|2,1:0|1:2,0:0:0:0:
51,357,69093,1,2,1:3:0:0:
197,291,69326,1,2,1:3:0:0:
234,220,69442,2,0,P|276:265|263:338,1,133.333333333333,8|2,1:0|1:2,0:0:0:0:
153,220,69791,6,0,P|108:173|119:109,1,133.333333333333,2|2,1:3|0:0,0:0:0:0:
186,65,70140,5,8,1:0:0:0:
265,60,70256,1,2,0:0:0:0:
344,56,70372,1,2,0:0:0:0:
313,130,70489,1,2,1:3:0:0:
282,203,70605,1,2,0:0:0:0:
361,203,70721,1,2,0:0:0:0:
440,203,70837,1,8,1:0:0:0:
399,272,70954,1,2,0:0:0:0:
357,340,71070,1,2,1:2:0:0:
277,340,71186,6,0,L|125:340,1,133.333333333333,2|2,1:3|1:2,0:0:0:0:
78,292,71535,2,0,B|97:257|97:257|87:152,1,133.333333333333,8|2,1:0|1:2,0:0:0:0:
83,83,71884,1,2,1:3:0:0:
220,164,72117,1,2,1:3:0:0:
273,223,72233,2,0,P|301:165|274:106,1,133.333333333333,8|2,1:0|1:2,0:0:0:0:
152,223,72582,6,0,L|159:319,1,66.6666666666667,2|0,1:3|0:0,0:0:0:0:
229,375,72814,2,0,L|234:309,1,66.6666666666667,2|8,1:2|0:1,0:0:0:0:
387,263,73163,1,2,1:2:0:0:
443,206,73279,6,0,P|404:184|373:181,1,66.6666666666667,2|0,1:3|0:0,0:0:0:0:
252,196,73512,2,0,P|280:214|313:222,1,66.6666666666667,2|8,1:2|0:1,0:0:0:0:
240,78,73861,1,2,1:2:0:0:
173,121,73977,6,0,L|164:198,1,66.6666666666667,2|0,1:3|0:0,0:0:0:0:
97,362,74210,2,0,L|89:295,1,66.6666666666667,2|8,1:2|0:1,0:0:0:0:
26,148,74558,1,2,1:2:0:0:
89,99,74675,6,0,P|105:130|106:167,1,66.6666666666667,2|0,1:3|0:0,0:0:0:0:
29,345,74907,2,0,P|13:314|12:277,1,66.6666666666667,2|8,1:3|0:1,0:0:0:0:
171,283,75256,1,2,1:2:0:0:
243,315,75372,5,2,1:3:0:0:
280,222,75547,1,0,0:0:0:0:
318,129,75721,1,0,0:0:0:0:
351,34,75896,1,2,0:2:0:0:
318,129,76070,5,2,0:2:0:0:
218,117,76244,1,0,0:0:0:0:
118,102,76419,1,0,0:0:0:0:
18,90,76593,1,2,0:0:0:0:
118,102,76768,5,2,1:3:0:0:
143,322,76942,1,2,1:3:0:0:
270,76,77117,1,2,1:3:0:0:
156,294,77291,1,2,1:3:0:0:
192,26,77465,1,2,1:3:0:0:
298,289,77640,1,2,1:3:0:0:
21,169,77814,1,8,1:0:0:0:
251,172,78163,6,0,L|377:165,1,115.000002193451,4|0,1:0|0:0,0:0:0:0:
162,331,78512,2,0,L|36:338,1,115.000002193451,8|0,1:0|0:0,0:0:0:0:
161,114,78861,5,2,1:3:0:0:
282,336,79035,1,2,1:2:0:0:
176,140,79210,1,8,1:0:0:0:
401,287,79384,1,2,1:2:0:0:
125,232,79558,5,2,1:3:0:0:
339,75,79733,1,2,1:2:0:0:
292,307,79907,1,8,1:0:0:0:
234,25,80082,1,2,1:2:0:0:
390,202,80256,1,2,1:3:0:0:
495,15,80430,1,2,1:2:0:0:
277,193,80605,1,8,1:0:0:0:
468,331,80779,1,2,1:2:0:0:
323,110,80954,6,0,L|188:120,1,115.000002193451,2|0,1:3|0:0,0:0:0:0:
63,46,81303,1,8,1:0:0:0:
52,269,81477,2,0,L|65:324,1,57.5000010967255,2|0,1:2|0:0,0:0:0:0:
90,198,81651,1,2,1:3:0:0:
293,299,81826,1,0,0:0:0:0:
123,210,82000,1,8,1:0:0:0:
346,131,82175,2,0,L|403:137,1,57.5000010967255,2|0,1:2|0:0,0:0:0:0:
282,81,82349,6,0,P|264:146|305:200,1,115.000002193451,2|0,1:3|0:0,0:0:0:0:
490,339,82698,2,0,L|367:325,1,115.000002193451,8|0,1:0|0:0,0:0:0:0:
219,366,83047,1,2,1:3:0:0:
419,221,83221,1,2,1:3:0:0:
158,69,83396,2,0,B|152:131|152:131|161:175|161:175|159:286,1,172.500003290176,8|0,1:0|1:3,0:0:0:0:
159,320,83744,5,2,0:3:0:0:
378,60,84093,1,8,1:0:0:0:
75,170,84442,5,2,1:3:0:0:
227,223,84617,1,2,1:2:0:0:
201,64,84791,1,8,1:0:0:0:
110,292,84965,1,2,1:2:0:0:
28,45,85140,5,2,1:3:0:0:
148,216,85314,1,2,1:2:0:0:
273,9,85489,1,8,1:0:0:0:
199,311,85663,1,2,1:2:0:0:
122,107,85837,1,2,1:3:0:0:
338,280,86012,1,2,1:3:0:0:
104,297,86186,1,8,1:0:0:0:
292,100,86361,1,2,1:2:0:0:
399,345,86535,6,0,L|315:352,2,76.6666681289673,2|0|0,1:3|0:0|0:0,0:0:0:0:
440,245,86884,2,0,L|356:252,2,76.6666681289673,8|0|0,1:0|0:0|0:0,0:0:0:0:
288,168,87233,2,0,L|211:174,2,76.6666681289673,2|0|0,1:3|0:0|0:0,0:0:0:0:
247,268,87582,2,0,L|170:274,2,76.6666681289673,8|0|0,1:0|0:0|0:0,0:0:0:0:
316,349,87930,5,8,1:0:0:0:
355,100,88105,1,2,1:3:0:0:
196,349,88279,1,8,1:0:0:0:
157,100,88454,1,2,1:3:0:0:
392,196,88628,1,2,1:3:0:0:
76,259,88977,6,0,L|88:116,1,115.000002193451,8|8,0:3|0:3,0:0:0:0:
382,81,89326,6,0,L|391:195,1,115.000002193451,4|0,1:0|0:0,0:0:0:0:
222,354,89675,2,0,P|240:300|212:236,1,115.000002193451,8|0,1:0|0:0,0:0:0:0:
76,176,90024,5,2,1:3:0:0:
272,77,90198,1,2,1:2:0:0:
100,166,90372,1,8,1:0:0:0:
325,292,90547,1,2,1:2:0:0:
280,105,90721,5,2,1:3:0:0:
212,350,90896,1,2,1:2:0:0:
371,173,91070,1,8,1:0:0:0:
232,331,91244,1,2,1:2:0:0:
171,73,91419,1,2,1:3:0:0:
351,169,91593,1,2,1:3:0:0:
122,290,91768,1,8,1:0:0:0:
331,165,91942,1,2,1:2:0:0:
71,137,92117,6,0,L|82:22,1,115.000002193451,2|0,1:3|0:0,0:0:0:0:
207,220,92465,1,8,0:1:0:0:
342,308,92640,2,0,L|398:299,1,57.5000010967255,2|0,1:2|0:0,0:0:0:0:
272,348,92814,1,2,1:3:0:0:
320,193,92989,1,0,0:0:0:0:
196,90,93163,1,8,0:1:0:0:
132,237,93337,2,0,L|142:293,1,57.5000010967255,2|0,1:2|0:0,0:0:0:0:
72,181,93512,6,0,B|140:130|199:175|209:221|209:221|223:193|281:184,1,230.000004386902,2|8,1:3|1:0,0:0:0:0:
340,327,94035,1,0,0:0:0:0:
421,187,94210,2,0,L|409:59,1,115.000002193451,2|2,1:3|1:2,0:0:0:0:
341,301,94558,1,8,1:0:0:0:
489,127,94733,1,0,0:0:0:0:
227,31,94907,5,2,1:3:0:0:
153,344,95256,1,8,1:0:0:0:
421,166,95605,5,2,1:3:0:0:
153,197,95779,1,2,1:2:0:0:
394,170,95954,1,8,1:0:0:0:
176,195,96128,1,2,1:2:0:0:
347,64,96303,5,2,1:3:0:0:
267,308,96477,1,2,1:2:0:0:
207,95,96651,1,8,1:0:0:0:
360,275,96826,1,2,1:2:0:0:
433,26,97000,1,2,1:3:0:0:
259,197,97175,1,2,1:2:0:0:
469,251,97349,1,8,1:0:0:0:
292,124,97524,1,2,1:2:0:0:
129,266,97698,6,0,L|136:364,2,76.6666681289673,2|0|0,1:3|0:0|0:0,0:0:0:0:
53,116,98047,2,0,L|48:193,2,76.6666681289673,8|0|0,1:0|0:0|0:0,0:0:0:0:
244,223,98396,2,0,L|251:321,2,76.6666681289673,2|0|0,1:3|0:0|0:0,0:0:0:0:
168,73,98745,2,0,L|162:149,2,76.6666681289673,8|0|0,1:0|0:0|0:0,0:0:0:0:
262,22,99093,5,12,1:0:0:0:
394,279,99268,1,2,1:3:0:0:
273,52,99442,1,8,1:0:0:0:
276,359,99617,1,2,1:3:0:0:
445,112,99791,6,0,L|337:127,2,80,2|0|2,1:3|0:0|0:2,0:0:0:0:
509,259,100314,1,0,0:0:0:0:
266,58,100489,6,0,L|140:47,1,89.9999972534181,4|0,1:0|0:0,0:0:0:0:
47,205,100837,2,0,P|101:219|133:255,1,89.9999972534181,8|0,1:0|0:0,0:0:0:0:
141,367,101186,1,2,0:3:0:0:
125,241,101361,1,0,0:0:0:0:
229,80,101535,1,8,1:0:0:0:
245,206,101710,1,0,0:0:0:0:
137,140,101884,6,0,P|120:88|136:32,1,89.9999972534181,2|0,0:3|0:0,0:0:0:0:
321,153,102233,1,8,1:0:0:0:
79,279,102407,1,0,0:0:0:0:
293,167,102582,1,2,1:3:0:0:
311,361,102756,1,2,1:2:0:0:
166,114,102930,1,8,1:0:0:0:
289,332,103105,1,0,0:0:0:0:
391,157,103279,6,0,L|487:167,1,89.9999972534181,2|0,0:3|0:0,0:0:0:0:
307,46,103628,2,0,L|211:56,1,89.9999972534181,8|0,1:0|0:0,0:0:0:0:
91,69,103977,1,2,0:3:0:0:
164,171,104151,1,0,0:0:0:0:
217,55,104326,1,8,1:0:0:0:
45,186,104500,1,0,0:0:0:0:
216,244,104675,6,0,P|248:204|250:146,1,89.9999972534181,2|0,0:3|0:0,0:0:0:0:
82,108,105024,2,0,P|50:148|48:206,1,89.9999972534181,8|0,1:0|0:0,0:0:0:0:
101,297,105372,1,2,1:3:0:0:
216,244,105547,1,2,1:3:0:0:
437,258,105721,1,8,1:0:0:0:
322,311,105896,1,0,0:0:0:0:
339,186,106070,6,0,L|347:91,1,89.9999972534181,2|0,0:3|0:0,0:0:0:0:
173,0,106419,2,0,L|180:89,1,89.9999972534181,8|0,1:0|0:0,0:0:0:0:
95,183,106768,1,2,0:3:0:0:
180,89,106942,1,0,0:0:0:0:
217,209,107117,1,8,1:0:0:0:
132,303,107291,1,0,0:0:0:0:
180,89,107465,6,0,B|231:97|231:97|277:77,1,89.9999972534181,2|0,0:3|0:0,0:0:0:0:
434,18,107814,1,8,1:0:0:0:
375,210,107989,1,0,0:0:0:0:
426,49,108163,1,2,1:3:0:0:
445,285,108337,1,2,1:3:0:0:
308,107,108512,1,8,1:0:0:0:
475,182,108686,1,0,0:0:0:0:
246,316,108861,6,0,B|265:358|265:358|321:345,1,89.9999972534181,2|0,0:3|0:0,0:0:0:0:
495,224,109210,2,0,B|476:182|476:182|420:195,1,89.9999972534181,8|0,1:0|0:0,0:0:0:0:
353,363,109558,1,2,0:3:0:0:
410,218,109733,1,0,0:0:0:0:
244,42,109907,1,8,1:0:0:0:
281,222,110082,1,0,0:0:0:0:
149,120,110256,5,8,1:0:0:0:
416,58,110430,1,2,1:3:0:0:
187,200,110605,1,8,1:0:0:0:
454,138,110779,1,2,1:3:0:0:
149,120,110954,1,2,1:3:0:0:
386,349,111651,6,0,L|365:156,1,179.999994506836,4|8,1:0|0:1,0:0:0:0:
428,59,112175,1,0,0:0:0:0:
335,243,112349,2,0,P|297:212|289:151,1,89.9999972534181,2|0,0:3|0:0,0:0:0:0:
290,47,112698,1,8,0:1:0:0:
290,47,112872,1,0,0:0:0:0:
286,173,113047,6,0,B|243:199|243:199|159:192|159:192|118:222,1,179.999994506836,2|8,0:3|0:1,0:0:0:0:
42,317,113570,1,0,0:0:0:0:
184,138,113744,1,2,0:3:0:0:
143,378,113919,1,2,0:3:0:0:
191,103,114093,1,8,0:1:0:0:
191,103,114268,1,0,0:0:0:0:
403,247,114442,6,0,L|199:233,1,179.999994506836,2|8,0:3|0:1,0:0:0:0:
148,336,114965,1,0,0:0:0:0:
89,223,115140,2,0,L|96:119,1,89.9999972534181,2|0,0:3|0:0,0:0:0:0:
40,19,115489,1,8,0:1:0:0:
118,117,115663,1,0,0:0:0:0:
237,79,115837,6,0,B|299:74|299:74|350:87|350:87|418:83,1,179.999994506836,2|8,0:3|0:1,0:0:0:0:
502,175,116361,1,0,0:0:0:0:
434,281,116535,2,0,L|331:290,1,89.9999972534181,2|0,0:3|0:0,0:0:0:0:
240,361,116884,1,8,0:1:0:0:
168,257,117058,1,0,0:0:0:0:
269,180,117233,6,0,L|464:163,1,179.999994506836,2|8,0:3|0:1,0:0:0:0:
483,42,117756,1,0,0:0:0:0:
408,255,117930,1,2,0:3:0:0:
483,42,118105,1,0,0:0:0:0:
492,327,118279,1,8,0:1:0:0:
355,166,118454,1,0,0:0:0:0:
274,262,118628,6,0,B|222:306|222:306|104:289,1,179.999994506836,2|8,0:3|0:1,0:0:0:0:
52,178,119151,1,0,0:0:0:0:
260,113,119326,1,0,0:0:0:0:
79,171,119500,1,0,0:0:0:0:
321,218,119675,1,8,1:0:0:0:
151,79,119849,1,0,0:0:0:0:
62,309,120024,6,0,L|248:289,1,179.999994506836,2|8,0:3|0:1,0:0:0:0:
347,358,120547,1,0,0:0:0:0:
397,112,120721,1,2,0:3:0:0:
438,338,120896,1,0,0:0:0:0:
397,112,121070,1,8,0:1:0:0:
347,358,121244,1,0,0:0:0:0:
476,164,121419,5,8,0:3:0:0:
256,192,121506,12,4,122814,1:0:0:0:
256,192,122901,12,4,133977,1:0:0:0:
