osu file format v14

[General]
AudioFilename: audio.mp3
AudioLeadIn: 0
PreviewTime: 24
Countdown: 0
SampleSet: Soft
StackLeniency: 0.4
Mode: 0
LetterboxInBreaks: 0
WidescreenStoryboard: 0

[Editor]
Bookmarks: 43977,100489,121419
DistanceSpacing: 1
BeatDivisor: 6
GridSize: 4
TimelineZoom: 2.799999

[Metadata]
Title:Outbreak
TitleUnicode:Outbreak
Artist:Mediks
ArtistUnicode:Mediks
Creator:Strategas
Version:Yamicchi's Hyper
Source:
Tags:ep dnb zombie pishifat cbh DeRandom Otaku Arrival Come[Back]Home Yamicchi 2012
BeatmapID:1134165
BeatmapSetID:527082

[Difficulty]
HPDrainRate:5.5
CircleSize:4
OverallDifficulty:8
ApproachRate:9
SliderMultiplier:1.6
SliderTickRate:1

[Events]
//Background and Video events
0,0,"hospital.jpg",0,0
//Break Periods
//Storyboard Layer 0 (Background)
//Storyboard Layer 1 (Fail)
//Storyboard Layer 2 (Pass)
//Storyboard Layer 3 (Foreground)
//Storyboard Sound Samples

[TimingPoints]
24,348.837209302326,4,2,25,25,1,0
20256,-100,4,2,25,30,0,0
20954,-100,4,2,25,35,0,0
21651,-100,4,2,25,40,0,0
22000,-100,4,2,25,5,0,0
22349,-133.333333333333,4,2,25,40,0,0
27930,-111.111111111111,4,2,25,50,0,0
30721,-100,4,2,25,50,0,0
33512,-76.9230769230769,4,2,25,60,0,0
44675,-82.6446280991736,4,2,25,60,0,0
45372,-76.9230769230769,4,2,25,60,0,0
55140,-100,4,2,25,60,0,0
58279,-76.9230769230769,4,2,25,40,0,0
75372,-100,4,2,25,40,0,0
76768,-100,4,2,25,60,0,0
78163,-90.9090909090909,4,2,25,60,0,0
80954,-76.9230769230769,4,2,25,60,0,0
82349,-90.9090909090909,4,2,25,60,0,0
86535,-76.9230769230769,4,2,25,60,0,0
89326,-90.9090909090909,4,2,25,60,0,0
92117,-76.9230769230769,4,2,25,60,0,0
93512,-90.9090909090909,4,2,25,60,0,0
100489,-100,4,2,25,50,0,0
121419,-200,4,2,25,25,0,0
122814,-100,4,2,25,50,0,0
122901,-100,4,2,25,25,0,0

[Colours]
Combo1 : 188,198,6
Combo2 : 155,40,61
Combo3 : 44,57,180

[HitObjects]
256,192,19558,12,0,22000,0:0:0:0:
116,100,22349,6,0,B|176:112|176:112|240:104,1,120.000004577637,4|0,0:0|0:0,0:0:0:0:
432,140,23047,2,0,B|372:128|372:128|308:136,1,120.000004577637,2|0,0:0|0:0,0:0:0:0:
128,184,23744,2,0,B|188:196|188:196|252:188,1,120.000004577637,2|0,0:0|0:0,0:0:0:0:
444,224,24442,2,0,B|384:212|384:212|320:220,1,120.000004577637,2|0,0:0|0:0,0:0:0:0:
128,184,25140,6,0,B|120:132|120:132|124:116|124:116|116:56,1,120.000004577637,2|0,0:0|0:0,0:0:0:0:
212,192,25837,2,0,B|204:140|204:140|208:124|208:124|200:64,1,120.000004577637,2|0,0:0|0:0,0:0:0:0:
300,192,26535,2,0,B|308:140|308:140|304:124|304:124|312:64,1,120.000004577637,2|0,0:0|0:0,0:0:0:0:
384,184,27233,2,0,B|392:132|392:132|388:116|388:116|396:56,1,120.000004577637,2|0,0:0|0:0,0:0:0:0:
460,224,27930,6,0,P|432:256|376:268,1,71.9999978027344,4|0,0:0|0:0,0:0:0:0:
264,320,28279,2,0,P|292:288|348:276,1,71.9999978027344,2|0,0:0|0:0,0:0:0:0:
464,244,28628,2,0,P|430:270|373:272,1,71.9999978027344,2|0,0:3|0:0,0:0:0:0:
254,304,28977,2,0,P|287:277|344:275,1,71.9999978027344,2|0,0:0|0:0,0:0:0:0:
468,260,29326,6,0,L|472:180,1,71.9999978027344,2|0,0:3|0:0,0:0:0:0:
320,80,29675,2,0,L|324:152,1,71.9999978027344,2|0,0:0|0:0,0:0:0:0:
188,280,30024,2,0,L|184:208,1,71.9999978027344,2|0,0:3|0:0,0:0:0:0:
41,101,30373,2,0,L|37:172,1,71.9999978027344,2|0,0:0|0:0,0:0:0:0:
184,208,30721,6,0,L|181:154,2,53.3333333333333,2|2|2,0:3|0:3|0:3,0:0:0:0:
324,152,31070,2,0,L|326:205,2,53.3333333333333,2|2|2,0:0|0:3|0:3,0:0:0:0:
471,188,31419,2,0,L|473:134,2,53.3333333333333,2|2|2,0:3|0:3|0:3,0:0:0:0:
384,312,31768,2,0,L|386:365,2,53.3333333333333,2|2|2,0:0|0:3|0:3,0:0:0:0:
324,152,32117,5,2,0:3:0:0:
272,208,32233,2,0,B|232:252|172:250,2,106.666666666667,2|2|2,0:3|0:3|0:3,0:0:0:0:
346,225,32814,2,0,L|342:349,1,106.666666666667,2|2,0:3|0:3,0:0:0:0:
397,171,33163,1,8,1:0:0:0:
397,171,33512,6,0,P|460:156|488:80,1,138.666660319011,4|0,0:0|0:0,0:0:0:0:
436,32,33861,2,0,P|373:47|345:123,1,138.666660319011,8|0,1:0|0:0,0:0:0:0:
320,184,34210,2,0,B|248:176,2,69.3333301595054,2|0|0,1:3|0:0|0:0,0:0:0:0:
320,264,34558,2,0,B|248:272,2,69.3333301595054,8|0|0,1:0|0:0|0:0,0:0:0:0:
251,176,34907,2,0,B|179:168,2,69.3333301595054,2|0|0,1:3|0:0|0:0,0:0:0:0:
251,271,35256,2,0,B|179:279,2,69.3333301595054,8|0|0,1:0|0:0|0:0,0:0:0:0:
182,168,35605,2,0,B|110:160,2,69.3333301595054,2|0|2,1:3|0:0|1:3,0:0:0:0:
182,278,35954,2,0,B|110:286,2,69.3333301595054,8|0|0,1:0|0:0|0:0,0:0:0:0:
320,264,36303,6,0,L|236:272,1,69.3333301595054,2|0,1:2|0:0,0:0:0:0:
182,278,36535,2,0,L|98:286,1,69.3333301595054,2|8,1:2|0:1,0:0:0:0:
113,160,36768,1,2,1:2:0:0:
113,160,36884,1,2,1:2:0:0:
113,160,37000,6,0,B|182:168,1,69.3333301595054,2|0,1:3|0:0,0:0:0:0:
251,176,37233,2,0,B|320:184,1,69.3333301595054,2|8,1:2|0:1,0:0:0:0:
182,278,37465,1,2,1:2:0:0:
182,278,37582,1,2,1:2:0:0:
182,278,37698,6,0,B|112:284|112:284|28:268,1,138.666660319011,2|2,1:3|0:0,0:0:0:0:
83,199,38047,2,0,B|116:204|116:204|152:202,1,69.3333301595054,8|0,1:0|0:0,0:0:0:0:
189,118,38279,1,0,0:0:0:0:
189,118,38396,2,0,B|119:124|119:124|51:111,1,138.666660319011,2|2,1:3|1:3,0:0:0:0:
56,28,38744,2,0,B|126:22|126:22|193:34,1,138.666660319011,8|0,1:0|0:0,0:0:0:0:
251,176,39093,6,0,B|300:171|300:171|340:151|340:151|412:141,1,138.666660319011,2|0,1:3|0:0,0:0:0:0:
407,221,39442,2,0,P|395:274|368:228,1,138.666660319011,8|0,1:0|0:0,0:0:0:0:
280,264,39791,2,0,L|180:272,2,69.3333301595054,2|0|0,1:3|0:0|0:0,0:0:0:0:
280,96,40140,2,0,L|180:88,2,69.3333301595054,8|0|0,1:0|0:0|0:0,0:0:0:0:
210,269,40489,2,0,L|110:261,2,69.3333301595054,2|0|0,1:3|0:0|0:0,0:0:0:0:
210,90,40837,2,0,L|110:98,2,69.3333301595054,8|0|0,1:0|0:0|0:0,0:0:0:0:
140,263,41186,2,0,L|40:255,2,69.3333301595054,2|0|2,1:3|0:0|1:3,0:0:0:0:
140,95,41535,2,0,L|40:103,2,69.3333301595054,8|0|0,1:0|0:0|0:0,0:0:0:0:
70,257,41884,5,2,1:3:0:0:
70,257,42000,2,0,L|72:344,1,69.3333301595054,0|0,0:0|0:0,0:0:0:0:
210,269,42233,1,8,1:0:0:0:
210,269,42349,2,0,L|212:356,1,69.3333301595054
350,281,42582,1,2,1:3:0:0:
350,281,42698,2,0,L|352:368,1,69.3333301595054,0|0,0:0|0:0,0:0:0:0:
490,293,42930,1,8,1:0:0:0:
490,293,43046,2,0,L|492:380,1,69.3333301595054
432,168,43279,5,8,1:0:0:0:
360,160,43396,1,8,1:0:0:0:
288,152,43512,1,2,1:3:0:0:
216,144,43628,2,0,L|136:152,2,69.3333301595054,8|8|2,1:0|1:0|1:3,0:0:0:0:
296,80,43977,5,2,1:3:0:0:
296,80,44326,1,8,0:3:0:0:
288,152,44442,1,8,0:3:0:0:
280,224,44559,1,8,0:3:0:0:
432,168,44675,6,0,L|288:152,1,145.199995901184,4|0,0:0|0:0,0:0:0:0:
280,224,45024,2,0,L|136:208,1,145.199995901184,8|0,0:1|0:0,0:0:0:0:
112,280,45372,6,0,L|100:368,2,69.3333301595054,2|0|0,1:3|0:0|0:0,0:0:0:0:
172,140,45721,2,0,L|160:52,2,69.3333301595054,8|0|0,1:0|0:0|0:0,0:0:0:0:
192,288,46070,2,0,L|180:376,2,69.3333301595054,2|0|0,1:3|0:0|0:0,0:0:0:0:
252,132,46419,2,0,L|240:44,2,69.3333301595054,8|0|0,1:0|0:0|0:0,0:0:0:0:
272,296,46768,2,0,L|260:384,2,69.3333301595054,2|0|2,1:3|0:0|1:3,0:0:0:0:
332,124,47117,2,0,L|320:36,2,69.3333301595054,8|0|0,1:0|0:0|0:0,0:0:0:0:
352,304,47465,6,0,L|340:216,1,69.3333301595054,2|0,1:3|0:0,0:0:0:0:
252,132,47698,2,0,L|240:44,1,69.3333301595054,0|8,1:2|0:1,0:0:0:0:
272,296,47930,1,0,1:2:0:0:
192,288,48047,1,0,1:2:0:0:
112,280,48163,2,0,L|100:192,1,69.3333301595054,2|0,1:3|0:0,0:0:0:0:
162,71,48396,2,0,L|150:-17,1,69.3333301595054,0|8,1:2|0:1,0:0:0:0:
240,224,48628,1,0,1:2:0:0:
320,232,48745,1,0,1:2:0:0:
400,240,48861,6,0,L|376:76,1,138.666660319011
458,127,49210,2,0,L|468:196,1,69.3333301595054,8|0,1:0|0:0,0:0:0:0:
476,272,49442,1,0,0:0:0:0:
408,321,49558,2,0,B|340:339|340:339|272:331,1,138.666660319011,2|2,1:3|1:3,0:0:0:0:
264,250,49907,2,0,B|331:231|331:231|399:239,1,138.666660319011,8|0,1:0|0:0,0:0:0:0:
272,331,50256,6,0,B|204:349|204:349|136:341,1,138.666660319011,2|0,1:3|0:0,0:0:0:0:
140,260,50605,2,0,P|144:184|76:140,1,138.666660319011,8|0,1:0|0:0,0:0:0:0:
3,227,50954,2,0,L|72:220,2,69.3333301595054,2|0|0,1:3|0:0|0:0,0:0:0:0:
0,64,51303,2,0,L|68:71,2,69.3333301595054,8|0|0,1:0|0:0|0:0,0:0:0:0:
72,220,51651,2,0,L|140:212,2,69.3333301595054,2|0|0,1:3|0:0|0:0,0:0:0:0:
68,71,52000,2,0,L|136:78,2,69.3333301595054,8|0|0,1:0|0:0|0:0,0:0:0:0:
140,212,52349,2,0,L|208:204,2,69.3333301595054,2|0|2,1:3|0:0|1:3,0:0:0:0:
136,78,52698,2,0,L|204:85,2,69.3333301595054,8|0|0,1:0|0:0|0:0,0:0:0:0:
208,204,53047,5,2,1:3:0:0:
208,204,53163,2,0,L|276:196,1,69.3333301595054
416,228,53396,1,8,1:0:0:0:
416,228,53512,2,0,L|347:235,1,69.3333301595054
288,344,53744,1,2,1:3:0:0:
288,344,53860,2,0,L|280:275,1,69.3333301595054
336,88,54093,1,8,1:0:0:0:
336,88,54209,2,0,L|343:156,1,69.3333301595054
208,204,54442,5,8,1:0:0:0:
124,208,54558,1,8,1:0:0:0:
95,130,54675,1,2,1:3:0:0:
160,78,54791,2,0,P|190:62|224:58,2,69.3333301595054,8|8|2,1:0|1:0|1:3,0:0:0:0:
124,208,55140,6,0,B|132:276|196:288|196:288|248:276|248:276|296:292|296:292|340:280,1,266.666666666667,2|2,1:3|0:3,0:0:0:0:
208,204,55837,5,4,0:0:0:0:
208,204,58279,6,0,B|280:192|280:192|352:208,1,138.666660319011,8|0,1:0|0:0,0:0:0:0:
156,276,58628,6,0,P|120:216|136:152,1,138.666660319011,2|0,1:3|0:0,0:0:0:0:
216,124,58977,2,0,L|288:112,2,69.3333301595054,8|0|0,1:0|0:0|0:0,0:0:0:0:
152,72,59326,2,0,L|105:15,2,69.3333301595054,2|0|0,1:3|0:0|0:0,0:0:0:0:
135,152,59675,2,0,L|109:220,2,69.3333301595054,8|0|0,1:0|0:0|1:2,0:0:0:0:
228,44,60024,6,0,L|384:20,1,138.666660319011,2|0,1:3|1:2,0:0:0:0:
421,133,60372,2,0,L|265:109,1,138.666660319011,8|0,1:0|1:2,0:0:0:0:
232,204,60721,2,0,L|305:193,1,69.3333301595054,2|0,1:3|0:0,0:0:0:0:
404,216,60954,1,2,1:3:0:0:
252,320,61070,2,0,L|408:296,1,138.666660319011,8|0,1:0|1:2,0:0:0:0:
300,193,61419,6,0,L|144:216,1,138.666660319011,2|0,1:3|0:0,0:0:0:0:
96,160,61768,2,0,P|84:120|92:84,1,69.3333301595054,8|0,1:0|0:0,0:0:0:0:
163,213,62000,6,0,B|184:280|184:280|172:360,1,138.666660319011,2|0,1:2|0:0,0:0:0:0:
252,364,62349,2,0,B|262:294|262:294|308:227,1,138.666660319011,2|2,1:2|0:0,0:0:0:0:
376,200,62698,1,2,1:2:0:0:
452,164,62814,2,0,L|456:88,1,69.3333301595054,2|0,0:3|0:0,0:0:0:0:
376,200,63047,2,0,L|384:28,1,138.666660319011,2|0,1:2|0:0,0:0:0:0:
304,160,63396,1,2,1:2:0:0:
304,160,63512,2,0,L|308:84,1,69.3333301595054,2|0,1:3|0:0,0:0:0:0:
297,307,63861,2,0,L|301:231,1,69.3333301595054,8|0,1:0|0:0,0:0:0:0:
311,21,64210,6,0,L|304:160,1,138.666660319011,2|0,1:3|0:0,0:0:0:0:
240,212,64558,2,0,P|204:224|160:220,1,69.3333301595054,8|0,1:0|0:0,0:0:0:0:
116,164,64791,2,0,P|92:228|124:288,1,138.666660319011,2|0,1:2|0:0,0:0:0:0:
196,144,65140,2,0,P|152:91|84:88,1,138.666660319011,2|0,1:2|0:0,0:0:0:0:
172,223,65489,1,2,1:2:0:0:
304,160,65605,6,0,L|308:84,2,69.3333301595054,8|8|2,1:0|1:0|1:3,0:0:0:0:
368,276,65954,2,0,L|372:200,2,69.3333301595054,8|8|2,1:0|1:0|1:3,0:0:0:0:
444,168,66303,1,2,1:3:0:0:
444,168,66651,2,0,L|448:92,2,69.3333301595054,8|8|8,0:3|0:3|0:3,0:0:0:0:
368,276,67000,6,0,B|312:296|264:280|264:280|216:264|160:288,1,207.999990478516,4|8,1:0|1:0,0:0:0:0:
164,286,67698,2,0,B|172:230|172:230|164:142,1,138.666660319011,2|0,1:3|0:0,0:0:0:0:
192,3,68047,2,0,L|200:72,1,69.3333301595054,8|0,1:0|0:0,0:0:0:0:
248,140,68279,1,0,0:0:0:0:
248,140,68396,2,0,B|304:148|304:148|392:140,1,138.666660319011,2|0,1:3|1:2,0:0:0:0:
448,192,68744,1,8,1:0:0:0:
272,376,68977,5,0,1:2:0:0:
275,238,69093,2,0,B|271:298|271:298|275:310|275:310|271:378,1,138.666660319011,2|2,1:3|1:3,0:0:0:0:
354,232,69442,2,0,B|350:292|350:292|354:304|354:304|350:372,1,138.666660319011,8|0,1:0|1:2,0:0:0:0:
192,381,69791,6,0,B|196:316|196:316|192:304|192:304|196:244,1,138.666660319011,2|0,1:3|0:0,0:0:0:0:
136,184,70140,2,0,B|100:181|100:181|60:188,2,69.3333301595054,8|0|0,1:0|0:0|0:0,0:0:0:0:
252,100,70489,2,0,B|271:70|271:70|286:32,2,69.3333301595054,2|0|0,1:3|0:0|0:0,0:0:0:0:
275,238,70837,2,0,B|290:269|290:269|316:301,2,69.3333301595054,8|0|0,1:0|0:0|1:2,0:0:0:0:
168,108,71186,6,0,B|96:104|96:104|0:120,1,138.666660319011,2|0,1:3|1:2,0:0:0:0:
216,172,71535,2,0,B|288:176|288:176|384:160,1,138.666660319011,8|0,1:0|1:2,0:0:0:0:
468,240,71884,2,0,L|384:236,1,69.3333301595054,2|0,1:3|0:0,0:0:0:0:
282,320,72117,1,2,1:3:0:0:
420,322,72233,2,0,B|376:318|376:318|323:323|323:323|264:318,1,138.666660319011,8|0,1:0|1:2,0:0:0:0:
16,344,72582,6,0,L|28:196,1,138.666660319011,2|2,1:3|1:2,0:0:0:0:
116,352,72930,2,0,L|204:360,1,69.3333301595054,0|0,0:0|0:0,0:0:0:0:
282,320,73163,1,2,1:2:0:0:
92,280,73279,6,0,L|104:132,1,138.666660319011,2|2,1:3|1:2,0:0:0:0:
192,288,73627,2,0,L|280:296,1,69.3333301595054,0|0,0:0|0:0,0:0:0:0:
358,256,73860,1,2,1:2:0:0:
168,216,73977,6,0,L|180:68,1,138.666660319011,2|2,1:3|1:2,0:0:0:0:
268,224,74325,2,0,L|356:232,1,69.3333301595054,0|0,0:0|0:0,0:0:0:0:
434,192,74558,1,2,1:2:0:0:
244,148,74675,6,0,L|256:0,1,138.666660319011,2|0,1:3|0:0,0:0:0:0:
344,156,75023,2,0,L|432:164,1,69.3333301595054,0|0,0:0|0:0,0:0:0:0:
510,124,75256,1,2,1:2:0:0:
452,368,75372,6,0,L|448:276,1,80,2|0,1:3|0:0,0:0:0:0:
320,351,75721,2,0,L|324:272,1,80,0|2,0:0|0:2,0:0:0:0:
192,352,76070,2,0,L|188:260,1,80,2|0,0:2|0:0,0:0:0:0:
60,368,76419,2,0,L|63:288,1,80,0|2,0:0|0:0,0:0:0:0:
60,164,76768,5,2,1:3:0:0:
60,164,76942,1,2,1:3:0:0:
188,184,77117,1,2,1:3:0:0:
188,184,77291,1,2,1:3:0:0:
320,184,77465,1,2,1:3:0:0:
320,184,77639,1,2,1:3:0:0:
452,164,77814,5,8,1:0:0:0:
452,164,78163,6,0,P|472:228|448:316,1,132.00000402832,4|0,1:0|0:0,0:0:0:0:
444,336,78512,2,0,L|352:344,1,88.000002685547,8|0,1:0|0:0,0:0:0:0:
252,284,78861,5,2,1:3:0:0:
188,184,79035,1,0,1:2:0:0:
384,84,79210,1,8,1:0:0:0:
320,184,79384,1,0,1:2:0:0:
265,78,79558,6,0,L|164:68,1,88.000002685547,2|0,1:3|1:2,0:0:0:0:
100,192,79907,2,0,L|201:182,1,88.000002685547,8|0,1:0|1:2,0:0:0:0:
320,184,80256,5,2,1:3:0:0:
252,284,80430,1,0,1:2:0:0:
460,280,80605,2,0,L|359:290,1,88.000002685547,8|0,1:0|1:2,0:0:0:0:
252,284,80954,6,0,L|248:216,1,51.999997619629,2|0,1:0|0:0,0:0:0:0:
244,148,81128,1,0,0:0:0:0:
252,284,81303,1,8,1:0:0:0:
244,148,81477,1,2,1:2:0:0:
172,320,81651,6,0,L|168:252,1,51.999997619629,2|0,1:0|0:0,0:0:0:0:
164,184,81825,1,0,0:0:0:0:
172,320,82000,1,8,1:0:0:0:
164,184,82174,1,2,1:2:0:0:
252,284,82349,6,0,P|312:308|400:268,1,132.00000402832,2|0,1:3|0:0,0:0:0:0:
408,256,82698,2,0,P|416:208|408:168,1,88.000002685547,8|0,1:0|0:0,0:0:0:0:
328,104,83047,1,2,1:3:0:0:
328,104,83221,1,2,1:3:0:0:
164,184,83396,2,0,L|272:176,1,88.000002685547,8|0,1:0|0:0,0:0:0:0:
124,256,83744,6,0,P|86:212|101:130,1,132.00000402832,2|0,1:3|0:0,0:0:0:0:
128,112,84093,2,0,L|236:104,1,88.000002685547,8|0,1:0|0:0,0:0:0:0:
316,184,84442,5,2,1:3:0:0:
316,184,84617,1,0,1:2:0:0:
372,328,84791,2,0,L|380:236,1,88.000002685547,8|0,1:0|1:2,0:0:0:0:
236,220,85140,5,2,1:3:0:0:
236,220,85314,1,0,1:2:0:0:
292,356,85489,2,0,L|300:264,1,88.000002685547,8|0,1:0|1:2,0:0:0:0:
156,248,85837,5,2,1:3:0:0:
156,248,86011,1,2,1:3:0:0:
212,384,86186,2,0,L|220:292,1,88.000002685547,8|0,1:0|1:2,0:0:0:0:
172,164,86535,6,0,L|180:80,2,69.3333301595054,2|0|0,1:3|0:0|0:0,0:0:0:0:
260,36,86884,2,0,L|268:120,2,69.3333301595054,8|0|0,1:0|0:0|0:0,0:0:0:0:
348,164,87233,2,0,L|356:80,2,69.3333301595054,2|0|0,1:3|0:0|0:0,0:0:0:0:
436,36,87582,2,0,L|444:120,2,69.3333301595054,8|0|0,1:0|0:0|0:0,0:0:0:0:
448,276,87930,5,8,1:0:0:0:
456,192,88105,1,2,1:3:0:0:
380,328,88279,1,8,1:0:0:0:
372,244,88454,1,2,1:3:0:0:
308,372,88628,1,2,1:3:0:0:
308,372,88977,5,8,0:3:0:0:
308,372,89151,1,8,0:3:0:0:
96,352,89326,6,0,L|236:344,1,132.00000402832,4|0,1:2|0:0,0:0:0:0:
256,308,89675,2,0,P|268:264|252:208,1,88.000002685547,8|0,1:0|0:0,0:0:0:0:
172,156,90024,5,2,1:3:0:0:
156,264,90198,1,0,1:2:0:0:
272,116,90372,2,0,P|240:74|202:53,1,88.000002685547,8|0,1:0|1:2,0:0:0:0:
88,92,90721,5,2,1:3:0:0:
68,196,90896,1,0,1:2:0:0:
260,223,91070,2,0,L|352:215,1,88.000002685547,8|0,1:0|0:0,0:0:0:0:
172,156,91419,5,2,1:3:0:0:
156,264,91593,1,2,1:3:0:0:
272,116,91768,2,0,L|264:24,1,88.000002685547,8|0,1:0|0:0,0:0:0:0:
172,156,92117,6,0,L|176:224,1,51.999997619629,2|0,1:0|0:0,0:0:0:0:
180,284,92291,1,0,0:0:0:0:
68,196,92465,1,8,0:1:0:0:
76,324,92640,1,2,1:2:0:0:
188,152,92814,6,0,L|192:220,1,51.999997619629,2|0,1:0|0:0,0:0:0:0:
196,288,92988,1,0,0:0:0:0:
52,192,93163,1,8,0:1:0:0:
60,332,93338,1,2,1:2:0:0:
212,292,93512,6,0,P|272:276|344:292,1,132.00000402832,2|0,1:3|0:0,0:0:0:0:
380,300,93861,2,0,P|392:256|384:200,1,88.000002685547,8|0,1:0|0:0,0:0:0:0:
288,152,94210,1,2,1:3:0:0:
288,152,94384,1,0,0:0:0:0:
180,284,94558,2,0,P|172:240|180:192,1,88.000002685547,8|0,1:0|1:0,1:0:0:0:
332,240,94907,6,0,L|480:244,1,132.00000402832,2|0,1:3|0:0,0:0:0:0:
492,208,95256,2,0,P|500:164|488:112,1,88.000002685547,8|0,1:0|0:0,0:0:0:0:
344,152,95605,5,2,1:3:0:0:
344,152,95779,1,0,1:2:0:0:
188,96,95954,2,0,L|275:92,1,88.000002685547,8|0,1:0|1:2,0:0:0:0:
332,240,96303,5,2,1:3:0:0:
332,240,96477,1,0,1:2:0:0:
176,184,96652,2,0,L|263:180,1,88.000002685547,8|0,1:0|1:2,0:0:0:0:
316,328,97000,5,2,1:3:0:0:
316,328,97174,1,0,1:2:0:0:
160,272,97349,2,0,L|247:268,1,88.000002685547,8|0,1:0|1:2,0:0:0:0:
400,300,97698,6,0,L|472:296,2,58.6666684570313,2|0|0,1:3|0:0|0:0,0:0:0:0:
468,216,98047,2,0,L|408:220,2,58.6666684570313,8|0|0,1:0|0:0|0:0,0:0:0:0:
384,140,98396,2,0,L|452:136,2,58.6666684570313,2|0|0,1:3|0:0|0:0,0:0:0:0:
452,56,98745,2,0,L|392:60,2,58.6666684570313,8|0|0,1:0|0:0|0:0,0:0:0:0:
312,64,99093,5,12,1:0:0:0:
224,68,99268,1,2,1:3:0:0:
72,128,99442,1,8,1:0:0:0:
160,132,99617,1,2,1:3:0:0:
224,68,99791,5,2,1:3:0:0:
224,68,100489,6,0,B|240:124|240:124|232:248,1,160,4|8,1:2|1:0,0:0:0:0:
228,308,101012,1,0,0:0:0:0:
316,216,101186,2,0,L|400:220,1,80,2|0,0:3|0:0,0:0:0:0:
380,364,101535,2,0,L|296:360,1,80,8|0,1:0|0:0,0:0:0:0:
228,308,101884,6,0,L|64:316,1,160,2|8,0:3|1:0,0:0:0:0:
20,248,102407,1,0,0:0:0:0:
130,152,102582,2,0,L|136:244,1,80,2|0,1:3|1:2,0:0:0:0:
276,136,102930,2,0,L|282:228,1,80,8|0,1:0|0:0,0:0:0:0:
135,231,103279,6,0,L|124:56,1,160,2|8,0:3|1:0,0:0:0:0:
176,8,103803,1,0,0:0:0:0:
308,56,103977,2,0,L|387:49,1,80,2|0,0:3|0:0,0:0:0:0:
224,80,104326,2,0,L|230:172,1,80,8|0,1:0|0:0,0:0:0:0:
288,208,104675,6,0,B|328:208|360:240|360:240|384:208|432:200,1,160,2|8,0:3|1:0,0:0:0:0:
508,220,105198,1,0,0:0:0:0:
440,300,105372,1,2,1:3:0:0:
440,300,105547,1,2,1:3:0:0:
288,208,105721,2,0,L|282:128,1,80,8|0,1:0|0:0,0:0:0:0:
212,88,106070,6,0,B|184:81|184:81|152:92|152:92|120:84|120:84|88:96|88:96|56:88,1,160,2|8,0:3|1:0,0:0:0:0:
8,152,106593,1,0,0:0:0:0:
132,224,106768,2,0,P|174:208|207:171,1,80,2|0,0:3|0:0,0:0:0:0:
56,272,107117,2,0,P|48:316|63:364,1,80,8|0,1:0|0:0,0:0:0:0:
136,312,107465,6,0,L|308:320,1,160,2|8,0:3|1:0,0:0:0:0:
364,276,107989,1,0,0:0:0:0:
252,244,108163,1,2,1:3:0:0:
252,244,108337,1,2,1:3:0:0:
368,356,108512,2,0,L|452:360,1,80,8|0,1:0|0:0,0:0:0:0:
484,292,108861,6,0,B|488:244|488:244|472:184|472:184|476:132,1,160,2|8,0:3|1:0,0:0:0:0:
432,68,109384,1,0,0:0:0:0:
396,192,109558,2,0,L|316:188,1,80,2|0,0:3|0:0,0:0:0:0:
260,60,109907,2,0,L|339:63,1,80,8|0,1:0|0:0,0:0:0:0:
396,192,110256,5,8,1:0:0:0:
316,188,110430,1,2,1:3:0:0:
236,184,110605,1,8,1:0:0:0:
156,180,110779,1,2,1:3:0:0:
76,176,110954,1,2,1:3:0:0:
76,176,111651,6,0,B|58:222|58:222|58:286|58:286|91:347,1,160,4|8,1:2|0:1,0:0:0:0:
152,360,112175,1,0,0:0:0:0:
264,320,112349,2,0,L|376:328,1,80,2|0,0:3|0:0,0:0:0:0:
216,216,112698,2,0,L|328:224,1,80,8|0,1:1|0:0,0:0:0:0:
360,176,113047,6,0,B|381:135|381:135|382:71|382:71|364:24,1,160,2|8,0:3|0:1,0:0:0:0:
288,0,113570,1,0,0:0:0:0:
240,112,113744,1,2,1:3:0:0:
240,112,113919,1,2,1:3:0:0:
80,80,114093,2,0,L|184:70,1,80,8|0,0:1|0:0,1:0:0:0:
240,112,114442,6,0,B|256:168|256:168|248:272,1,160,2|8,0:3|0:1,0:0:0:0:
176,312,114965,1,0,0:0:0:0:
316,316,115140,2,0,L|412:320,1,80,2|0,0:3|0:0,0:0:0:0:
248,269,115489,2,0,L|252:173,1,80,8|0,1:1|0:0,0:0:0:0:
240,112,115837,6,0,B|200:96|160:112|160:112|120:128|80:112,1,160,2|8,0:3|0:1,0:0:0:0:
120,40,116361,1,0,0:0:0:0:
240,112,116535,2,0,L|236:191,1,80,2|0,0:3|0:0,0:0:0:0:
400,244,116884,2,0,L|396:164,1,80,8|0,1:1|0:0,0:0:0:0:
336,104,117233,6,0,B|312:100|292:88|292:88|272:108|240:112|240:112|208:104|180:108,1,160,2|8,0:3|0:1,0:0:0:0:
104,124,117756,1,0,0:0:0:0:
64,236,117930,2,0,L|68:328,1,80,2|0,0:3|0:0,0:0:0:0:
180,216,118279,2,0,L|184:308,1,80,8|0,1:1|0:0,0:0:0:0:
256,340,118628,6,0,B|280:340|308:348|308:348|360:332|420:344,1,160,2|8,0:3|0:1,0:0:0:0:
488,312,119151,1,0,0:0:0:0:
380,248,119326,2,0,P|408:213|444:194,1,80,0|0,0:0|0:0,0:0:0:0:
312,304,119675,2,0,P|267:296|233:275,1,80,8|0,1:1|0:0,0:0:0:0:
180,216,120024,6,0,B|172:168|172:168|180:104|180:104|172:48,2,160,2|8|2,0:3|0:1|0:3,0:0:0:0:
260,168,120896,1,0,0:0:0:0:
173,57,121070,1,8,0:1:0:0:
173,57,121419,6,0,B|232:80|292:52|292:52|332:68|372:56|372:56|412:44|448:60,1,280,8|0,0:3|0:0,0:0:0:0:
408,140,122814,5,4,1:0:0:0:
256,192,122901,12,4,133977,1:0:0:0:
