osu file format v14

[General]
AudioFilename: audio.mp3
AudioLeadIn: 0
PreviewTime: 24
Countdown: 0
SampleSet: Soft
StackLeniency: 0.4
Mode: 0
LetterboxInBreaks: 0
WidescreenStoryboard: 0

[Editor]
Bookmarks: 100489,121419
DistanceSpacing: 1
BeatDivisor: 4
GridSize: 4
TimelineZoom: 2.799999

[Metadata]
Title:Outbreak
TitleUnicode:Outbreak
Artist:Mediks
ArtistUnicode:Mediks
Creator:Strategas
Version:Ren's Insane
Source:
Tags:ep dnb zombie pishifat cbh DeRandom Otaku Arrival Come[Back]Home Yamicchi 2012
BeatmapID:1130130
BeatmapSetID:527082

[Difficulty]
HPDrainRate:5
CircleSize:3.5
OverallDifficulty:7.5
ApproachRate:9.3
SliderMultiplier:1.8
SliderTickRate:1

[Events]
//Background and Video events
0,0,"hospital.jpg",0,0
//Break Periods
//Storyboard Layer 0 (Background)
//Storyboard Layer 1 (Fail)
//Storyboard Layer 2 (Pass)
//Storyboard Layer 3 (Foreground)
//Storyboard Sound Samples

[TimingPoints]
24,348.837209302326,4,2,25,25,1,0
20256,-100,4,2,25,30,0,0
20954,-100,4,2,25,35,0,0
21651,-100,4,2,25,40,0,0
22000,-100,4,2,25,5,0,0
22349,-166.666666666667,4,2,25,40,0,0
27930,-125,4,2,25,50,0,0
30721,-100,4,2,25,50,0,0
33512,-80,4,2,25,60,0,0
36303,-66.6666666666667,4,2,25,60,0,0
37698,-100,4,2,25,60,0,0
39093,-68.9655172413793,4,2,25,60,0,0
39791,-83.3333333333333,4,2,25,60,0,0
44675,-71.4285714285714,4,2,25,60,0,0
48861,-90.9090909090909,4,2,25,60,0,0
49210,-66.6666666666667,4,2,25,60,0,0
50954,-76.9230769230769,4,2,25,60,0,0
55837,-100,4,2,25,60,0,0
55954,-100,4,2,25,40,0,0
58628,-83.3333333333333,4,2,25,60,0,0
65605,-71.4285714285714,4,2,25,60,0,0
76768,-90.9090909090909,4,2,25,60,0,0
78163,-76.9230769230769,4,2,25,60,0,0
80954,-54.054054054054,4,2,25,60,0,0
82349,-125,4,2,25,60,0,0
82611,-125,4,2,25,5,0,0
82698,-68.9655172413793,4,2,25,60,0,0
83396,-90.9090909090909,4,2,25,60,0,0
83744,-71.4285714285714,4,2,25,60,0,0
84006,-71.4285714285714,4,2,25,5,0,0
84093,-100,4,2,25,60,0,0
86535,-83.3333333333333,4,2,25,60,0,0
93512,-125,4,2,25,60,0,0
93774,-125,4,2,25,5,0,0
93861,-71.4285714285714,4,2,25,60,0,0
94558,-90.9090909090909,4,2,25,60,0,0
94907,-62.5,4,2,25,60,0,0
95169,-62.5,4,2,25,5,0,0
95256,-71.4285714285714,4,2,25,60,0,0
97698,-74.0740740740741,4,2,25,60,0,0
100489,-83.3333333333333,4,2,25,50,0,0
106070,-95.2380952380952,4,2,25,50,0,0
106332,-95.2380952380952,4,2,25,5,0,0
106419,-83.3333333333333,4,2,25,50,0,0
117233,-62.5,4,2,25,50,0,0
117494,-62.5,4,2,25,5,0,0
117582,-83.3333333333333,4,2,25,50,0,0
121506,-83.3333333333333,4,2,25,25,0,0
122814,-83.3333333333333,4,2,25,50,0,0
122901,-83.3333333333333,4,2,25,25,0,0

[Colours]
Combo1 : 188,198,6
Combo2 : 155,40,61
Combo3 : 44,57,180

[HitObjects]
256,192,19558,12,0,22000,0:0:0:0:
205,270,22349,6,0,L|324:279,1,107.999996704102,4|0,0:0|0:0,0:0:0:0:
307,114,23047,2,0,L|188:105,1,107.999996704102,2|0,0:0|0:0,0:0:0:0:
223,314,23744,2,0,L|342:323,1,107.999996704102,2|0,0:0|0:0,0:0:0:0:
289,70,24442,2,0,L|170:61,1,107.999996704102,2|0,0:0|0:0,0:0:0:0:
409,247,25140,6,0,B|414:192|414:192|402:126,1,107.999996704102,2|0,0:0|0:0,0:0:0:0:
248,207,25837,2,0,B|243:262|243:262|255:328,1,107.999996704102,2|0,0:0|0:0,0:0:0:0:
439,247,26535,2,0,B|444:192|444:192|434:140,1,107.999996704102,2|0,0:0|0:0,0:0:0:0:
218,207,27233,2,0,B|213:262|213:262|222:313,1,107.999996704102,2|0,0:0|0:0,0:0:0:0:
289,70,27930,6,0,L|202:75,1,72,6|0,0:0|0:0,0:0:0:0:
218,207,28279,2,0,L|305:202,1,72,2|0,0:3|0:0,0:0:0:0:
293,47,28628,2,0,L|206:52,1,72,2|0,0:3|0:0,0:0:0:0:
214,230,28977,2,0,L|301:225,1,72,2|0,0:3|0:0,0:0:0:0:
94,113,29326,6,0,P|86:151|96:190,1,72,2|0,0:3|0:0,0:0:0:0:
214,230,29675,2,0,P|222:192|212:153,1,72,2|0,0:3|0:0,0:0:0:0:
58,97,30024,2,0,P|50:135|60:174,1,72,2|0,0:3|0:0,0:0:0:0:
250,246,30373,2,0,P|258:208|248:169,1,72,2|0,0:3|0:0,0:0:0:0:
221,51,30721,6,0,L|292:39,2,60,2|2|2,0:3|0:3|0:3,0:0:0:0:
174,128,31070,2,0,L|103:116,2,60,2|2|2,0:3|0:3|0:3,0:0:0:0:
251,176,31419,2,0,L|322:164,2,60,2|2|2,0:3|0:3|0:3,0:0:0:0:
205,254,31768,2,0,L|134:242,2,60,2|2|2,0:3|0:3|0:3,0:0:0:0:
269,318,32117,5,2,0:3:0:0:
251,176,32233,2,0,P|245:142|251:107,1,60,2|0,0:3|0:0,0:0:0:0:
353,175,32465,2,0,P|359:209|353:244,1,60,2|0,0:3|0:0,0:0:0:0:
269,318,32698,1,2,0:3:0:0:
173,245,32814,1,2,0:3:0:0:
145,225,33047,5,2,0:3:0:0:
286,336,33163,1,8,1:0:0:0:
311,348,33512,6,0,B|323:299|323:299|308:196,1,150,4|0,0:0|0:0,0:0:0:0:
437,272,33861,2,0,B|400:237|400:237|303:198,1,150,8|0,1:0|0:0,0:0:0:0:
204,220,34210,6,0,L|198:303,2,75,2|0|0,1:3|0:0|0:0,0:0:0:0:
308,200,34558,2,0,L|314:117,2,75,8|2|2,1:0|0:0|0:0,0:0:0:0:
204,220,34907,5,2,1:3:0:0:
174,228,35023,1,0,0:0:0:0:
144,236,35139,1,0,0:0:0:0:
75,304,35255,5,8,1:0:0:0:
105,312,35371,1,2,0:0:0:0:
135,320,35489,1,2,0:0:0:0:
204,220,35604,5,2,1:3:0:0:
204,220,35721,2,0,P|207:180|202:146,1,75,0|2,0:0|1:3,0:0:0:0:
72,229,35953,5,8,1:0:0:0:
72,229,36070,2,0,P|69:269|74:303,1,75,2|2,0:0|0:0,0:0:0:0:
194,107,36303,6,0,B|156:113|156:113|149:118|149:118|96:127,1,90.0000034332277,2|0,1:3|0:0,0:0:0:0:
314,84,36535,2,0,B|276:90|276:90|269:95|269:95|216:104,1,90.0000034332277,2|8,1:2|0:1,0:0:0:0:
436,58,36768,5,2,1:2:0:0:
436,58,36884,1,2,1:2:0:0:
426,164,37000,6,0,B|420:207|420:207|429:256,1,90.0000034332277,2|0,1:3|0:0,0:0:0:0:
431,53,37233,2,0,B|437:96|437:96|428:145,1,90.0000034332277,2|8,1:2|0:1,0:0:0:0:
314,84,37465,5,2,1:2:0:0:
314,84,37582,1,2,1:2:0:0:
272,196,37698,6,0,L|288:320,1,120,2|2,1:3|0:0,0:0:0:0:
185,358,38047,2,0,L|169:234,1,120,8|0,1:0|0:0,0:0:0:0:
149,114,38396,1,2,1:3:0:0:
145,91,38628,5,2,1:3:0:0:
169,238,38744,1,8,1:0:0:0:
173,259,39093,6,0,P|230:307|164:354,1,174.000005310059,2|0,1:3|0:0,0:0:0:0:
258,312,39442,2,0,B|301:295|333:313|333:313|356:304|356:304|390:319|433:304,1,174.000005310059,8|0,1:0|0:0,0:0:0:0:
473,192,39791,6,0,L|481:110,2,71.9999978027344,2|2|2,1:3|0:0|0:0,0:0:0:0:
385,156,40140,2,0,L|393:74,2,71.9999978027344,8|2|2,1:0|0:0|0:0,0:0:0:0:
297,120,40489,6,0,L|305:38,2,71.9999978027344,2|2|2,1:3|0:0|0:0,0:0:0:0:
209,84,40837,2,0,L|217:2,2,71.9999978027344,8|2|2,1:0|0:0|0:0,0:0:0:0:
196,177,41186,6,0,P|157:188|115:188,1,71.9999978027344,2|2,1:3|0:0,0:0:0:0:
31,189,41419,1,2,1:3:0:0:
205,260,41535,6,0,P|166:271|124:271,1,71.9999978027344,8|2,1:0|0:0,0:0:0:0:
40,272,41768,1,2,0:0:0:0:
214,343,41884,5,2,1:3:0:0:
214,343,42000,2,0,L|304:334,1,71.9999978027344,0|0,0:0|0:0,0:0:0:0:
205,260,42233,5,8,1:0:0:0:
205,260,42349,2,0,L|295:251,1,71.9999978027344,2|2,0:0|0:0,0:0:0:0:
196,177,42582,5,2,1:3:0:0:
196,177,42698,2,0,L|286:168,1,71.9999978027344,0|0,0:0|0:0,0:0:0:0:
187,94,42930,5,8,1:0:0:0:
187,94,43046,2,0,L|277:85,1,71.9999978027344,2|2,0:0|0:0,0:0:0:0:
390,74,43279,5,8,1:0:0:0:
465,169,43396,1,8,1:0:0:0:
347,181,43512,1,2,1:3:0:0:
387,58,43628,5,8,1:0:0:0:
482,186,43745,1,8,1:0:0:0:
335,198,43861,1,2,1:3:0:0:
481,81,43977,5,2,1:3:0:0:
493,73,44326,5,8,0:3:0:0:
329,216,44442,1,8,0:3:0:0:
502,211,44558,1,8,0:3:0:0:
379,40,44675,6,0,P|307:40|221:88,1,167.999994873047,4|0,0:0|0:0,0:0:0:0:
366,163,45024,2,0,P|315:112|220:85,1,167.999994873047,8|0,1:0|0:0,0:0:0:0:
238,227,45372,5,2,1:3:0:0:
247,251,45489,1,2,0:0:0:0:
256,275,45605,1,2,0:0:0:0:
204,352,45721,5,8,1:0:0:0:
171,347,45838,1,2,0:0:0:0:
138,343,45954,1,2,0:0:0:0:
96,263,46070,5,2,1:3:0:0:
109,223,46186,1,2,0:0:0:0:
122,183,46303,1,2,0:0:0:0:
156,85,46419,5,8,1:0:0:0:
106,82,46535,1,2,0:0:0:0:
55,78,46652,1,2,0:0:0:0:
122,183,46768,5,2,1:3:0:0:
181,186,46884,1,0,0:0:0:0:
240,190,47001,1,2,1:3:0:0:
359,115,47117,5,8,1:0:0:0:
392,192,47233,1,0,0:0:0:0:
365,271,47349,1,0,0:0:0:0:
168,267,47465,6,0,B|168:223|168:223|181:186,1,83.9999974365235,2|0,1:3|0:0,0:0:0:0:
343,267,47698,2,0,B|343:223|343:223|331:186,1,83.9999974365235,2|8,1:2|0:1,0:0:0:0:
256,340,47930,5,2,1:2:0:0:
256,340,48047,1,2,1:2:0:0:
181,186,48163,6,0,B|181:149|181:149|177:140|177:140|177:100,1,83.9999974365235,2|0,1:3|0:0,0:0:0:0:
331,186,48396,2,0,B|331:149|331:149|335:140|335:140|335:100,1,83.9999974365235,2|8,1:2|0:1,0:0:0:0:
256,44,48628,5,2,1:2:0:0:
256,44,48745,1,2,1:2:0:0:
256,208,48861,6,0,L|256:364,1,132.00000402832,0|2,0:0|0:0,0:0:0:0:
329,169,49210,2,0,P|260:126|176:181,1,180.000006866455,8|2,1:0|0:0,0:0:0:0:
256,340,49558,1,2,1:3:0:0:
256,366,49791,5,2,1:3:0:0:
256,208,49907,1,8,1:0:0:0:
256,187,50256,6,0,B|244:143|261:115|261:115|250:90|250:90|270:53|251:14,1,180.000006866455,2|0,1:3|0:0,0:0:0:0:
165,51,50605,2,0,B|153:95|170:123|170:123|159:148|159:148|179:185|160:224,1,180.000006866455,8|0,1:0|0:0,0:0:0:0:
77,188,50954,6,0,P|37:188|-1:206,2,77.9999964294435,2|2|2,1:3|0:0|0:0,0:0:0:0:
140,314,51303,2,0,P|180:314|218:296,2,77.9999964294435,8|0|0,1:0|0:0|0:0,0:0:0:0:
160,223,51651,6,0,B|160:185|160:185|171:141,2,77.9999964294435,2|2|2,1:3|0:0|0:0,0:0:0:0:
352,223,52000,2,0,B|352:185|352:185|341:141,2,77.9999964294435,8|0|0,1:0|0:0|0:0,0:0:0:0:
256,327,52349,5,2,1:3:0:0:
256,327,52465,2,0,L|256:235,1,77.9999964294435,2|0,0:0|1:3,0:0:0:0:
256,57,52698,5,8,1:0:0:0:
256,57,52814,2,0,L|256:149,1,77.9999964294435,0|0,0:0|0:0,0:0:0:0:
352,223,53047,6,0,L|438:216,2,77.9999964294435,2|2|2,1:3|0:0|0:0,0:0:0:0:
256,135,53396,2,0,L|170:142,2,77.9999964294435,8|2|2,1:0|0:0|0:0,0:0:0:0:
369,251,53744,6,0,L|455:244,2,77.9999964294435,2|2|2,1:3|0:0|0:0,0:0:0:0:
239,107,54093,2,0,L|153:114,2,77.9999964294435,8|2|2,1:0|0:0|0:0,0:0:0:0:
407,65,54442,5,8,1:0:0:0:
388,158,54558,1,8,1:0:0:0:
369,251,54675,1,2,1:3:0:0:
491,110,54791,5,8,1:0:0:0:
472,203,54907,1,8,1:0:0:0:
453,296,55024,1,2,1:3:0:0:
407,65,55140,5,2,1:3:0:0:
410,47,55721,1,2,0:3:0:0:
369,251,55837,6,0,B|332:262|332:262|235:254,1,120,2|0,0:3|0:0,0:0:0:0:
204,179,56186,2,0,B|241:168|241:168|338:176,1,120,2|0,0:0|0:0,0:0:0:0:
374,286,56535,2,0,B|337:297|337:297|240:289,1,120,2|0,0:0|0:0,0:0:0:0:
199,144,56884,1,2,0:0:0:0:
72,335,57117,6,0,L|66:208,1,120,2|0,0:0|0:0,0:0:0:0:
149,361,57465,2,0,L|143:234,1,120,2|0,0:0|0:0,0:0:0:0:
199,144,57814,5,2,0:0:0:0:
256,290,57930,1,2,0:0:0:0:
256,308,58163,5,2,0:0:0:0:
313,144,58279,1,8,1:0:0:0:
143,241,58512,5,2,0:0:0:0:
329,133,58628,6,0,P|395:110|471:137,1,143.999995605469,2|0,1:3|0:0,0:0:0:0:
399,227,58977,5,8,1:0:0:0:
401,244,59093,1,2,0:0:0:0:
404,262,59209,1,2,0:0:0:0:
319,251,59326,5,2,1:3:0:0:
321,268,59442,1,2,0:0:0:0:
324,286,59558,1,2,0:0:0:0:
239,275,59675,5,8,1:0:0:0:
241,292,59791,1,2,0:0:0:0:
244,310,59907,1,2,1:2:0:0:
159,299,60024,6,0,P|160:248|187:212,1,71.9999978027344,2|0,1:3|0:0,0:0:0:0:
208,145,60256,1,2,1:2:0:0:
267,217,60372,6,0,P|318:216|354:189,1,71.9999978027344,8|0,1:0|0:0,0:0:0:0:
420,166,60604,1,2,1:2:0:0:
289,126,60721,1,2,1:3:0:0:
309,296,60954,5,2,1:3:0:0:
289,103,61070,1,8,1:0:0:0:
169,230,61303,1,2,1:2:0:0:
169,230,61419,6,0,B|157:159|157:159|173:78,1,143.999995605469,2|0,1:3|0:0,0:0:0:0:
256,21,61768,1,8,1:0:0:0:
275,46,62000,6,0,L|370:51,1,71.9999978027344,2|2,1:2|0:3,0:0:0:0:
252,79,62349,2,0,L|347:84,1,71.9999978027344,2|8,1:2|0:1,0:0:0:0:
229,112,62698,2,0,L|324:117,1,71.9999978027344,2|2,1:2|0:3,0:0:0:0:
206,145,63047,2,0,L|301:150,1,71.9999978027344,2|8,1:2|0:1,0:0:0:0:
183,178,63396,5,2,1:2:0:0:
233,300,63512,1,2,1:3:0:0:
237,324,63744,5,2,1:3:0:0:
277,148,63861,1,8,1:0:0:0:
280,123,64210,6,0,B|346:106|346:106|431:126,1,143.999995605469,2|0,1:3|0:0,0:0:0:0:
493,192,64558,1,8,1:0:0:0:
310,204,64791,6,0,L|305:299,1,71.9999978027344,2|0,1:2|0:0,0:0:0:0:
276,194,65140,2,0,L|281:99,1,71.9999978027344,2|8,1:2|0:1,0:0:0:0:
237,199,65489,1,2,1:2:0:0:
178,270,65605,6,0,P|138:270|96:248,1,83.9999974365235,8|8,1:0|1:0,0:0:0:0:
11,200,65837,1,2,1:3:0:0:
158,179,65954,6,0,P|198:179|240:201,1,83.9999974365235,8|8,1:0|1:0,0:0:0:0:
305,272,66186,1,2,1:3:0:0:
348,92,66303,5,2,1:3:0:0:
352,75,66535,5,2,1:2:0:0:
423,206,66651,1,8,0:3:0:0:
331,191,66768,1,8,0:3:0:0:
239,176,66884,1,8,0:3:0:0:
359,59,67000,6,0,P|415:131|421:219,1,167.999994873047,4|0,1:0|0:0,0:0:0:0:
403,297,67349,2,0,P|319:282|228:299,1,167.999994873047,8|0,1:0|0:0,0:0:0:0:
158,362,67698,2,0,P|188:308|188:186,1,167.999994873047,2|0,1:3|0:0,0:0:0:0:
112,141,68047,2,0,P|196:156|287:139,1,167.999994873047,8|0,1:0|0:0,0:0:0:0:
353,104,68396,5,2,1:3:0:0:
367,269,68628,1,2,1:2:0:0:
367,269,68744,1,8,1:0:0:0:
442,140,68977,1,2,1:2:0:0:
442,140,69093,2,0,P|442:70|369:10,1,167.999994873047,2|2,1:3|1:3,0:0:0:0:
353,104,69442,1,8,1:0:0:0:
489,249,69675,1,2,1:2:0:0:
489,249,69791,6,0,B|444:262|416:251|416:251|397:263|397:263|373:249|310:263,1,167.999994873047,2|2,1:3|0:0,0:0:0:0:
257,227,70140,5,8,1:0:0:0:
237,233,70256,1,2,0:0:0:0:
217,239,70372,1,2,0:0:0:0:
153,282,70489,5,2,1:3:0:0:
133,276,70605,1,2,0:0:0:0:
113,270,70721,1,2,0:0:0:0:
58,216,70837,5,8,1:0:0:0:
38,222,70953,1,2,0:0:0:0:
18,228,71069,1,2,1:2:0:0:
90,118,71186,6,0,L|269:137,1,167.999994873047,2|2,1:3|1:2,0:0:0:0:
342,149,71535,1,8,1:0:0:0:
153,282,71768,1,2,1:2:0:0:
153,282,71884,1,2,1:3:0:0:
181,78,72117,1,2,1:3:0:0:
181,78,72233,1,8,1:0:0:0:
280,243,72465,1,2,1:2:0:0:
280,243,72582,6,0,L|374:250,1,83.9999974365235,2|0,1:3|0:0,0:0:0:0:
468,263,72814,1,2,1:2:0:0:
313,111,73163,1,2,1:2:0:0:
313,111,73279,6,0,L|219:118,1,83.9999974365235,2|0,1:3|0:0,0:0:0:0:
125,131,73511,1,2,1:2:0:0:
293,299,73861,1,2,1:2:0:0:
293,299,73977,6,0,L|300:205,1,83.9999974365235,2|0,1:3|0:0,0:0:0:0:
313,111,74209,1,2,1:2:0:0:
125,131,74558,1,2,1:2:0:0:
125,131,74674,6,0,L|118:225,1,83.9999974365235,2|0,1:3|0:0,0:0:0:0:
105,319,74906,1,2,1:3:0:0:
299,215,75256,1,2,1:2:0:0:
299,215,75372,1,2,1:3:0:0:
299,215,75896,5,2,0:2:0:0:
299,215,76070,1,2,0:2:0:0:
170,121,76593,1,2,0:0:0:0:
170,121,76768,6,0,L|178:230,1,99.0000030212403,2|2,1:3|1:3,0:0:0:0:
291,313,77117,2,0,L|298:214,1,99.0000030212403,2|2,1:3|1:3,0:0:0:0:
311,84,77465,1,2,1:3:0:0:
177,219,77640,1,2,1:3:0:0:
401,237,77814,1,8,1:0:0:0:
401,237,78163,6,0,P|452:237|515:215,1,116.999994644165,4|0,1:0|0:0,0:0:0:0:
333,347,78512,2,0,P|282:347|219:325,1,116.999994644165,8|0,1:0|0:0,0:0:0:0:
92,197,78861,5,2,1:3:0:0:
220,197,79035,1,2,1:2:0:0:
220,325,79210,1,8,1:0:0:0:
92,325,79384,1,2,1:2:0:0:
156,133,79558,5,2,1:3:0:0:
284,133,79732,1,2,1:2:0:0:
284,261,79907,1,8,1:0:0:0:
156,261,80081,1,2,1:2:0:0:
220,69,80256,5,2,1:3:0:0:
348,69,80430,1,2,1:2:0:0:
347,196,80605,1,8,1:0:0:0:
220,197,80779,1,2,1:2:0:0:
348,69,80954,6,0,P|393:138|345:197,1,166.499999364853,2|0,1:3|0:0,0:0:0:0:
220,197,81303,1,8,1:0:0:0:
220,69,81477,1,2,1:2:0:0:
347,196,81651,2,0,P|278:241|219:193,1,166.499999364853,2|0,1:3|0:0,0:0:0:0:
220,69,82000,1,8,1:0:0:0:
348,69,82175,1,2,1:2:0:0:
347,196,82349,6,0,B|358:254|358:254|342:310,1,108,2|0,1:3|0:0,0:0:0:0:
280,361,82698,6,0,P|351:351|414:361,1,130.500003982544,8|0,1:0|0:0,0:0:0:0:
481,262,83047,1,2,1:3:0:0:
347,196,83221,1,2,1:3:0:0:
480,128,83396,2,0,P|480:78|459:34,1,99.0000030212403,8|0,1:0|0:0,0:0:0:0:
347,196,83744,6,0,P|375:262|486:257,1,188.999994232178,2|0,1:3|0:0,0:0:0:0:
429,200,84093,2,0,P|445:164|482:128,1,90,8|0,1:0|0:0,0:0:0:0:
357,35,84442,5,2,1:3:0:0:
347,196,84617,1,2,1:2:0:0:
335,53,84791,1,8,1:0:0:0:
325,214,84966,1,2,1:2:0:0:
244,100,85140,5,2,1:3:0:0:
234,261,85315,1,2,1:2:0:0:
222,118,85489,1,8,1:0:0:0:
212,279,85664,1,2,1:2:0:0:
131,165,85837,5,2,1:3:0:0:
121,326,86012,1,2,1:3:0:0:
109,183,86186,1,8,1:0:0:0:
99,344,86361,1,2,1:2:0:0:
212,279,86535,6,0,L|292:284,2,71.9999978027344,2|0|0,1:3|0:0|0:0,0:0:0:0:
263,196,86884,2,0,L|343:201,2,71.9999978027344,8|0|0,1:0|0:0|0:0,0:0:0:0:
315,113,87233,2,0,L|395:118,2,71.9999978027344,2|0|0,1:3|0:0|0:0,0:0:0:0:
367,31,87582,2,0,L|447:36,2,71.9999978027344,8|0|0,1:0|0:0|0:0,0:0:0:0:
270,24,87930,5,8,1:0:0:0:
263,196,88105,1,2,1:3:0:0:
315,113,88279,1,8,1:0:0:0:
212,279,88454,1,2,1:3:0:0:
109,113,88628,1,2,1:3:0:0:
98,97,88977,5,8,0:3:0:0:
58,213,89151,1,8,0:3:0:0:
212,279,89326,6,0,P|268:268|320:233,1,107.999996704102,4|0,1:0|0:0,0:0:0:0:
156,175,89675,2,0,P|100:186|48:221,1,107.999996704102,8|0,1:0|0:0,0:0:0:0:
310,241,90024,5,2,1:3:0:0:
254,137,90198,1,2,1:2:0:0:
212,279,90372,1,8,1:0:0:0:
156,175,90546,1,2,1:2:0:0:
333,252,90721,5,2,1:3:0:0:
266,117,90895,1,2,1:2:0:0:
204,302,91069,1,8,1:0:0:0:
134,163,91243,1,2,1:2:0:0:
352,262,91419,5,2,1:3:0:0:
274,98,91593,1,2,1:3:0:0:
198,320,91767,1,8,1:0:0:0:
112,151,91941,1,2,1:2:0:0:
391,119,92117,6,0,P|471:152|391:189,1,215.999993408203,2|8,1:3|0:1,0:0:0:0:
274,98,92640,1,2,1:2:0:0:
153,191,92814,2,0,P|77:151|157:119,1,215.999993408203,2|8,1:3|0:1,0:0:0:0:
274,212,93337,1,2,1:2:0:0:
391,119,93512,6,0,B|405:175|405:175|385:233,1,108,2|0,1:3|0:0,0:0:0:0:
391,119,93861,6,0,P|455:104|514:114,1,125.999996154785,8|0,1:0|0:0,0:0:0:0:
454,280,94210,1,2,1:3:0:0:
316,174,94384,1,2,1:2:0:0:
276,328,94558,2,0,P|229:338|174:332,1,99.0000030212403,8|0,1:0|0:0,0:0:0:0:
61,272,94907,6,0,P|137:320|59:362,1,216,2|0,1:3|0:0,0:0:0:0:
61,272,95256,2,0,P|101:228|176:207,1,125.999996154785,8|0,1:0|0:0,0:0:0:0:
320,136,95605,5,2,1:3:0:0:
256,263,95779,1,2,1:2:0:0:
192,136,95954,1,8,1:0:0:0:
256,284,96128,1,2,1:2:0:0:
329,116,96303,5,2,1:3:0:0:
256,305,96477,1,2,1:2:0:0:
183,116,96651,1,8,1:0:0:0:
256,326,96826,1,2,1:2:0:0:
338,96,97000,5,2,1:3:0:0:
338,288,97175,1,2,1:2:0:0:
174,96,97349,1,8,1:0:0:0:
174,288,97524,1,2,1:2:0:0:
347,76,97698,6,0,P|380:62|432:54,2,81.0000003089905,2|0|0,1:3|0:0|0:0,0:0:0:0:
305,163,98047,2,0,L|319:242,2,81.0000003089905,8|0|0,1:0|0:0|0:0,0:0:0:0:
207,163,98396,2,0,L|193:242,2,81.0000003089905,2|0|0,1:3|0:0|0:0,0:0:0:0:
165,76,98744,2,0,P|132:62|80:54,2,81.0000003089905,8|0|0,1:0|0:0|0:0,0:0:0:0:
256,38,99093,5,12,1:0:0:0:
406,143,99268,1,2,1:3:0:0:
347,315,99442,1,8,1:0:0:0:
165,315,99617,1,2,1:3:0:0:
106,143,99791,1,2,1:3:0:0:
106,143,100489,6,0,P|122:186|175:225,1,107.999996704102,4|0,1:0|0:0,0:0:0:0:
296,248,100837,2,0,P|201:248|123:347,1,215.999993408203,8|2,1:0|0:3,0:0:0:0:
251,372,101361,1,0,0:0:0:0:
296,248,101535,2,0,B|296:192|296:192|273:127,1,107.999996704102,8|0,1:0|0:0,0:0:0:0:
195,43,101884,6,0,L|83:69,1,107.999996704102,2|0,0:3|0:0,0:0:0:0:
69,196,102233,2,0,L|297:138,1,215.999993408203,8|2,1:0|1:3,0:0:0:0:
374,54,102756,1,2,1:2:0:0:
457,152,102930,2,0,B|466:206|466:206|459:264,1,107.999996704102,8|0,1:0|0:0,0:0:0:0:
365,348,103279,6,0,B|305:336|256:348|256:348|221:314|155:298,2,215.999993408203,2|8|2,0:3|1:0|0:3,0:0:0:0:
459,258,104151,1,0,0:0:0:0:
358,175,104326,2,0,P|358:120|382:65,1,107.999996704102,8|0,1:0|0:0,0:0:0:0:
484,145,104675,6,0,L|250:112,2,215.999993408203,2|8|2,0:3|1:0|1:3,0:0:0:0:
395,30,105547,1,2,1:3:0:0:
329,214,105721,2,0,P|316:268|325:326,1,107.999996704102,8|0,1:0|0:0,0:0:0:0:
444,274,106070,6,0,B|444:204|444:204|493:130,1,141.749995674133,2|0,0:3|0:0,0:0:0:0:
432,87,106419,6,0,B|369:178|369:178|267:216,1,215.999993408203,8|2,1:0|0:3,0:0:0:0:
144,233,106942,1,0,0:0:0:0:
219,126,107117,2,0,P|251:154|270:224,1,107.999996704102,8|0,1:0|0:0,0:0:0:0:
144,233,107465,6,0,P|112:205|93:135,1,107.999996704102,2|0,0:3|0:0,0:0:0:0:
175,44,107814,2,0,B|241:45|281:65|281:65|318:46|388:45,1,215.999993408203,8|2,1:0|1:3,0:0:0:0:
477,136,108337,1,2,1:3:0:0:
385,227,108512,2,0,B|377:282|377:282|377:340,1,107.999996704102,8|0,1:0|0:0,0:0:0:0:
466,238,108861,6,0,P|444:171|312:189,1,215.999993408203,2|8,0:3|1:0,0:0:0:0:
385,227,109384,1,0,0:0:0:0:
280,303,109558,2,0,P|224:303|164:279,1,107.999996704102,2|0,0:3|0:0,0:0:0:0:
214,161,109907,2,0,P|270:161|330:185,1,107.999996704102,8|0,1:0|0:0,0:0:0:0:
466,238,110256,5,8,1:0:0:0:
411,97,110430,1,2,1:3:0:0:
437,273,110605,1,8,1:0:0:0:
318,178,110779,1,2,1:3:0:0:
415,304,110954,1,2,1:3:0:0:
415,304,111651,6,0,P|362:319|303:311,1,107.999996704102,4|0,1:0|0:0,0:0:0:0:
210,270,112000,2,0,P|156:264|105:279,1,107.999996704102,8|0,0:1|0:0,0:0:0:0:
28,202,112349,1,2,0:3:0:0:
28,202,112524,1,0,0:0:0:0:
104,125,112698,2,0,P|155:139|208:134,1,107.999996704102,8|0,0:1|0:0,0:0:0:0:
291,64,113047,6,0,P|249:150|315:248,1,215.999993408203,2|8,0:3|0:1,0:0:0:0:
355,149,113570,1,0,0:0:0:0:
291,64,113744,1,2,0:3:0:0:
392,25,113919,1,2,0:3:0:0:
291,64,114093,2,0,P|235:73|183:64,1,107.999996704102,8|0,0:1|0:0,0:0:0:0:
81,31,114442,6,0,L|97:254,1,215.999993408203,2|8,0:3|0:1,0:0:0:0:
55,346,114965,1,0,0:0:0:0:
159,317,115140,2,0,P|213:317|265:336,1,107.999996704102,2|0,0:3|0:0,0:0:0:0:
371,335,115489,2,0,P|421:316|475:316,1,107.999996704102,8|0,0:1|0:0,0:0:0:0:
319,259,115837,6,0,B|265:160|363:153|313:36,1,215.999993408203,2|8,0:3|0:1,0:0:0:0:
220,97,116361,1,0,0:0:0:0:
409,201,116535,2,0,P|450:172|480:111,1,107.999996704102,2|0,0:3|0:0,0:0:0:0:
220,97,116884,2,0,P|179:126|149:187,1,107.999996704102,8|0,0:1|0:0,0:0:0:0:
105,339,117233,6,0,B|78:308|78:308|146:324|212:309|212:309|182:348,1,216,2|0,0:3|0:0,0:0:0:0:
243,234,117582,6,0,P|279:265|284:345,1,107.999996704102,8|0,0:1|0:0,0:0:0:0:
151,175,117930,2,0,P|160:122|199:86,1,107.999996704102,2|0,0:3|0:0,0:0:0:0:
313,79,118279,1,8,0:1:0:0:
237,164,118454,1,0,0:0:0:0:
418,205,118628,6,0,P|424:262|417:311,1,107.999996704102,2|0,0:3|0:0,0:0:0:0:
236,271,118977,2,0,P|230:214|237:165,1,107.999996704102,8|0,0:1|0:0,0:0:0:0:
301,332,119326,2,0,P|251:357|191:348,1,107.999996704102,0|0,0:0|0:0,0:0:0:0:
136,184,119675,2,0,P|186:159|246:168,1,107.999996704102,8|0,1:0|0:0,0:0:0:0:
61,261,120024,6,0,P|32:217|37:154,1,107.999996704102,2|0,0:3|0:0,0:0:0:0:
236,163,120372,2,0,P|237:216|208:260,1,107.999996704102,8|0,0:1|0:0,0:0:0:0:
136,184,120721,1,2,0:3:0:0:
136,184,120896,1,0,0:0:0:0:
174,71,121070,1,8,0:1:0:0:
174,71,121244,1,0,0:0:0:0:
208,260,121419,5,8,0:3:0:0:
256,192,121506,12,4,122814,1:0:0:0:
256,192,122901,12,4,133977,1:0:0:0:
