osu file format v14

[General]
AudioFilename: audio.mp3
AudioLeadIn: 0
PreviewTime: 24
Countdown: 0
SampleSet: Soft
StackLeniency: 0.2
Mode: 0
LetterboxInBreaks: 0
WidescreenStoryboard: 0

[Editor]
DistanceSpacing: 0.1
BeatDivisor: 4
GridSize: 8
TimelineZoom: 1.3

[Metadata]
Title:Outbreak
TitleUnicode:Outbreak
Artist:Mediks
ArtistUnicode:Mediks
Creator:Strategas
Version:Doomsday
Source:
Tags:ep dnb zombie pishifat cbh DeRandom Otaku Arrival Come[Back]Home Yamicchi 2012
BeatmapID:1118311
BeatmapSetID:527082

[Difficulty]
HPDrainRate:5
CircleSize:3
OverallDifficulty:9
ApproachRate:10
SliderMultiplier:2
SliderTickRate:1

[Events]
//Background and Video events
0,0,"hospital.jpg",0,0
//Break Periods
//Storyboard Layer 0 (Background)
//Storyboard Layer 1 (Fail)
//Storyboard Layer 2 (Pass)
//Storyboard Layer 3 (Foreground)
//Storyboard Sound Samples

[TimingPoints]
24,348.837209302326,4,2,25,25,1,0
20256,-100,4,2,25,30,0,0
20954,-100,4,2,25,35,0,0
21651,-100,4,2,25,40,0,0
22000,-100,4,2,25,5,0,0
22349,-133.333333333333,4,2,25,50,0,0
30721,-133.333333333333,4,2,25,60,0,0
33163,-133.333333333333,4,2,25,80,0,0
33512,-100,4,2,25,70,0,0
33861,-66.6666666666667,4,2,25,80,0,0
34210,-100,4,2,25,70,0,0
36303,-50,4,2,25,90,0,0
36826,-50,4,2,25,5,0,0
36884,-50,4,2,25,90,0,0
36942,-50,4,2,25,5,0,0
37000,-50,4,2,25,90,0,0
37524,-50,4,2,25,5,0,0
37582,-50,4,2,25,90,0,0
37640,-50,4,2,25,5,0,0
37698,-200,4,2,25,70,0,0
38047,-66.6666666666667,4,2,25,80,0,0
39791,-100,4,2,25,70,0,0
42582,-80,4,2,25,75,0,0
43279,-80,4,2,25,90,0,0
44326,-200,4,2,25,50,0,0
44675,-100,4,2,25,70,0,0
45024,-66.6666666666667,4,2,25,70,0,0
45372,-100,4,2,25,70,0,0
47465,-200,4,2,25,70,0,0
47989,-200,4,2,25,5,0,0
48047,-200,4,2,25,70,0,0
48105,-200,4,2,25,5,0,0
48163,-200,4,2,25,70,0,0
48628,-200,4,2,25,70,0,0
48686,-200,4,2,25,5,0,0
48744,-200,4,2,25,70,0,0
48803,-200,4,2,25,5,0,0
48861,-200,4,2,25,70,0,0
49210,-66.6666666666667,4,2,25,80,0,0
50954,-100,4,2,25,70,0,0
61419,-66.6666666666667,4,2,25,80,0,0
61768,-50,4,2,25,80,0,0
61884,-50,4,2,25,70,0,0
64210,-66.6666666666667,4,2,25,70,0,0
64559,-50,4,2,25,70,0,0
67000,-100,4,2,25,70,0,0
73977,-66.6666666666667,4,2,25,80,0,0
75372,-50,4,2,25,50,0,0
75983,-50,4,2,25,5,0,0
76070,-50,4,2,25,50,0,0
76768,-100,4,2,25,60,0,0
80954,-50,4,2,25,70,0,0
81564,-50,4,2,25,5,0,0
81651,-50,4,2,25,70,0,0
82262,-50,4,2,25,5,0,0
82349,-100,4,2,25,60,0,0
82611,-100,4,2,25,5,0,0
82698,-66.6666666666667,4,2,25,70,0,0
86535,-100,4,2,25,60,0,0
92117,-200,4,2,25,50,0,0
93861,-100,4,2,25,60,0,0
94907,-66.6666666666667,4,2,25,60,0,0
97698,-100,4,2,25,60,0,0
100140,-100,4,2,25,40,0,0
100489,-100,4,2,25,50,0,0
106419,-66.6666666666667,4,2,25,65,0,0
106593,-100,4,2,25,50,0,0
117582,-66.6666666666667,4,2,25,65,0,0
117756,-100,4,2,25,50,0,0

[Colours]
Combo1 : 188,198,6
Combo2 : 155,40,61
Combo3 : 44,57,180

[HitObjects]
256,192,19558,12,0,22000,0:0:0:0:
114,92,22349,6,0,L|293:73,1,150.000005722046,4|0,0:0|0:0,0:0:0:0:
249,308,23047,2,0,L|70:327,1,150.000005722046,2|0,0:0|0:0,0:0:0:0:
358,149,23744,2,0,L|537:130,1,150.000005722046,2|0,0:0|0:0,0:0:0:0:
493,365,24442,2,0,L|314:384,1,150.000005722046,2|0,0:0|0:0,0:0:0:0:
145,179,25140,6,0,L|160:29,1,150.000005722046,2|0,0:0|0:0,0:0:0:0:
397,167,25837,2,0,L|412:17,1,150.000005722046,2|0,0:0|0:0,0:0:0:0:
19,185,26535,2,0,L|34:35,1,150.000005722046,2|0,0:0|0:0,0:0:0:0:
271,173,27233,2,0,L|286:23,1,150.000005722046,2|0,0:0|0:0,0:0:0:0:
181,233,27930,6,0,P|142:240|84:229,1,75.0000028610231,6|0,0:0|0:0,0:0:0:0:
351,246,28279,2,0,P|390:253|448:242,1,75.0000028610231,2|0,0:3|0:0,0:0:0:0:
183,344,28628,2,0,P|144:351|86:340,1,75.0000028610231,2|0,0:3|0:0,0:0:0:0:
353,354,28977,2,0,P|392:361|450:350,1,75.0000028610231,2|0,0:3|0:0,0:0:0:0:
396,145,29326,5,2,0:3:0:0:
396,145,29500,1,0,0:0:0:0:
181,233,29675,1,2,0:3:0:0:
181,233,29849,1,0,0:0:0:0:
93,18,30024,1,2,0:3:0:0:
93,18,30198,1,0,0:0:0:0:
181,233,30373,1,2,0:3:0:0:
181,233,30547,1,0,0:0:0:0:
363,96,30721,5,2,0:3:0:0:
416,177,30837,1,2,0:3:0:0:
320,183,30954,1,2,0:3:0:0:
361,74,31070,5,2,0:3:0:0:
435,186,31186,1,2,0:3:0:0:
301,195,31303,1,2,0:3:0:0:
359,52,31419,5,2,0:3:0:0:
454,195,31535,1,2,0:3:0:0:
282,207,31651,1,2,0:3:0:0:
357,30,31768,5,2,0:3:0:0:
473,204,31884,1,2,0:3:0:0:
263,219,32000,1,2,0:3:0:0:
355,8,32117,5,2,0:3:0:0:
377,287,32233,1,2,0:3:0:0:
383,300,32465,5,2,0:3:0:0:
389,313,32698,5,2,0:3:0:0:
473,24,32814,1,2,0:3:0:0:
479,11,33047,5,2,0:3:0:0:
69,86,33163,1,8,1:0:0:0:
69,86,33512,6,0,B|62:154|62:154|134:220,1,133.333333333333,4|0,0:0|0:0,0:0:0:0:
233,71,33861,6,0,P|133:117|118:232,1,200.000007629395,8|0,1:0|0:0,0:0:0:0:
227,192,34210,6,0,L|302:186,2,66.6666666666667,2|0|0,1:3|0:0|0:0,0:0:0:0:
109,197,34558,5,8,1:0:0:0:
95,195,34674,1,2,0:0:0:0:
81,193,34790,1,2,0:0:0:0:
226,312,34907,6,0,L|301:306,2,66.6666666666667,2|0|0,1:3|0:0|0:0,0:0:0:0:
107,317,35256,5,8,1:0:0:0:
93,315,35372,1,2,0:0:0:0:
79,313,35488,1,2,0:0:0:0:
227,192,35605,6,0,L|302:186,1,66.6666666666667,2|0,1:3|0:0,0:0:0:0:
29,157,35837,1,2,1:3:0:0:
109,197,35954,5,8,1:0:0:0:
106,111,36070,1,2,0:0:0:0:
103,25,36186,1,2,0:0:0:0:
313,61,36303,6,0,P|239:76|180:64,1,133.333333333333,2|0,1:3|0:0,0:0:0:0:
277,340,36535,2,0,P|341:354|407:343,1,133.333333333333,2|8,1:2|0:1,0:0:0:0:
144,321,36768,6,0,L|78:330,1,66.6666666666667,2|0,1:2|0:0,0:0:0:0:
12,339,36884,2,0,L|78:330,1,66.6666666666667,2|0,1:2|0:0,0:0:0:0:
277,340,37000,6,0,L|145:322,1,133.333333333333,2|0,1:3|0:0,0:0:0:0:
103,25,37233,2,0,L|235:43,1,133.333333333333,2|8,1:2|0:1,0:0:0:0:
367,25,37465,6,0,L|301:34,1,66.6666666666667,2|0,1:2|0:0,0:0:0:0:
235,43,37581,2,0,L|301:34,1,66.6666666666667,2|0,1:2|0:0,0:0:0:0:
512,85,37698,6,0,L|446:74,1,66.6666666666667,2|2,1:3|0:0,0:0:0:0:
438,266,38047,6,0,B|470:180|470:180|444:66,1,200.000007629395,8|0,1:0|0:0,0:0:0:0:
367,61,38396,1,2,1:3:0:0:
348,68,38628,5,2,1:3:0:0:
402,367,38744,1,8,1:0:0:0:
24,193,39093,6,0,B|13:277|68:307|68:307|95:270|81:218,1,200.000007629395,2|0,1:3|0:0,0:0:0:0:
166,109,39442,2,0,P|80:147|85:242,1,200.000007629395,8|0,1:0|0:0,0:0:0:0:
152,192,39791,5,2,1:3:0:0:
163,195,39907,1,2,0:0:0:0:
174,198,40024,1,2,0:0:0:0:
256,173,40140,5,8,1:0:0:0:
267,176,40256,1,2,0:0:0:0:
278,179,40373,1,2,0:0:0:0:
336,262,40489,5,2,1:3:0:0:
325,259,40606,1,2,0:0:0:0:
314,256,40722,1,2,0:0:0:0:
232,279,40837,5,8,1:0:0:0:
221,276,40953,1,2,0:0:0:0:
210,273,41070,1,2,0:0:0:0:
108,183,41186,6,0,L|174:198,1,66.6666666666667,2|2,1:3|0:0,0:0:0:0:
290,341,41419,1,2,1:3:0:0:
203,359,41535,5,8,1:0:0:0:
221,276,41651,1,2,0:0:0:0:
261,203,41768,1,2,0:0:0:0:
338,163,41884,6,0,L|411:178,2,66.6666666666667,2|0|0,1:3|0:0|0:0,0:0:0:0:
206,126,42233,5,8,1:0:0:0:
173,119,42349,1,2,0:0:0:0:
140,112,42465,1,2,0:0:0:0:
367,78,42582,6,0,L|454:96,2,83.3333333333333,2|0|0,1:3|0:0|0:0,0:0:0:0:
237,45,42930,5,8,1:0:0:0:
196,37,43046,1,2,0:0:0:0:
156,29,43162,1,2,0:0:0:0:
338,163,43279,5,8,1:0:0:0:
163,293,43396,1,8,1:0:0:0:
156,29,43512,1,2,1:3:0:0:
326,335,43628,5,8,1:0:0:0:
4,333,43744,1,8,1:0:0:0:
237,45,43861,1,2,1:3:0:0:
160,384,43977,5,2,1:3:0:0:
160,384,44326,5,8,0:3:0:0:
163,367,44442,1,8,0:3:0:0:
161,351,44558,1,8,0:3:0:0:
154,336,44675,6,0,P|215:303|303:323,1,133.333333333333,4|0,0:0|0:0,0:0:0:0:
268,318,45024,6,0,P|254:223|324:157,1,200.000007629395,8|0,1:0|0:0,0:0:0:0:
388,241,45372,5,2,1:3:0:0:
371,251,45488,1,2,0:0:0:0:
353,259,45605,1,2,0:0:0:0:
266,227,45721,5,8,1:0:0:0:
249,217,45837,1,2,0:0:0:0:
231,209,45954,1,2,0:0:0:0:
163,270,46070,5,2,1:3:0:0:
146,280,46186,1,2,0:0:0:0:
128,288,46303,1,2,0:0:0:0:
41,256,46419,5,8,1:0:0:0:
24,246,46535,1,2,0:0:0:0:
6,238,46652,1,2,0:0:0:0:
111,193,46768,6,0,P|110:156|96:121,1,66.6666666666667,2|0,1:3|0:0,0:0:0:0:
12,13,47000,1,2,1:3:0:0:
6,25,47117,6,0,P|7:62|21:97,2,66.6666666666667,8|0|0,1:0|0:0|0:0,0:0:0:0:
166,58,47465,6,0,L|218:54,1,33.3333333333333,2|0,1:3|0:0,0:0:0:0:
330,42,47698,2,0,L|296:44,1,33.3333333333333,2|8,1:2|0:1,0:0:0:0:
178,146,47930,6,0,L|194:144,1,16.6666666666667,2|0,1:2|0:0,0:0:0:0:
325,130,48047,2,0,L|308:131,1,16.6666666666667,2|0,1:2|0:0,0:0:0:0:
185,235,48163,6,0,L|237:231,1,33.3333333333333,2|0,1:3|0:0,0:0:0:0:
349,219,48396,2,0,L|315:221,1,33.3333333333333,2|8,1:2|0:1,0:0:0:0:
197,323,48628,6,0,L|213:321,1,16.6666666666667,2|0,1:2|0:0,0:0:0:0:
344,308,48745,2,0,L|327:309,1,16.6666666666667,2|0,1:2|0:0,0:0:0:0:
427,145,48861,6,0,P|431:112|422:66,1,66.6666666666667,0|2,0:0|0:0,0:0:0:0:
269,84,49210,6,0,P|348:134|425:81,1,200.000007629395,8|2,1:0|0:0,0:0:0:0:
346,50,49558,1,2,1:3:0:0:
346,50,49791,5,2,1:3:0:0:
500,226,49907,1,8,1:0:0:0:
108,333,50256,6,0,B|85:262|129:210|129:210|90:221|49:215,1,200.000007629395,2|0,1:3|0:0,0:0:0:0:
3,111,50605,2,0,P|99:129|178:74,1,200.000007629395,8|0,1:0|0:0,0:0:0:0:
208,172,50954,5,2,1:3:0:0:
225,175,51070,1,2,0:0:0:0:
241,173,51186,1,2,0:0:0:0:
256,166,51303,2,0,P|290:132|301:86,2,66.6666666666667,8|0|0,1:0|0:0|0:0,0:0:0:0:
244,262,51651,5,2,1:3:0:0:
241,279,51767,1,2,0:0:0:0:
243,295,51883,1,2,0:0:0:0:
250,310,52000,2,0,P|284:344|330:355,2,66.6666666666667,8|0|0,1:0|0:0|0:0,0:0:0:0:
174,198,52349,5,2,1:3:0:0:
157,195,52465,1,2,0:0:0:0:
87,241,52581,1,0,1:3:0:0:
107,321,52698,2,0,P|140:304|161:278,2,66.6666666666667,8|0|0,1:0|0:0|0:0,0:0:0:0:
62,105,53047,5,2,1:3:0:0:
74,100,53163,1,2,0:0:0:0:
86,96,53279,1,2,0:0:0:0:
169,112,53396,5,8,1:0:0:0:
181,108,53512,1,2,0:0:0:0:
193,103,53628,1,2,0:0:0:0:
248,43,53744,5,2,1:3:0:0:
260,38,53860,1,2,0:0:0:0:
272,34,53976,1,2,0:0:0:0:
355,50,54093,5,8,1:0:0:0:
367,46,54209,1,2,0:0:0:0:
379,41,54325,1,2,0:0:0:0:
450,221,54442,5,8,1:0:0:0:
182,278,54558,1,8,1:0:0:0:
272,34,54675,1,2,1:3:0:0:
419,305,54791,5,8,1:0:0:0:
106,323,54907,1,8,1:0:0:0:
189,7,55024,1,2,1:3:0:0:
257,325,55140,5,2,1:3:0:0:
257,325,55721,1,2,0:3:0:0:
187,143,55837,6,0,B|250:124|250:124|346:133,1,133.333333333333,2|0,0:3|0:0,0:0:0:0:
512,199,56186,2,0,B|449:218|449:218|381:211,1,133.333333333333,2|0,0:0|0:0,0:0:0:0:
304,0,56535,2,0,B|323:63|323:63|314:159,1,133.333333333333,2|0,0:0|0:0,0:0:0:0:
291,260,56884,1,2,0:0:0:0:
218,75,57117,6,0,P|148:68|95:101,1,133.333333333333,2|0,0:0|0:0,0:0:0:0:
197,291,57465,2,0,P|205:225|172:169,1,133.333333333333,2|0,0:0|0:0,0:0:0:0:
108,347,57814,5,2,0:0:0:0:
310,237,57930,1,2,0:0:0:0:
318,232,58163,5,2,0:0:0:0:
13,162,58279,1,8,1:0:0:0:
21,154,58512,5,2,0:0:0:0:
382,41,58628,6,0,L|405:173,1,133.333333333333,2|0,1:3|0:0,0:0:0:0:
318,232,58977,5,8,1:0:0:0:
298,228,59093,1,2,0:0:0:0:
277,229,59210,1,2,0:0:0:0:
204,284,59326,5,2,1:3:0:0:
183,285,59443,1,2,0:0:0:0:
163,281,59559,1,2,0:0:0:0:
106,212,59675,5,8,1:0:0:0:
86,208,59791,1,2,0:0:0:0:
0,224,59908,1,2,1:2:0:0:
75,271,60024,6,0,P|88:240|86:208,1,66.6666666666667,2|0,1:3|0:0,0:0:0:0:
37,18,60256,1,2,1:2:0:0:
126,12,60372,2,0,P|121:44|103:75,1,66.6666666666667,8|0,1:0|0:0,0:0:0:0:
15,132,60605,1,2,1:2:0:0:
307,157,60721,1,2,1:3:0:0:
294,156,60954,5,2,1:3:0:0:
0,129,61070,1,8,1:0:0:0:
366,69,61303,1,2,1:2:0:0:
369,241,61419,6,0,P|411:154|366:69,1,200.000007629395,2|0,1:3|0:0,0:0:0:0:
366,69,61768,6,0,P|339:110|239:95,1,133.333333333333,8|0,1:0|0:0,0:0:0:0:
260,114,62000,6,0,L|116:133,1,133.333333333333,2|2,1:2|0:3,0:0:0:0:
229,98,62349,2,0,L|85:117,1,133.333333333333,2|8,1:2|0:1,0:0:0:0:
198,82,62698,2,0,L|54:101,1,133.333333333333,2|2,1:2|0:3,0:0:0:0:
167,66,63047,2,0,L|23:85,1,133.333333333333,2|8,1:2|0:1,0:0:0:0:
136,50,63396,5,2,1:2:0:0:
410,14,63512,1,2,1:3:0:0:
106,150,63744,5,2,1:3:0:0:
450,110,63860,1,8,1:0:0:0:
106,149,64210,6,0,B|182:168|182:168|214:223|214:223|158:212,1,200.000007629395,2|0,1:3|0:0,0:0:0:0:
122,45,64558,6,0,L|219:69,1,100.000003814697,8|0,1:0|0:0,0:0:0:0:
219,69,64791,6,0,P|293:58|352:91,1,133.333333333333,2|0,1:2|0:0,0:0:0:0:
468,95,65140,2,0,P|408:69|344:82,1,133.333333333333,2|8,1:2|0:1,0:0:0:0:
34,343,65489,1,2,1:2:0:0:
345,224,65605,5,8,1:0:0:0:
50,338,65721,1,8,1:0:0:0:
331,229,65837,1,2,1:3:0:0:
16,164,65954,5,8,1:0:0:0:
317,234,66070,1,8,1:0:0:0:
0,159,66186,1,2,1:3:0:0:
475,97,66303,5,2,1:3:0:0:
489,91,66535,5,2,1:2:0:0:
82,42,66651,5,8,0:3:0:0:
118,141,66768,1,8,0:3:0:0:
184,60,66884,1,8,0:3:0:0:
17,130,67000,6,0,B|23:197|23:197|86:256,1,133.333333333333,4|0,1:0|0:0,0:0:0:0:
82,42,67349,2,0,L|17:32,2,66.6666666666667,8|0|0,1:0|0:0|0:0,0:0:0:0:
249,149,67698,2,0,B|242:216|242:216|180:275,1,133.333333333333,2|0,1:3|0:0,0:0:0:0:
184,60,68047,2,0,L|249:49,2,66.6666666666667,8|0|0,1:0|0:0|0:0,0:0:0:0:
342,99,68396,5,2,1:3:0:0:
355,103,68628,5,2,1:2:0:0:
109,133,68744,1,8,1:0:0:0:
96,135,68977,5,2,1:2:0:0:
413,191,69093,1,2,1:3:0:0:
426,194,69326,5,2,1:3:0:0:
50,231,69442,1,8,1:0:0:0:
249,38,69675,5,2,1:2:0:0:
292,154,69791,2,0,P|251:103|249:37,1,133.333333333333,2|2,1:3|0:0,0:0:0:0:
449,95,70140,5,8,1:0:0:0:
349,67,70256,1,2,0:0:0:0:
449,95,70372,1,2,0:0:0:0:
192,183,70489,5,2,1:3:0:0:
292,154,70605,1,2,0:0:0:0:
192,183,70721,1,2,0:0:0:0:
480,238,70837,5,8,1:0:0:0:
379,210,70954,1,2,0:0:0:0:
480,238,71069,1,2,1:2:0:0:
307,286,71186,5,2,1:3:0:0:
295,291,71419,5,2,1:2:0:0:
349,67,71535,1,8,1:0:0:0:
354,55,71768,5,2,1:2:0:0:
368,370,71884,1,2,1:3:0:0:
369,383,72117,5,2,1:3:0:0:
155,215,72233,1,8,1:0:0:0:
145,209,72465,5,2,1:2:0:0:
436,121,72582,6,0,L|425:190,1,66.6666666666667,2|0,1:3|0:0,0:0:0:0:
319,288,72814,2,0,L|330:223,1,66.6666666666667,2|8,1:2|0:1,0:0:0:0:
372,39,73163,1,2,1:2:0:0:
205,156,73279,6,0,L|270:145,1,66.6666666666667,2|0,1:3|0:0,0:0:0:0:
372,39,73511,2,0,L|307:50,1,66.6666666666667,2|8,1:2|0:1,0:0:0:0:
439,120,73861,1,2,1:2:0:0:
320,367,73977,6,0,L|334:268,1,100.000003814697,2|0,1:3|0:0,0:0:0:0:
439,120,74210,2,0,L|425:219,1,100.000003814697,2|8,1:2|0:1,0:0:0:0:
372,39,74558,1,2,1:2:0:0:
125,157,74675,6,0,L|224:143,1,100.000003814697,2|0,1:3|0:0,0:0:0:0:
372,39,74908,2,0,L|272:52,1,100.000003814697,2|8,1:3|0:1,0:0:0:0:
65,70,75256,1,2,1:2:0:0:
439,120,75372,6,0,L|427:219,1,100,2|0,1:3|0:0,0:0:0:0:
386,331,75896,2,0,L|398:232,1,100,2|0,0:2|0:0,0:0:0:0:
414,318,76070,2,0,L|426:219,1,100,2|0,0:2|0:0,0:0:0:0:
410,132,76593,2,0,L|398:231,1,100,2|0,0:0|0:0,0:0:0:0:
386,331,76768,5,2,1:3:0:0:
419,34,76942,1,2,1:3:0:0:
256,320,77117,5,2,1:3:0:0:
256,56,77291,1,2,1:3:0:0:
126,331,77465,5,2,1:3:0:0:
92,34,77639,1,2,1:3:0:0:
488,200,77814,5,8,1:0:0:0:
488,200,78163,6,0,B|493:148|493:148|475:85,1,100,4|0,1:0|0:0,0:0:0:0:
302,288,78512,2,0,B|354:293|354:293|400:280,1,100,8|0,1:0|0:0,0:0:0:0:
215,206,78861,5,2,1:3:0:0:
196,346,79035,1,2,1:2:0:0:
130,121,79210,1,8,1:0:0:0:
110,262,79384,1,2,1:2:0:0:
301,124,79558,5,2,1:3:0:0:
320,264,79732,1,2,1:2:0:0:
386,39,79907,1,8,1:0:0:0:
406,180,80081,1,2,1:2:0:0:
184,98,80256,5,2,1:3:0:0:
165,238,80430,1,2,1:2:0:0:
99,13,80605,1,8,1:0:0:0:
79,154,80779,1,2,1:2:0:0:
269,182,80954,6,0,B|361:190|361:190|473:172,1,200,2|0,1:3|0:0,0:0:0:0:
467,172,81303,1,8,1:0:0:0:
153,36,81477,2,0,B|144:89|144:89|148:135,1,100,2|0,1:2|0:0,0:0:0:0:
252,287,81651,2,0,B|269:180|269:180|261:88,1,200,2|0,1:3|0:0,0:0:0:0:
261,88,82000,1,8,1:0:0:0:
64,363,82175,2,0,B|118:372|118:372|164:368,1,100,2|0,1:2|0:0,0:0:0:0:
251,287,82349,6,0,P|181:299|164:368,1,150,2|0,1:3|0:0,0:0:0:0:
251,287,82698,6,0,P|225:199|151:186,1,150.000005722046,8|0,1:0|0:0,0:0:0:0:
0,232,83047,1,2,1:3:0:0:
164,368,83221,1,2,1:3:0:0:
245,84,83396,2,0,P|173:66|102:88,1,150.000005722046,8|0,1:0|0:0,0:0:0:0:
245,84,83744,6,0,P|306:146|190:169,1,225.000008583069,2|0,1:3|0:0,0:0:0:0:
245,84,84093,2,0,P|337:107|377:197,1,150.000005722046,8|0,1:0|0:0,0:0:0:0:
187,348,84442,5,2,1:3:0:0:
129,108,84617,1,2,1:2:0:0:
325,348,84791,1,8,1:0:0:0:
383,108,84966,1,2,1:2:0:0:
200,316,85140,5,2,1:3:0:0:
154,124,85315,1,2,1:2:0:0:
311,316,85489,1,8,1:0:0:0:
357,124,85664,1,2,1:2:0:0:
214,285,85837,5,2,1:3:0:0:
179,141,86012,1,2,1:3:0:0:
297,285,86186,1,8,1:0:0:0:
332,141,86361,1,2,1:2:0:0:
88,241,86535,6,0,L|76:310,2,66.6666666666667,2|0|0,1:3|0:0|0:0,0:0:0:0:
297,285,86884,2,0,L|309:354,2,66.6666666666667,8|0|0,1:0|0:0|0:0,0:0:0:0:
193,289,87233,2,0,L|181:358,2,66.6666666666667,2|0|0,1:3|0:0|0:0,0:0:0:0:
393,231,87582,2,0,L|405:300,2,66.6666666666667,8|0|0,1:0|0:0|0:0,0:0:0:0:
60,326,87930,5,8,1:0:0:0:
509,206,88105,1,2,1:3:0:0:
0,203,88279,5,8,1:0:0:0:
449,83,88454,1,2,1:3:0:0:
218,379,88628,5,2,1:3:0:0:
218,379,88977,5,8,0:3:0:0:
157,303,89151,1,8,0:3:0:0:
457,324,89326,6,0,L|438:214,1,100,4|0,1:0|0:0,0:0:0:0:
174,204,89675,2,0,L|156:302,1,100,8|0,1:0|0:0,0:0:0:0:
417,107,90024,5,2,1:3:0:0:
196,86,90198,1,2,1:2:0:0:
439,225,90372,1,8,1:0:0:0:
174,204,90546,1,2,1:2:0:0:
438,97,90721,5,2,1:3:0:0:
174,72,90895,1,2,1:2:0:0:
464,238,91069,1,8,1:0:0:0:
148,213,91243,1,2,1:2:0:0:
459,87,91419,5,2,1:3:0:0:
152,58,91593,1,2,1:3:0:0:
489,251,91768,1,8,1:0:0:0:
122,222,91942,1,2,1:2:0:0:
152,58,92117,6,0,L|269:70,1,100,2|8,1:3|0:1,0:0:0:0:
382,21,92640,2,0,L|358:19,1,25,2|0,1:2|0:0,0:0:0:0:
164,178,92814,2,0,L|281:190,1,100,2|8,1:3|0:1,0:0:0:0:
396,142,93337,2,0,L|372:140,1,25,2|0,1:2|0:0,0:0:0:0:
319,296,93512,6,0,L|393:302,1,75,2|0,1:3|0:0,0:0:0:0:
406,288,93861,6,0,L|306:279,1,100,8|0,1:0|0:0,0:0:0:0:
70,262,94210,1,2,1:3:0:0:
306,279,94384,1,2,1:2:0:0:
219,103,94558,2,0,L|119:95,1,100,8|0,1:0|0:0,0:0:0:0:
205,73,94907,6,0,B|19:58|19:58|38:90,1,225.000008583069,2|0,1:3|0:0,0:0:0:0:
280,260,95256,2,0,B|298:155|298:155|284:108,1,150.000005722046,8|0,1:0|0:0,0:0:0:0:
101,153,95605,5,2,1:3:0:0:
434,250,95779,1,2,1:2:0:0:
26,266,95954,1,8,1:0:0:0:
343,148,96128,1,2,1:2:0:0:
126,162,96303,5,2,1:3:0:0:
391,243,96477,1,2,1:2:0:0:
66,253,96652,1,8,1:0:0:0:
320,159,96826,1,2,1:2:0:0:
152,172,97000,5,2,1:3:0:0:
347,236,97174,1,2,1:2:0:0:
106,240,97349,1,8,1:0:0:0:
297,168,97523,1,2,1:2:0:0:
95,114,97698,6,0,L|74:44,2,66.6666666666667,2|0|0,1:3|0:0|0:0,0:0:0:0:
325,66,98047,2,0,L|337:-3,2,66.6666666666667,8|0|0,1:0|0:0|0:0,0:0:0:0:
187,66,98396,2,0,L|175:-3,2,66.6666666666667,2|0|0,1:3|0:0|0:0,0:0:0:0:
417,114,98744,2,0,L|438:44,2,66.6666666666667,8|0|0,1:0|0:0|0:0,0:0:0:0:
9,179,99093,5,12,1:0:0:0:
492,208,99268,1,2,1:3:0:0:
0,323,99442,5,8,1:0:0:0:
483,352,99617,1,2,1:3:0:0:
260,29,99791,5,2,1:3:0:0:
260,29,100140,2,0,L|255:137,1,100,2|0,0:2|0:0,0:0:0:0:
250,384,100489,5,4,1:0:0:0:
250,384,100837,2,0,B|298:368|298:368|371:376,1,100,8|0,1:0|0:0,0:0:0:0:
165,300,101186,2,0,B|117:284|117:284|44:292,1,100,2|0,0:3|0:0,0:0:0:0:
257,223,101535,2,0,B|305:207|305:207|378:215,1,100,8|0,1:0|0:0,0:0:0:0:
156,158,101884,6,0,B|108:142|108:142|35:150,1,100,2|0,0:3|0:0,0:0:0:0:
241,74,102233,2,0,B|289:58|289:58|362:66,1,100,8|0,1:0|0:0,0:0:0:0:
438,124,102582,1,2,1:3:0:0:
356,213,102756,1,2,1:2:0:0:
128,108,102930,2,0,B|122:58|122:58|138:10,1,100,8|0,1:0|0:0,0:0:0:0:
101,226,103279,6,0,L|1:233,1,100,2|0,0:3|0:0,0:0:0:0:
197,154,103628,2,0,L|296:161,1,100,8|0,1:0|0:0,0:0:0:0:
99,90,103977,2,0,L|0:97,1,100,2|0,0:3|0:0,0:0:0:0:
201,19,104326,2,0,L|300:26,1,100,8|0,1:0|0:0,0:0:0:0:
91,189,104675,6,0,L|98:89,1,100,2|0,0:3|0:0,0:0:0:0:
202,232,105024,2,0,L|209:331,1,100,8|0,1:0|0:0,0:0:0:0:
102,384,105372,1,2,1:3:0:0:
91,189,105547,1,2,1:3:0:0:
320,220,105721,2,0,L|327:319,1,100,8|0,1:0|0:0,0:0:0:0:
202,232,106070,6,0,B|200:176|200:176|227:129,1,100,2|0,0:3|0:0,0:0:0:0:
183,255,106419,6,0,B|180:171|180:171|220:100,1,150.000005722046,8|0,1:0|0:0,0:0:0:0:
284,319,106768,1,2,0:3:0:0:
183,255,106942,1,0,0:0:0:0:
379,247,107117,1,8,1:0:0:0:
284,319,107291,1,0,0:0:0:0:
495,266,107465,6,0,P|494:216|466:165,1,100,2|0,0:3|0:0,0:0:0:0:
266,152,107814,2,0,P|316:151|361:129,1,100,8|0,1:0|0:0,0:0:0:0:
176,78,108163,1,2,1:3:0:0:
218,261,108337,1,2,1:3:0:0:
382,11,108512,2,0,P|332:12|288:35,1,100,8|0,1:0|0:0,0:0:0:0:
349,228,108861,6,0,L|360:128,1,100,2|0,0:3|0:0,0:0:0:0:
218,261,109210,2,0,L|206:161,1,100,8|0,1:0|0:0,0:0:0:0:
97,314,109558,1,2,0:3:0:0:
204,384,109733,1,0,0:0:0:0:
206,161,109907,2,0,L|106:172,1,100,8|0,1:0|0:0,0:0:0:0:
313,332,110256,5,8,1:0:0:0:
348,113,110430,1,2,1:3:0:0:
204,384,110605,5,8,1:0:0:0:
169,165,110779,1,2,1:3:0:0:
377,230,110954,1,2,1:3:0:0:
377,230,111303,2,0,L|264:194,1,100,2|0,0:0|0:0,0:0:0:0:
54,126,111651,5,4,1:0:0:0:
54,126,112000,2,0,B|99:105|99:105|148:115,1,100,8|0,0:1|0:0,0:0:0:0:
79,337,112349,1,2,0:3:0:0:
10,239,112524,1,0,0:0:0:0:
148,115,112698,2,0,L|245:136,1,100,8|0,0:1|0:0,0:0:0:0:
313,325,113047,5,2,0:3:0:0:
313,325,113396,2,0,L|410:346,1,100,8|0,0:1|0:0,0:0:0:0:
211,384,113744,1,2,0:3:0:0:
512,283,113919,1,2,0:3:0:0:
211,384,114093,1,8,0:1:0:0:
211,384,114442,6,0,B|201:335|201:335|216:266,1,100,2|0,0:3|0:0,0:0:0:0:
417,324,114791,2,0,B|372:345|372:345|323:335,1,100,8|0,0:1|0:0,0:0:0:0:
154,175,115140,1,2,0:3:0:0:
335,162,115314,1,0,0:0:0:0:
95,283,115489,1,8,0:1:0:0:
66,94,115663,1,0,0:0:0:0:
237,283,115837,6,0,B|199:283|172:266|172:266|129:295|81:279,1,150,2|0,0:3|0:1,0:0:0:0:
112,181,116186,2,0,P|159:164|221:174,1,100,8|0,0:1|0:0,0:0:0:0:
326,343,116535,1,2,0:3:0:0:
173,383,116710,1,0,0:0:0:0:
208,168,116884,1,8,0:1:0:0:
228,281,117059,1,0,0:0:0:0:
181,61,117233,6,0,P|221:38|265:62,1,100,2|0,0:3|0:0,0:0:0:0:
283,60,117582,6,0,P|223:21|154:85,1,150.000005722046,8|0,0:1|0:0,0:0:0:0:
126,277,117930,1,2,0:3:0:0:
188,173,118105,1,0,0:0:0:0:
65,380,118279,1,8,0:1:0:0:
3,276,118454,1,0,0:0:0:0:
244,279,118628,5,2,0:3:0:0:
244,279,118977,2,0,L|380:284,1,100,8|0,0:1|0:0,0:0:0:0:
148,350,119326,1,2,0:3:0:0:
153,201,119500,1,0,0:0:0:0:
435,361,119675,1,8,0:1:0:0:
440,212,119849,1,0,0:0:0:0:
148,350,120024,6,0,P|100:361|50:361,1,100,2|0,0:3|0:0,0:0:0:0:
249,288,120372,2,0,P|264:336|261:386,1,100,8|0,0:1|0:0,0:0:0:0:
154,215,120721,1,2,0:3:0:0:
291,175,120896,1,0,0:0:0:0:
154,215,121070,1,8,0:1:0:0:
186,77,121244,1,0,0:0:0:0:
249,288,121419,5,12,1:0:0:0:
256,192,121506,12,4,122814,1:0:0:0:
256,192,123599,12,4,133977,1:0:0:0:
