osu file format v14

[General]
AudioFilename: audio.mp3
AudioLeadIn: 0
PreviewTime: 24
Countdown: 0
SampleSet: Normal
StackLeniency: 0.2
Mode: 1
LetterboxInBreaks: 0
WidescreenStoryboard: 1

[Editor]
DistanceSpacing: 0.1
BeatDivisor: 4
GridSize: 32
TimelineZoom: 3.1

[Metadata]
Title:Outbreak
TitleUnicode:Outbreak
Artist:Mediks
ArtistUnicode:Mediks
Creator:Strategas
Version:Arrival's Oni
Source:
Tags:ep dnb zombie pishifat cbh DeRandom Otaku Arrival Come[Back]Home Yamicchi 2012
BeatmapID:1222234
BeatmapSetID:527082

[Difficulty]
HPDrainRate:6
CircleSize:2
OverallDifficulty:6
ApproachRate:1
SliderMultiplier:1.3999999666214
SliderTickRate:1

[Events]
//Background and Video events
0,0,"hospital.jpg",0,0
//Break Periods
//Storyboard Layer 0 (Background)
//Storyboard Layer 1 (Fail)
//Storyboard Layer 2 (Pass)
//Storyboard Layer 3 (Foreground)
//Storyboard Sound Samples

[TimingPoints]
24,348.837209302326,4,1,0,90,1,0
19558,-117.647058823529,4,1,0,75,0,0
27930,-111.111111111111,4,1,0,80,0,0
30721,-105.263157894737,4,1,0,85,0,0
33512,-100,4,1,0,90,0,0
34210,-99.009900990099,4,1,0,90,0,0
34326,-98.0392156862745,4,1,0,90,0,0
34442,-97.0873786407767,4,1,0,90,0,0
34558,-96.1538461538461,4,1,0,90,0,0
34675,-95.2380952380952,4,1,0,90,0,0
34791,-94.3396226415094,4,1,0,90,0,0
34907,-93.4579439252336,4,1,0,90,0,0
35024,-92.5925925925926,4,1,0,90,0,0
35140,-91.743119266055,4,1,0,90,0,0
35256,-90.9090909090909,4,1,0,90,0,0
35372,-90.0900900900901,4,1,0,90,0,0
35489,-89.2857142857143,4,1,0,90,0,0
35605,-88.4955752212389,4,1,0,90,0,0
35721,-87.719298245614,4,1,0,90,0,0
35837,-86.9565217391304,4,1,0,90,0,0
35954,-86.2068965517241,4,1,0,90,0,0
36070,-85.4700854700855,4,1,0,90,0,0
36186,-84.7457627118644,4,1,0,90,0,0
36303,-84.0336134453781,4,1,0,90,0,0
37698,-86.9565217391304,4,1,0,90,0,0
38279,-92.5925925925926,4,1,0,90,0,0
38977,-100,4,1,0,90,0,0
39791,-101.010101010101,4,1,0,90,0,0
39907,-102.040816326531,4,1,0,90,0,0
40024,-103.092783505155,4,1,0,90,0,0
40140,-104.166666666667,4,1,0,90,0,0
40256,-105.263157894737,4,1,0,90,0,0
40372,-106.382978723404,4,1,0,90,0,0
40489,-107.52688172043,4,1,0,90,0,0
40605,-108.695652173913,4,1,0,90,0,0
40721,-109.89010989011,4,1,0,90,0,0
40837,-111.111111111111,4,1,0,90,0,0
40954,-112.359550561798,4,1,0,90,0,0
41070,-113.636363636364,4,1,0,90,0,0
41186,-114.942528735632,4,1,0,90,0,0
41303,-116.279069767442,4,1,0,90,0,0
41419,-117.647058823529,4,1,0,90,0,0
41535,-119.047619047619,4,1,0,90,0,0
41651,-120.481927710843,4,1,0,90,0,0
41768,-121.951219512195,4,1,0,90,0,0
41884,-123.456790123457,4,1,0,90,0,0
42117,-120.481927710843,4,1,0,90,0,0
42233,-117.647058823529,4,1,0,90,0,0
42349,-114.942528735632,4,1,0,90,0,0
42465,-112.359550561798,4,1,0,90,0,0
42582,-109.89010989011,4,1,0,90,0,0
42698,-107.52688172043,4,1,0,90,0,0
42814,-105.263157894737,4,1,0,90,0,0
42930,-103.092783505155,4,1,0,90,0,0
43047,-101.010101010101,4,1,0,90,0,0
43163,-99.009900990099,4,1,0,90,0,0
43279,-97.0873786407767,4,1,0,90,0,0
43396,-95.2380952380952,4,1,0,90,0,0
43512,-93.4579439252336,4,1,0,90,0,0
43628,-91.743119266055,4,1,0,90,0,0
43744,-90.0900900900901,4,1,0,90,0,0
43861,-88.4955752212389,4,1,0,90,0,0
43977,-86.9565217391304,4,1,0,90,0,0
44326,-86.9565217391304,4,1,0,90,0,0
44442,-90.9090909090909,4,1,0,90,0,0
44558,-95.2380952380952,4,1,0,90,0,0
44675,-100,4,1,0,90,0,0
45373,-99.009900990099,4,1,0,90,0,0
45489,-98.0392156862745,4,1,0,90,0,0
45605,-97.0873786407767,4,1,0,90,0,0
45721,-96.1538461538461,4,1,0,90,0,0
45838,-95.2380952380952,4,1,0,90,0,0
45954,-94.3396226415094,4,1,0,90,0,0
46070,-93.4579439252336,4,1,0,90,0,0
46187,-92.5925925925926,4,1,0,90,0,0
46303,-91.743119266055,4,1,0,90,0,0
46419,-90.9090909090909,4,1,0,90,0,0
46535,-90.0900900900901,4,1,0,90,0,0
46652,-89.2857142857143,4,1,0,90,0,0
46768,-88.4955752212389,4,1,0,90,0,0
46884,-87.719298245614,4,1,0,90,0,0
47000,-86.9565217391304,4,1,0,90,0,0
47117,-86.2068965517241,4,1,0,90,0,0
47233,-85.4700854700855,4,1,0,90,0,0
47349,-84.7457627118644,4,1,0,90,0,0
47466,-84.0336134453781,4,1,0,90,0,0
48861,-86.9565217391304,4,1,0,90,0,0
49442,-92.5925925925926,4,1,0,90,0,0
50140,-100,4,1,0,90,0,0
50954,-101.010101010101,4,1,0,90,0,0
51070,-102.040816326531,4,1,0,90,0,0
51187,-103.092783505155,4,1,0,90,0,0
51303,-104.166666666667,4,1,0,90,0,0
51419,-105.263157894737,4,1,0,90,0,0
51535,-106.382978723404,4,1,0,90,0,0
51652,-107.52688172043,4,1,0,90,0,0
51768,-108.695652173913,4,1,0,90,0,0
51884,-109.89010989011,4,1,0,90,0,0
52000,-111.111111111111,4,1,0,90,0,0
52117,-112.359550561798,4,1,0,90,0,0
52233,-113.636363636364,4,1,0,90,0,0
52349,-114.942528735632,4,1,0,90,0,0
52466,-116.279069767442,4,1,0,90,0,0
52582,-117.647058823529,4,1,0,90,0,0
52698,-119.047619047619,4,1,0,90,0,0
52814,-120.481927710843,4,1,0,90,0,0
52931,-121.951219512195,4,1,0,90,0,0
53047,-123.456790123457,4,1,0,90,0,0
53280,-120.481927710843,4,1,0,90,0,0
53396,-117.647058823529,4,1,0,90,0,0
53512,-114.942528735632,4,1,0,90,0,0
53628,-112.359550561798,4,1,0,90,0,0
53745,-109.89010989011,4,1,0,90,0,0
53861,-107.52688172043,4,1,0,90,0,0
53977,-105.263157894737,4,1,0,90,0,0
54093,-103.092783505155,4,1,0,90,0,0
54210,-101.010101010101,4,1,0,90,0,0
54326,-99.009900990099,4,1,0,90,0,0
54442,-97.0873786407767,4,1,0,90,0,0
54559,-95.2380952380952,4,1,0,90,0,0
54675,-93.4579439252336,4,1,0,90,0,0
54791,-91.743119266055,4,1,0,90,0,0
54907,-90.0900900900901,4,1,0,90,0,0
55024,-88.4955752212389,4,1,0,90,0,0
55140,-86.9565217391304,4,1,0,90,0,0
55489,-86.9565217391304,4,1,0,90,0,0
55605,-90.9090909090909,4,1,0,90,0,0
55721,-95.2380952380952,4,1,0,90,0,0
55837,-100,4,1,0,90,0,0
58279,-76.9230769230769,4,1,0,90,0,0
58628,-100,4,1,0,90,0,0
75721,-105.263157894737,4,1,0,70,0,0
76768,-100,4,1,0,80,0,0
77814,-100,4,1,0,90,0,0
84442,-102.040816326531,4,1,0,90,0,0
84617,-104.166666666667,4,1,0,90,0,0
84791,-106.382978723404,4,1,0,90,0,0
84965,-108.695652173913,4,1,0,90,0,0
85140,-111.111111111111,4,1,0,90,0,0
85314,-113.636363636364,4,1,0,90,0,0
85489,-116.279069767442,4,1,0,90,0,0
85663,-119.047619047619,4,1,0,90,0,0
85837,-121.951219512195,4,1,0,90,0,0
86012,-125,4,1,0,90,0,0
86186,-128.205128205128,4,1,0,90,0,0
86361,-131.578947368421,4,1,0,90,0,0
86535,-126.582278481013,4,1,0,90,0,0
86651,-121.951219512195,4,1,0,90,0,0
86768,-117.647058823529,4,1,0,90,0,0
86884,-113.636363636364,4,1,0,90,0,0
87000,-109.89010989011,4,1,0,90,0,0
87117,-106.382978723404,4,1,0,90,0,0
87233,-103.092783505155,4,1,0,90,0,0
87349,-100,4,1,0,90,0,0
87465,-97.0873786407767,4,1,0,90,0,0
87582,-94.3396226415094,4,1,0,90,0,0
87698,-91.743119266055,4,1,0,90,0,0
87814,-89.2857142857143,4,1,0,90,0,0
87930,-86.9565217391304,4,1,0,90,0,0
88977,-90.9090909090909,4,1,0,90,0,0
89151,-95.2380952380952,4,1,0,90,0,0
89326,-100,4,1,0,90,0,0
95605,-102.040816326531,4,1,0,90,0,0
95779,-104.166666666667,4,1,0,90,0,0
95954,-106.382978723404,4,1,0,90,0,0
96128,-108.695652173913,4,1,0,90,0,0
96303,-111.111111111111,4,1,0,90,0,0
96477,-113.636363636364,4,1,0,90,0,0
96651,-116.279069767442,4,1,0,90,0,0
96826,-119.047619047619,4,1,0,90,0,0
97000,-121.951219512195,4,1,0,90,0,0
97175,-125,4,1,0,90,0,0
97349,-128.205128205128,4,1,0,90,0,0
97524,-131.578947368421,4,1,0,90,0,0
97698,-126.582278481013,4,1,0,90,0,0
97814,-121.951219512195,4,1,0,90,0,0
97930,-117.647058823529,4,1,0,90,0,0
98047,-113.636363636364,4,1,0,90,0,0
98163,-109.89010989011,4,1,0,90,0,0
98279,-106.382978723404,4,1,0,90,0,0
98396,-103.092783505155,4,1,0,90,0,0
98512,-100,4,1,0,90,0,0
98628,-97.0873786407767,4,1,0,90,0,0
98744,-94.3396226415094,4,1,0,90,0,0
98861,-91.743119266055,4,1,0,90,0,0
98977,-89.2857142857143,4,1,0,90,0,0
99093,-86.9565217391304,4,1,0,90,0,0
100489,-100,4,1,0,90,0,0
110605,-100,4,1,0,80,0,0
110954,-100,4,1,0,70,0,0
111651,-100,4,1,0,90,0,0

[Colours]
Combo1 : 188,198,6
Combo2 : 155,40,61
Combo3 : 44,57,180

[HitObjects]
256,192,19558,12,0,22000,0:0:0:0:
256,128,22349,5,4,0:0:0:0:
256,128,23047,1,8,0:0:0:0:
256,128,23744,1,0,0:0:0:0:
256,128,24442,1,8,0:0:0:0:
256,128,25140,1,0,0:0:0:0:
256,128,25837,1,8,0:0:0:0:
256,128,26535,1,0,0:0:0:0:
256,128,27233,1,8,0:0:0:0:
256,128,27930,1,4,0:0:0:0:
256,128,28279,1,0,0:0:0:0:
256,128,28628,1,0,0:0:0:0:
256,128,28977,1,0,0:0:0:0:
256,128,29326,1,0,0:0:0:0:
256,128,29675,1,0,0:0:0:0:
256,128,30024,1,0,0:0:0:0:
256,128,30372,1,0,0:0:0:0:
256,128,30721,1,8,0:0:0:0:
256,128,30837,1,0,0:0:0:0:
256,128,30954,1,0,0:0:0:0:
256,128,31070,1,8,0:0:0:0:
256,128,31186,1,0,0:0:0:0:
256,128,31303,1,0,0:0:0:0:
256,128,31419,1,8,0:0:0:0:
256,128,31535,1,0,0:0:0:0:
256,128,31651,1,0,0:0:0:0:
256,128,31768,1,8,0:0:0:0:
256,128,31884,1,0,0:0:0:0:
256,128,32000,1,0,0:0:0:0:
256,128,32117,1,8,0:0:0:0:
256,128,32233,1,0,0:0:0:0:
256,128,32465,1,0,0:0:0:0:
256,128,32698,1,0,0:0:0:0:
256,128,32814,1,0,0:0:0:0:
256,128,33047,1,0,0:0:0:0:
256,128,33163,1,8,0:0:0:0:
256,128,33512,1,4,0:0:0:0:
256,128,33744,1,0,0:0:0:0:
256,128,33861,1,8,0:0:0:0:
256,128,34210,1,0,0:0:0:0:
256,128,34326,1,0,0:0:0:0:
256,128,34442,1,0,0:0:0:0:
256,128,34558,1,8,0:0:0:0:
256,128,34675,1,8,0:0:0:0:
256,128,34791,1,8,0:0:0:0:
256,128,34907,1,0,0:0:0:0:
256,128,35023,1,0,0:0:0:0:
256,128,35140,1,0,0:0:0:0:
256,128,35256,1,8,0:0:0:0:
256,128,35372,1,8,0:0:0:0:
256,128,35488,1,8,0:0:0:0:
256,128,35605,1,0,0:0:0:0:
256,128,35721,1,0,0:0:0:0:
256,128,35837,1,0,0:0:0:0:
256,128,35953,1,8,0:0:0:0:
256,128,36070,1,8,0:0:0:0:
256,128,36186,1,8,0:0:0:0:
256,128,36302,1,0,0:0:0:0:
256,128,36535,1,0,0:0:0:0:
256,128,36651,1,8,0:0:0:0:
256,128,36768,1,8,0:0:0:0:
256,128,36884,1,8,0:0:0:0:
256,128,37000,1,0,0:0:0:0:
256,128,37233,1,0,0:0:0:0:
256,128,37349,1,8,0:0:0:0:
256,128,37465,1,8,0:0:0:0:
256,128,37582,1,8,0:0:0:0:
256,128,37698,1,0,0:0:0:0:
256,128,37756,1,0,0:0:0:0:
256,128,37814,1,0,0:0:0:0:
256,128,37872,1,0,0:0:0:0:
256,128,37930,1,0,0:0:0:0:
256,128,37989,1,0,0:0:0:0:
256,128,38047,1,8,0:0:0:0:
256,128,38279,1,0,0:0:0:0:
256,128,38396,1,8,0:0:0:0:
256,128,38512,1,0,0:0:0:0:
256,128,38628,1,0,0:0:0:0:
256,128,38744,1,8,0:0:0:0:
256,128,38977,1,8,0:0:0:0:
256,128,39093,1,0,0:0:0:0:
256,128,39326,1,0,0:0:0:0:
256,128,39442,1,8,0:0:0:0:
256,128,39791,1,8,0:0:0:0:
256,128,39907,1,0,0:0:0:0:
256,128,40024,1,8,0:0:0:0:
256,128,40140,1,8,0:0:0:0:
256,128,40256,1,0,0:0:0:0:
256,128,40372,1,8,0:0:0:0:
256,128,40489,1,8,0:0:0:0:
256,128,40605,1,8,0:0:0:0:
256,128,40721,1,0,0:0:0:0:
256,128,40837,1,8,0:0:0:0:
256,128,40954,1,0,0:0:0:0:
256,128,41070,1,0,0:0:0:0:
256,128,41186,1,8,0:0:0:0:
256,128,41303,1,8,0:0:0:0:
256,128,41419,1,0,0:0:0:0:
256,128,41535,1,8,0:0:0:0:
256,128,41651,1,8,0:0:0:0:
256,128,41768,1,8,0:0:0:0:
256,128,41884,1,0,0:0:0:0:
256,128,42117,1,0,0:0:0:0:
256,128,42233,1,8,0:0:0:0:
256,128,42349,1,0,0:0:0:0:
256,128,42465,1,0,0:0:0:0:
256,128,42582,1,8,0:0:0:0:
256,128,42698,1,8,0:0:0:0:
256,128,42814,1,0,0:0:0:0:
256,128,42930,1,8,0:0:0:0:
256,128,43047,1,8,0:0:0:0:
256,128,43163,1,8,0:0:0:0:
256,128,43279,1,0,0:0:0:0:
256,128,43396,1,0,0:0:0:0:
256,128,43512,1,0,0:0:0:0:
256,128,43628,1,8,0:0:0:0:
256,128,43744,1,8,0:0:0:0:
256,128,43861,1,8,0:0:0:0:
256,128,43977,1,0,0:0:0:0:
256,128,44326,1,8,0:0:0:0:
256,128,44442,1,8,0:0:0:0:
256,128,44558,1,8,0:0:0:0:
256,128,44675,1,4,0:0:0:0:
256,128,44907,1,0,0:0:0:0:
256,128,45024,1,8,0:0:0:0:
256,128,45372,1,0,0:0:0:0:
256,128,45488,1,0,0:0:0:0:
256,128,45604,1,0,0:0:0:0:
256,128,45720,1,8,0:0:0:0:
256,128,45837,1,8,0:0:0:0:
256,128,45953,1,8,0:0:0:0:
256,128,46069,1,0,0:0:0:0:
256,128,46185,1,0,0:0:0:0:
256,128,46302,1,0,0:0:0:0:
256,128,46418,1,8,0:0:0:0:
256,128,46534,1,8,0:0:0:0:
256,128,46650,1,8,0:0:0:0:
256,128,46767,1,0,0:0:0:0:
256,128,46883,1,0,0:0:0:0:
256,128,46999,1,0,0:0:0:0:
256,128,47117,1,8,0:0:0:0:
256,128,47232,1,8,0:0:0:0:
256,128,47348,1,8,0:0:0:0:
256,128,47464,1,0,0:0:0:0:
256,128,47697,1,8,0:0:0:0:
256,128,47813,1,8,0:0:0:0:
256,128,47930,1,0,0:0:0:0:
256,128,48046,1,8,0:0:0:0:
256,128,48162,1,0,0:0:0:0:
256,128,48395,1,8,0:0:0:0:
256,128,48511,1,8,0:0:0:0:
256,128,48627,1,0,0:0:0:0:
256,128,48744,1,8,0:0:0:0:
256,128,48861,1,0,0:0:0:0:
256,128,48919,1,0,0:0:0:0:
256,128,48977,1,0,0:0:0:0:
256,128,49035,1,0,0:0:0:0:
256,128,49093,1,0,0:0:0:0:
256,128,49151,1,0,0:0:0:0:
256,128,49210,1,8,0:0:0:0:
256,128,49442,1,0,0:0:0:0:
256,128,49558,1,8,0:0:0:0:
256,128,49675,1,0,0:0:0:0:
256,128,49791,1,0,0:0:0:0:
256,128,49907,1,8,0:0:0:0:
256,128,50140,1,8,0:0:0:0:
256,128,50256,1,0,0:0:0:0:
256,128,50489,1,0,0:0:0:0:
256,128,50605,1,8,0:0:0:0:
256,128,50954,1,8,0:0:0:0:
256,128,51070,1,8,0:0:0:0:
256,128,51187,1,0,0:0:0:0:
256,128,51303,1,8,0:0:0:0:
256,128,51419,1,0,0:0:0:0:
256,128,51535,1,0,0:0:0:0:
256,128,51652,1,8,0:0:0:0:
256,128,51768,1,8,0:0:0:0:
256,128,51884,1,0,0:0:0:0:
256,128,52000,1,8,0:0:0:0:
256,128,52117,1,0,0:0:0:0:
256,128,52233,1,0,0:0:0:0:
256,128,52349,1,8,0:0:0:0:
256,128,52466,1,8,0:0:0:0:
256,128,52582,1,0,0:0:0:0:
256,128,52698,1,8,0:0:0:0:
256,128,52814,1,8,0:0:0:0:
256,128,52931,1,8,0:0:0:0:
256,128,53047,1,0,0:0:0:0:
256,128,53280,1,0,0:0:0:0:
256,128,53396,1,8,0:0:0:0:
256,128,53512,1,8,0:0:0:0:
256,128,53628,1,0,0:0:0:0:
256,128,53745,1,8,0:0:0:0:
256,128,53861,1,8,0:0:0:0:
256,128,53977,1,0,0:0:0:0:
256,128,54093,1,8,0:0:0:0:
256,128,54210,1,8,0:0:0:0:
256,128,54326,1,8,0:0:0:0:
256,128,54442,1,0,0:0:0:0:
256,128,54559,1,0,0:0:0:0:
256,128,54675,1,0,0:0:0:0:
256,128,54791,1,8,0:0:0:0:
256,128,54907,1,8,0:0:0:0:
256,128,55024,1,8,0:0:0:0:
256,128,55140,1,0,0:0:0:0:
256,128,55489,1,8,0:0:0:0:
256,128,55605,1,8,0:0:0:0:
256,128,55721,1,8,0:0:0:0:
256,128,55837,1,4,0:0:0:0:
256,128,58279,1,12,0:0:0:0:
256,128,58628,1,0,0:0:0:0:
256,128,58861,1,0,0:0:0:0:
256,128,58977,1,8,0:0:0:0:
256,128,59093,1,0,0:0:0:0:
256,128,59210,1,0,0:0:0:0:
256,128,59326,1,8,0:0:0:0:
256,128,59442,1,8,0:0:0:0:
256,128,59558,1,0,0:0:0:0:
256,128,59675,1,8,0:0:0:0:
256,128,59791,1,8,0:0:0:0:
256,128,59907,1,8,0:0:0:0:
256,128,60024,1,0,0:0:0:0:
256,128,60256,1,0,0:0:0:0:
256,128,60372,1,8,0:0:0:0:
256,128,60605,1,8,0:0:0:0:
256,128,60721,1,0,0:0:0:0:
256,128,60837,1,0,0:0:0:0:
256,128,60954,1,8,0:0:0:0:
256,128,61070,1,8,0:0:0:0:
256,128,61303,1,8,0:0:0:0:
256,128,61419,1,0,0:0:0:0:
256,128,61651,1,0,0:0:0:0:
256,128,61768,1,8,0:0:0:0:
256,128,62000,1,8,0:0:0:0:
256,128,62117,1,0,0:0:0:0:
256,128,62233,1,0,0:0:0:0:
256,128,62349,1,0,0:0:0:0:
256,128,62465,1,8,0:0:0:0:
256,128,62698,1,8,0:0:0:0:
256,128,62814,1,0,0:0:0:0:
256,128,63047,1,0,0:0:0:0:
256,128,63163,1,8,0:0:0:0:
256,128,63396,1,0,0:0:0:0:
256,128,63512,1,8,0:0:0:0:
256,128,63628,1,0,0:0:0:0:
256,128,63744,1,0,0:0:0:0:
256,128,63861,1,8,0:0:0:0:
256,128,64093,1,8,0:0:0:0:
256,128,64210,1,0,0:0:0:0:
256,128,64442,1,0,0:0:0:0:
256,128,64558,1,8,0:0:0:0:
256,128,64791,1,0,0:0:0:0:
256,128,64907,1,8,0:0:0:0:
256,128,65024,1,8,0:0:0:0:
256,128,65140,1,0,0:0:0:0:
256,128,65256,1,8,0:0:0:0:
256,128,65489,1,0,0:0:0:0:
256,128,65605,1,8,0:0:0:0:
256,128,65721,1,0,0:0:0:0:
256,128,65837,1,0,0:0:0:0:
256,128,65954,1,8,0:0:0:0:
256,128,66070,1,0,0:0:0:0:
256,128,66186,1,0,0:0:0:0:
256,128,66303,1,8,0:0:0:0:
256,128,66535,1,0,0:0:0:0:
256,128,66651,1,8,0:0:0:0:
256,128,66768,1,8,0:0:0:0:
256,128,66884,1,8,0:0:0:0:
256,128,67000,1,4,0:0:0:0:
256,128,67233,1,0,0:0:0:0:
256,128,67349,1,8,0:0:0:0:
256,128,67582,1,8,0:0:0:0:
256,128,67698,1,0,0:0:0:0:
256,128,67930,1,0,0:0:0:0:
256,128,68047,1,8,0:0:0:0:
256,128,68163,1,8,0:0:0:0:
256,128,68279,1,8,0:0:0:0:
256,128,68396,1,0,0:0:0:0:
256,128,68628,1,0,0:0:0:0:
256,128,68744,1,8,0:0:0:0:
256,128,68977,1,8,0:0:0:0:
256,128,69093,1,0,0:0:0:0:
256,128,69210,1,0,0:0:0:0:
256,128,69326,1,0,0:0:0:0:
256,128,69442,1,8,0:0:0:0:
256,128,69675,1,8,0:0:0:0:
256,128,69791,1,0,0:0:0:0:
256,128,70024,1,0,0:0:0:0:
256,128,70140,1,8,0:0:0:0:
256,128,70256,1,8,0:0:0:0:
256,128,70373,1,8,0:0:0:0:
256,128,70489,1,0,0:0:0:0:
256,128,70605,1,0,0:0:0:0:
256,128,70721,1,0,0:0:0:0:
256,128,70838,1,8,0:0:0:0:
256,128,70954,1,8,0:0:0:0:
256,128,71070,1,8,0:0:0:0:
256,128,71187,1,0,0:0:0:0:
256,128,71419,1,0,0:0:0:0:
256,128,71535,1,8,0:0:0:0:
256,128,71768,1,8,0:0:0:0:
256,128,71884,1,8,0:0:0:0:
256,128,72000,1,0,0:0:0:0:
256,128,72117,1,8,0:0:0:0:
256,128,72233,1,8,0:0:0:0:
256,128,72466,1,8,0:0:0:0:
256,128,72582,1,0,0:0:0:0:
256,128,72931,1,12,0:0:0:0:
256,128,73163,1,8,0:0:0:0:
256,128,73280,1,0,0:0:0:0:
256,128,73396,1,0,0:0:0:0:
256,128,73512,1,0,0:0:0:0:
256,128,73628,1,8,0:0:0:0:
256,128,73861,1,8,0:0:0:0:
256,128,73977,1,0,0:0:0:0:
256,128,74210,1,0,0:0:0:0:
256,128,74326,1,8,0:0:0:0:
256,128,74559,1,8,0:0:0:0:
256,128,74675,1,8,0:0:0:0:
256,128,74791,1,0,0:0:0:0:
256,128,74907,1,0,0:0:0:0:
256,128,75024,1,8,0:0:0:0:
256,128,75256,1,8,0:0:0:0:
256,128,75373,1,0,0:0:0:0:
256,128,75721,1,8,0:0:0:0:
256,128,75896,1,0,0:0:0:0:
256,128,76070,1,8,0:0:0:0:
256,128,76419,1,8,0:0:0:0:
256,128,76768,1,0,0:0:0:0:
256,128,76942,1,0,0:0:0:0:
256,128,77117,1,0,0:0:0:0:
256,128,77291,1,0,0:0:0:0:
256,128,77466,1,8,0:0:0:0:
256,128,77640,1,0,0:0:0:0:
256,128,77814,1,12,0:0:0:0:
256,128,78163,1,4,0:0:0:0:
256,128,78425,1,0,0:0:0:0:
256,128,78512,1,8,0:0:0:0:
256,128,78861,1,0,0:0:0:0:
256,128,79035,1,0,0:0:0:0:
256,128,79122,1,0,0:0:0:0:
256,128,79210,1,8,0:0:0:0:
256,128,79384,1,0,0:0:0:0:
256,128,79471,1,8,0:0:0:0:
256,128,79558,1,0,0:0:0:0:
256,128,79733,1,0,0:0:0:0:
256,128,79907,1,8,0:0:0:0:
256,128,80082,1,8,0:0:0:0:
256,128,80169,1,8,0:0:0:0:
256,128,80256,1,0,0:0:0:0:
256,128,80430,1,0,0:0:0:0:
256,128,80605,1,8,0:0:0:0:
256,128,80779,1,8,0:0:0:0:
256,128,80954,1,0,0:0:0:0:
256,128,81012,1,0,0:0:0:0:
256,128,81303,1,8,0:0:0:0:
256,128,81477,1,0,0:0:0:0:
256,128,81651,1,0,0:0:0:0:
256,128,81710,1,0,0:0:0:0:
256,128,82000,1,8,0:0:0:0:
256,128,82175,1,8,0:0:0:0:
256,128,82349,1,0,0:0:0:0:
256,128,82407,1,0,0:0:0:0:
256,128,82465,1,0,0:0:0:0:
256,128,82524,1,0,0:0:0:0:
256,128,82582,1,0,0:0:0:0:
256,128,82640,1,0,0:0:0:0:
256,128,82698,1,8,0:0:0:0:
256,128,82872,1,0,0:0:0:0:
256,128,82960,1,0,0:0:0:0:
256,128,83047,1,8,0:0:0:0:
256,128,83221,1,0,0:0:0:0:
256,128,83396,1,8,0:0:0:0:
256,128,83744,1,4,0:0:0:0:
256,128,84006,1,0,0:0:0:0:
256,128,84093,1,8,0:0:0:0:
256,128,84442,1,0,0:0:0:0:
256,128,84617,1,0,0:0:0:0:
256,128,84791,1,8,0:0:0:0:
256,128,84965,1,8,0:0:0:0:
256,128,85140,1,0,0:0:0:0:
256,128,85314,1,0,0:0:0:0:
256,128,85489,1,8,0:0:0:0:
256,128,85663,1,8,0:0:0:0:
256,128,85837,1,0,0:0:0:0:
256,128,86012,1,0,0:0:0:0:
256,128,86186,1,8,0:0:0:0:
256,128,86361,1,8,0:0:0:0:
256,128,86535,1,0,0:0:0:0:
256,128,86651,1,0,0:0:0:0:
256,128,86768,1,0,0:0:0:0:
256,128,86884,1,8,0:0:0:0:
256,128,87000,1,8,0:0:0:0:
256,128,87117,1,8,0:0:0:0:
256,128,87233,1,0,0:0:0:0:
256,128,87349,1,0,0:0:0:0:
256,128,87466,1,0,0:0:0:0:
256,128,87582,1,8,0:0:0:0:
256,128,87698,1,0,0:0:0:0:
256,128,87815,1,0,0:0:0:0:
256,128,87930,1,12,0:0:0:0:
256,128,88105,1,12,0:0:0:0:
256,128,88279,1,12,0:0:0:0:
256,128,88454,1,12,0:0:0:0:
256,128,88628,1,0,0:0:0:0:
256,128,88977,1,8,0:0:0:0:
256,128,89151,1,8,0:0:0:0:
256,128,89326,1,4,0:0:0:0:
256,128,89587,1,0,0:0:0:0:
256,128,89675,1,8,0:0:0:0:
256,128,90024,1,0,0:0:0:0:
256,128,90198,1,0,0:0:0:0:
256,128,90285,1,0,0:0:0:0:
256,128,90372,1,8,0:0:0:0:
256,128,90547,1,0,0:0:0:0:
256,128,90634,1,8,0:0:0:0:
256,128,90721,1,0,0:0:0:0:
256,128,90896,1,0,0:0:0:0:
256,128,91070,1,8,0:0:0:0:
256,128,91244,1,8,0:0:0:0:
256,128,91332,1,8,0:0:0:0:
256,128,91419,1,0,0:0:0:0:
256,128,91593,1,0,0:0:0:0:
256,128,91768,1,8,0:0:0:0:
256,128,91942,1,8,0:0:0:0:
256,128,92117,1,0,0:0:0:0:
256,128,92175,1,0,0:0:0:0:
256,128,92291,1,8,0:0:0:0:
256,128,92465,1,8,0:0:0:0:
256,128,92640,1,8,0:0:0:0:
256,128,92814,1,0,0:0:0:0:
256,128,92872,1,0,0:0:0:0:
256,128,92989,1,8,0:0:0:0:
256,128,93163,1,8,0:0:0:0:
256,128,93337,1,8,0:0:0:0:
256,128,93512,1,0,0:0:0:0:
256,128,93570,1,0,0:0:0:0:
256,128,93628,1,0,0:0:0:0:
256,128,93686,1,0,0:0:0:0:
256,128,93744,1,0,0:0:0:0:
256,128,93803,1,0,0:0:0:0:
256,128,93861,1,8,0:0:0:0:
256,128,94035,1,8,0:0:0:0:
256,128,94210,1,0,0:0:0:0:
256,128,94297,1,0,0:0:0:0:
256,128,94384,1,0,0:0:0:0:
256,128,94558,1,8,0:0:0:0:
256,128,94907,1,4,0:0:0:0:
256,128,95169,1,0,0:0:0:0:
256,128,95256,1,8,0:0:0:0:
256,128,95605,1,0,0:0:0:0:
256,128,95780,1,0,0:0:0:0:
256,128,95954,1,8,0:0:0:0:
256,128,96128,1,8,0:0:0:0:
256,128,96303,1,0,0:0:0:0:
256,128,96477,1,0,0:0:0:0:
256,128,96652,1,8,0:0:0:0:
256,128,96826,1,8,0:0:0:0:
256,128,97000,1,0,0:0:0:0:
256,128,97175,1,0,0:0:0:0:
256,128,97349,1,8,0:0:0:0:
256,128,97524,1,8,0:0:0:0:
256,128,97698,1,0,0:0:0:0:
256,128,97814,1,0,0:0:0:0:
256,128,97931,1,0,0:0:0:0:
256,128,98047,1,8,0:0:0:0:
256,128,98163,1,8,0:0:0:0:
256,128,98280,1,8,0:0:0:0:
256,128,98396,1,0,0:0:0:0:
256,128,98512,1,0,0:0:0:0:
256,128,98629,1,0,0:0:0:0:
256,128,98745,1,8,0:0:0:0:
256,128,98861,1,0,0:0:0:0:
256,128,98978,1,0,0:0:0:0:
256,128,99093,1,12,0:0:0:0:
256,128,99268,1,12,0:0:0:0:
256,128,99442,1,12,0:0:0:0:
256,128,99617,1,12,0:0:0:0:
256,128,99791,1,0,0:0:0:0:
256,128,100489,1,12,0:0:0:0:
256,128,100750,1,0,0:0:0:0:
256,128,100837,1,8,0:0:0:0:
256,128,101186,1,0,0:0:0:0:
256,128,101361,1,0,0:0:0:0:
256,128,101535,1,8,0:0:0:0:
256,128,101710,1,8,0:0:0:0:
256,128,101797,1,8,0:0:0:0:
256,128,101884,1,0,0:0:0:0:
256,128,102058,1,0,0:0:0:0:
256,128,102233,1,8,0:0:0:0:
256,128,102582,1,0,0:0:0:0:
256,128,102756,1,0,0:0:0:0:
256,128,102843,1,0,0:0:0:0:
256,128,102930,1,8,0:0:0:0:
256,128,103105,1,8,0:0:0:0:
256,128,103279,1,0,0:0:0:0:
256,128,103454,1,0,0:0:0:0:
256,128,103628,1,8,0:0:0:0:
256,128,103977,1,0,0:0:0:0:
256,128,104151,1,8,0:0:0:0:
256,128,104326,1,8,0:0:0:0:
256,128,104500,1,0,0:0:0:0:
256,128,104587,1,0,0:0:0:0:
256,128,104675,1,0,0:0:0:0:
256,128,104849,1,0,0:0:0:0:
256,128,105024,1,8,0:0:0:0:
256,128,105372,1,0,0:0:0:0:
256,128,105547,1,0,0:0:0:0:
256,128,105634,1,0,0:0:0:0:
256,128,105721,1,8,0:0:0:0:
256,128,105896,1,0,0:0:0:0:
256,128,106070,1,12,0:0:0:0:
256,128,106332,1,0,0:0:0:0:
256,128,106419,1,8,0:0:0:0:
256,128,106768,1,0,0:0:0:0:
256,128,106943,1,8,0:0:0:0:
256,128,107117,1,8,0:0:0:0:
256,128,107292,1,8,0:0:0:0:
256,128,107379,1,8,0:0:0:0:
256,128,107466,1,0,0:0:0:0:
256,128,107640,1,0,0:0:0:0:
256,128,107815,1,8,0:0:0:0:
256,128,108164,1,0,0:0:0:0:
256,128,108338,1,8,0:0:0:0:
256,128,108425,1,0,0:0:0:0:
256,128,108512,1,8,0:0:0:0:
256,128,108687,1,8,0:0:0:0:
256,128,108861,1,0,0:0:0:0:
256,128,109036,1,0,0:0:0:0:
256,128,109210,1,8,0:0:0:0:
256,128,109559,1,0,0:0:0:0:
256,128,109733,1,8,0:0:0:0:
256,128,109820,1,8,0:0:0:0:
256,128,109908,1,8,0:0:0:0:
256,128,110082,1,0,0:0:0:0:
256,128,110257,1,8,0:0:0:0:
256,128,110431,1,8,0:0:0:0:
256,128,110606,1,0,0:0:0:0:
256,128,110779,1,0,0:0:0:0:
256,128,110954,1,8,0:0:0:0:
256,128,111129,1,0,0:0:0:0:
256,128,111216,1,0,0:0:0:0:
256,128,111303,1,8,0:0:0:0:
256,128,111478,1,0,0:0:0:0:
256,128,111652,1,12,0:0:0:0:
256,128,111913,1,0,0:0:0:0:
256,128,112000,1,8,0:0:0:0:
256,128,112349,1,0,0:0:0:0:
256,128,112524,1,0,0:0:0:0:
256,128,112698,1,8,0:0:0:0:
256,128,112785,1,0,0:0:0:0:
256,128,112873,1,8,0:0:0:0:
256,128,112960,1,8,0:0:0:0:
256,128,113047,1,0,0:0:0:0:
256,128,113221,1,0,0:0:0:0:
256,128,113396,1,8,0:0:0:0:
256,128,113745,1,0,0:0:0:0:
256,128,113832,1,0,0:0:0:0:
256,128,113919,1,0,0:0:0:0:
256,128,114006,1,0,0:0:0:0:
256,128,114093,1,8,0:0:0:0:
256,128,114268,1,8,0:0:0:0:
256,128,114442,1,0,0:0:0:0:
256,128,114617,1,0,0:0:0:0:
256,128,114791,1,8,0:0:0:0:
256,128,115140,1,0,0:0:0:0:
256,128,115314,1,8,0:0:0:0:
256,128,115489,1,8,0:0:0:0:
256,128,115576,1,8,0:0:0:0:
256,128,115663,1,0,0:0:0:0:
256,128,115750,1,0,0:0:0:0:
256,128,115838,1,0,0:0:0:0:
256,128,116012,1,0,0:0:0:0:
256,128,116187,1,8,0:0:0:0:
256,128,116535,1,0,0:0:0:0:
256,128,116710,1,0,0:0:0:0:
256,128,116797,1,0,0:0:0:0:
256,128,116884,1,8,0:0:0:0:
256,128,116971,1,8,0:0:0:0:
256,128,117059,1,0,0:0:0:0:
256,128,117233,1,12,0:0:0:0:
256,128,117494,1,0,0:0:0:0:
256,128,117581,1,8,0:0:0:0:
256,128,117930,1,0,0:0:0:0:
256,128,118105,1,0,0:0:0:0:
256,128,118279,1,8,0:0:0:0:
256,128,118454,1,8,0:0:0:0:
256,128,118628,1,0,0:0:0:0:
256,128,118802,1,0,0:0:0:0:
256,128,118890,1,0,0:0:0:0:
256,128,118977,1,8,0:0:0:0:
256,128,119326,1,0,0:0:0:0:
256,128,119500,1,8,0:0:0:0:
256,128,119674,1,8,0:0:0:0:
256,128,119849,1,8,0:0:0:0:
256,128,120023,1,0,0:0:0:0:
256,128,120198,1,0,0:0:0:0:
256,128,120285,1,0,0:0:0:0:
256,128,120372,1,8,0:0:0:0:
256,128,120721,1,0,0:0:0:0:
256,128,120895,1,8,0:0:0:0:
256,128,121070,1,8,0:0:0:0:
256,128,121244,1,0,0:0:0:0:
256,128,121419,1,12,0:0:0:0:
256,128,121768,1,8,0:0:0:0:
256,128,122116,1,0,0:0:0:0:
256,128,122291,1,0,0:0:0:0:
256,128,122465,1,8,0:0:0:0:
256,128,122640,1,8,0:0:0:0:
256,128,122814,1,4,0:0:0:0:
256,192,122989,12,0,133977,0:0:0:0:
