osu file format v14

[General]
AudioFilename: audio.mp3
AudioLeadIn: 0
PreviewTime: 24
Countdown: 0
SampleSet: Normal
StackLeniency: 0.2
Mode: 1
LetterboxInBreaks: 0
WidescreenStoryboard: 1

[Editor]
DistanceSpacing: 0.1
BeatDivisor: 3
GridSize: 32
TimelineZoom: 3.1

[Metadata]
Title:Outbreak
TitleUnicode:Outbreak
Artist:Mediks
ArtistUnicode:Mediks
Creator:Strategas
Version:Arrival's Muzukashii
Source:
Tags:ep dnb zombie pishifat cbh DeRandom Otaku Arrival Come[Back]Home Yamicchi 2012
BeatmapID:1222233
BeatmapSetID:527082

[Difficulty]
HPDrainRate:5
CircleSize:2
OverallDifficulty:5
ApproachRate:1
SliderMultiplier:1.4
SliderTickRate:1

[Events]
//Background and Video events
0,0,"hospital.jpg",0,0
//Break Periods
//Storyboard Layer 0 (Background)
//Storyboard Layer 1 (Fail)
//Storyboard Layer 2 (Pass)
//Storyboard Layer 3 (Foreground)
//Storyboard Sound Samples

[TimingPoints]
24,348.837209302326,4,1,0,90,1,0
19558,-117.647058823529,4,1,0,75,0,0
27930,-111.111111111111,4,1,0,80,0,0
30721,-105.263157894737,4,1,0,85,0,0
33512,-100,4,1,0,90,0,0
110605,-100,4,1,0,80,0,0
110954,-100,4,1,0,70,0,0
111651,-100,4,1,0,90,0,0

[Colours]
Combo1 : 188,198,6
Combo2 : 155,40,61
Combo3 : 44,57,180

[HitObjects]
256,192,19558,12,0,22000,0:0:0:0:
256,128,22349,5,4,0:0:0:0:
256,128,23744,1,0,0:0:0:0:
256,128,25140,1,0,0:0:0:0:
256,128,26535,1,0,0:0:0:0:
256,128,27930,1,4,0:0:0:0:
256,128,28628,1,0,0:0:0:0:
256,128,29326,1,0,0:0:0:0:
256,128,30024,1,0,0:0:0:0:
256,128,30721,1,0,0:0:0:0:
256,128,30954,1,0,0:0:0:0:
256,128,31070,1,8,0:0:0:0:
256,128,31303,1,8,0:0:0:0:
256,128,31419,1,0,0:0:0:0:
256,128,31651,1,0,0:0:0:0:
256,128,31768,1,8,0:0:0:0:
256,128,32000,1,8,0:0:0:0:
256,128,32117,1,0,0:0:0:0:
256,128,32465,1,0,0:0:0:0:
256,128,32698,1,0,0:0:0:0:
256,128,32814,1,0,0:0:0:0:
256,128,33047,1,0,0:0:0:0:
256,128,33163,1,8,0:0:0:0:
256,128,33512,1,4,0:0:0:0:
256,128,33744,1,0,0:0:0:0:
256,128,33861,1,8,0:0:0:0:
256,128,34210,1,0,0:0:0:0:
256,128,34442,1,0,0:0:0:0:
256,128,34558,1,8,0:0:0:0:
256,128,34791,1,8,0:0:0:0:
256,128,34907,1,0,0:0:0:0:
256,128,35256,1,8,0:0:0:0:
256,128,35489,1,8,0:0:0:0:
256,128,35605,1,0,0:0:0:0:
256,128,35837,1,0,0:0:0:0:
256,128,35953,1,8,0:0:0:0:
256,128,36302,1,8,0:0:0:0:
256,128,36535,1,8,0:0:0:0:
256,128,36768,1,0,0:0:0:0:
256,128,37000,1,0,0:0:0:0:
256,128,37233,1,8,0:0:0:0:
256,128,37465,1,8,0:0:0:0:
256,128,37698,1,0,0:0:0:0:
256,128,37930,1,0,0:0:0:0:
256,128,38047,1,8,0:0:0:0:
256,128,38279,1,8,0:0:0:0:
256,128,38396,1,0,0:0:0:0:
256,128,38628,1,8,0:0:0:0:
256,128,38744,1,8,0:0:0:0:
256,128,39093,1,0,0:0:0:0:
256,128,39326,1,0,0:0:0:0:
256,128,39442,1,8,0:0:0:0:
256,128,39791,1,0,0:0:0:0:
256,128,40140,1,8,0:0:0:0:
256,128,40372,1,8,0:0:0:0:
256,128,40489,1,0,0:0:0:0:
256,128,40721,1,0,0:0:0:0:
256,128,40837,1,8,0:0:0:0:
256,128,41186,1,0,0:0:0:0:
256,128,41419,1,0,0:0:0:0:
256,128,41535,1,8,0:0:0:0:
256,128,41768,1,8,0:0:0:0:
256,128,41884,1,0,0:0:0:0:
256,128,42233,1,8,0:0:0:0:
256,128,42582,1,0,0:0:0:0:
256,128,42814,1,0,0:0:0:0:
256,128,42930,1,8,0:0:0:0:
256,128,43279,1,12,0:0:0:0:
256,128,43628,1,12,0:0:0:0:
256,128,44326,1,8,0:0:0:0:
256,128,44675,1,4,0:0:0:0:
256,128,44907,1,0,0:0:0:0:
256,128,45024,1,8,0:0:0:0:
256,128,45372,1,0,0:0:0:0:
256,128,45605,1,0,0:0:0:0:
256,128,45721,1,8,0:0:0:0:
256,128,45954,1,8,0:0:0:0:
256,128,46070,1,0,0:0:0:0:
256,128,46419,1,8,0:0:0:0:
256,128,46768,1,0,0:0:0:0:
256,128,46999,1,0,0:0:0:0:
256,128,47117,1,8,0:0:0:0:
256,128,47348,1,8,0:0:0:0:
256,128,47464,1,0,0:0:0:0:
256,128,47697,1,0,0:0:0:0:
256,128,47930,1,8,0:0:0:0:
256,128,48162,1,8,0:0:0:0:
256,128,48395,1,0,0:0:0:0:
256,128,48628,1,8,0:0:0:0:
256,128,48861,1,0,0:0:0:0:
256,128,49093,1,0,0:0:0:0:
256,128,49210,1,8,0:0:0:0:
256,128,49558,1,8,0:0:0:0:
256,128,49791,1,8,0:0:0:0:
256,128,49907,1,8,0:0:0:0:
256,128,50256,1,0,0:0:0:0:
256,128,50489,1,0,0:0:0:0:
256,128,50605,1,8,0:0:0:0:
256,128,50954,1,8,0:0:0:0:
256,128,51187,1,0,0:0:0:0:
256,128,51303,1,8,0:0:0:0:
256,128,51535,1,8,0:0:0:0:
256,128,51652,1,0,0:0:0:0:
256,128,52000,1,8,0:0:0:0:
256,128,52349,1,0,0:0:0:0:
256,128,52582,1,0,0:0:0:0:
256,128,52698,1,8,0:0:0:0:
256,128,52931,1,8,0:0:0:0:
256,128,53047,1,0,0:0:0:0:
256,128,53396,1,8,0:0:0:0:
256,128,53628,1,8,0:0:0:0:
256,128,53745,1,0,0:0:0:0:
256,128,53977,1,0,0:0:0:0:
256,128,54093,1,8,0:0:0:0:
256,128,54442,1,12,0:0:0:0:
256,96,54791,1,12,0:0:0:0:
256,128,55140,1,0,0:0:0:0:
256,128,55489,1,8,0:0:0:0:
256,128,55837,1,4,0:0:0:0:
256,128,58279,1,12,0:0:0:0:
256,128,58628,1,0,0:0:0:0:
256,128,58861,1,0,0:0:0:0:
256,128,58977,1,8,0:0:0:0:
256,128,59326,1,8,0:0:0:0:
256,128,59558,1,0,0:0:0:0:
256,128,59675,1,8,0:0:0:0:
256,128,59907,1,8,0:0:0:0:
256,128,60024,1,0,0:0:0:0:
256,128,60372,1,8,0:0:0:0:
256,128,60605,1,8,0:0:0:0:
256,128,60721,1,0,0:0:0:0:
256,128,60954,1,0,0:0:0:0:
256,128,61070,1,8,0:0:0:0:
256,128,61419,1,0,0:0:0:0:
256,128,61651,1,0,0:0:0:0:
256,128,61768,1,8,0:0:0:0:
256,128,62000,1,8,0:0:0:0:
256,128,62117,1,8,0:0:0:0:
256,128,62349,1,0,0:0:0:0:
256,128,62465,1,8,0:0:0:0:
256,128,62814,1,0,0:0:0:0:
256,128,63047,1,0,0:0:0:0:
256,128,63163,1,8,0:0:0:0:
256,128,63396,1,8,0:0:0:0:
256,128,63512,1,8,0:0:0:0:
256,128,63744,1,0,0:0:0:0:
256,128,63861,1,8,0:0:0:0:
256,128,64210,1,0,0:0:0:0:
256,128,64442,1,0,0:0:0:0:
256,128,64558,1,8,0:0:0:0:
256,128,64791,1,8,0:0:0:0:
256,128,64907,1,0,0:0:0:0:
256,128,65140,1,0,0:0:0:0:
256,128,65256,1,8,0:0:0:0:
256,128,65605,1,12,0:0:0:0:
256,128,65954,1,12,0:0:0:0:
256,128,66303,1,0,0:0:0:0:
256,128,67000,1,4,0:0:0:0:
256,128,67233,1,0,0:0:0:0:
256,128,67349,1,8,0:0:0:0:
256,128,67698,1,0,0:0:0:0:
256,128,67930,1,0,0:0:0:0:
256,128,68047,1,8,0:0:0:0:
256,128,68279,1,8,0:0:0:0:
256,128,68396,1,0,0:0:0:0:
256,128,68628,1,0,0:0:0:0:
256,128,68744,1,8,0:0:0:0:
256,128,69093,1,8,0:0:0:0:
256,128,69326,1,0,0:0:0:0:
256,128,69442,1,8,0:0:0:0:
256,128,69675,1,8,0:0:0:0:
256,128,69791,1,8,0:0:0:0:
256,128,70024,1,0,0:0:0:0:
256,128,70140,1,8,0:0:0:0:
256,128,70489,1,0,0:0:0:0:
256,128,70721,1,0,0:0:0:0:
256,128,70838,1,8,0:0:0:0:
256,128,71070,1,8,0:0:0:0:
256,128,71187,1,8,0:0:0:0:
256,128,71419,1,0,0:0:0:0:
256,128,71535,1,8,0:0:0:0:
256,128,71884,1,8,0:0:0:0:
256,128,72117,1,0,0:0:0:0:
256,128,72233,1,8,0:0:0:0:
256,128,72466,1,8,0:0:0:0:
256,128,72582,1,0,0:0:0:0:
256,128,72931,1,12,0:0:0:0:
256,128,73280,1,0,0:0:0:0:
256,128,73512,1,0,0:0:0:0:
256,128,73628,1,8,0:0:0:0:
256,128,73977,1,0,0:0:0:0:
256,128,74210,1,0,0:0:0:0:
256,128,74326,1,8,0:0:0:0:
256,128,74675,1,0,0:0:0:0:
256,128,74907,1,0,0:0:0:0:
256,128,75024,1,8,0:0:0:0:
256,128,75256,1,8,0:0:0:0:
256,128,75373,1,0,0:0:0:0:
256,128,76070,1,8,0:0:0:0:
256,128,76768,1,8,0:0:0:0:
256,128,77117,1,0,0:0:0:0:
256,128,77291,1,0,0:0:0:0:
256,128,77466,1,8,0:0:0:0:
256,128,77814,1,12,0:0:0:0:
256,128,78163,1,4,0:0:0:0:
256,128,78512,1,8,0:0:0:0:
256,128,78861,1,0,0:0:0:0:
256,128,79035,1,0,0:0:0:0:
256,128,79210,1,8,0:0:0:0:
256,128,79384,1,8,0:0:0:0:
256,128,79558,1,0,0:0:0:0:
256,128,79907,1,8,0:0:0:0:
256,128,80082,1,8,0:0:0:0:
256,128,80256,1,0,0:0:0:0:
256,128,80430,1,0,0:0:0:0:
256,128,80605,1,8,0:0:0:0:
256,128,80779,1,8,0:0:0:0:
256,128,80954,1,0,0:0:0:0:
256,128,81303,1,8,0:0:0:0:
256,128,81477,1,0,0:0:0:0:
256,128,81651,1,0,0:0:0:0:
256,128,82000,1,8,0:0:0:0:
256,128,82175,1,8,0:0:0:0:
256,128,82349,1,0,0:0:0:0:
256,128,82698,1,8,0:0:0:0:
256,128,82872,1,8,0:0:0:0:
256,128,83047,1,0,0:0:0:0:
256,128,83134,1,0,0:0:0:0:
256,128,83221,1,0,0:0:0:0:
256,128,83396,1,8,0:0:0:0:
256,128,83744,1,4,0:0:0:0:
256,128,84093,1,8,0:0:0:0:
256,128,84442,1,0,0:0:0:0:
256,128,84617,1,0,0:0:0:0:
256,128,84791,1,8,0:0:0:0:
256,128,84965,1,8,0:0:0:0:
256,128,85140,1,0,0:0:0:0:
256,128,85489,1,8,0:0:0:0:
256,128,85663,1,8,0:0:0:0:
256,128,85837,1,0,0:0:0:0:
256,128,86012,1,0,0:0:0:0:
256,128,86186,1,8,0:0:0:0:
256,128,86361,1,8,0:0:0:0:
256,128,86535,1,0,0:0:0:0:
256,128,86768,1,0,0:0:0:0:
256,128,86884,1,8,0:0:0:0:
256,128,87117,1,8,0:0:0:0:
256,128,87233,1,0,0:0:0:0:
256,128,87582,1,8,0:0:0:0:
256,128,87930,1,12,0:0:0:0:
256,128,88105,1,12,0:0:0:0:
256,128,88279,1,12,0:0:0:0:
256,128,88454,1,12,0:0:0:0:
256,128,88628,1,0,0:0:0:0:
256,128,88977,1,8,0:0:0:0:
256,128,89151,1,8,0:0:0:0:
256,128,89326,1,4,0:0:0:0:
256,128,89675,1,8,0:0:0:0:
256,128,90024,1,0,0:0:0:0:
256,128,90198,1,0,0:0:0:0:
256,128,90372,1,8,0:0:0:0:
256,128,90547,1,8,0:0:0:0:
256,128,90721,1,0,0:0:0:0:
256,128,90896,1,0,0:0:0:0:
256,128,91070,1,8,0:0:0:0:
256,128,91419,1,0,0:0:0:0:
256,128,91593,1,0,0:0:0:0:
256,128,91768,1,8,0:0:0:0:
256,128,91942,1,8,0:0:0:0:
256,128,92117,1,0,0:0:0:0:
256,128,92465,1,8,0:0:0:0:
256,128,92640,1,0,0:0:0:0:
256,128,92814,1,0,0:0:0:0:
256,128,93163,1,8,0:0:0:0:
256,128,93337,1,8,0:0:0:0:
256,128,93512,1,0,0:0:0:0:
256,128,93861,1,8,0:0:0:0:
256,128,94035,1,8,0:0:0:0:
256,128,94210,1,0,0:0:0:0:
256,128,94297,1,0,0:0:0:0:
256,128,94384,1,0,0:0:0:0:
256,128,94558,1,8,0:0:0:0:
256,128,94907,1,4,0:0:0:0:
256,128,95256,1,8,0:0:0:0:
256,128,95605,1,0,0:0:0:0:
256,128,95780,1,0,0:0:0:0:
256,128,95954,1,8,0:0:0:0:
256,128,96128,1,8,0:0:0:0:
256,128,96303,1,0,0:0:0:0:
256,128,96477,1,0,0:0:0:0:
256,128,96652,1,8,0:0:0:0:
256,128,97000,1,0,0:0:0:0:
256,128,97175,1,0,0:0:0:0:
256,128,97349,1,8,0:0:0:0:
256,128,97524,1,8,0:0:0:0:
256,128,97698,1,0,0:0:0:0:
256,128,97931,1,0,0:0:0:0:
256,128,98047,1,8,0:0:0:0:
256,128,98280,1,8,0:0:0:0:
256,128,98396,1,0,0:0:0:0:
256,128,98745,1,8,0:0:0:0:
256,128,99093,1,12,0:0:0:0:
256,128,99268,1,12,0:0:0:0:
256,128,99442,1,12,0:0:0:0:
256,128,99617,1,12,0:0:0:0:
256,128,99791,1,0,0:0:0:0:
256,128,100489,1,12,0:0:0:0:
256,128,100837,1,8,0:0:0:0:
256,128,101186,1,0,0:0:0:0:
256,128,101361,1,0,0:0:0:0:
256,128,101535,1,8,0:0:0:0:
256,128,101710,1,8,0:0:0:0:
256,128,101884,1,0,0:0:0:0:
256,128,102233,1,8,0:0:0:0:
256,128,102582,1,0,0:0:0:0:
256,128,102756,1,0,0:0:0:0:
256,128,102930,1,8,0:0:0:0:
256,128,103105,1,0,0:0:0:0:
256,128,103279,1,0,0:0:0:0:
256,128,103628,1,8,0:0:0:0:
256,128,103977,1,0,0:0:0:0:
256,128,104151,1,8,0:0:0:0:
256,128,104326,1,8,0:0:0:0:
256,128,104500,1,0,0:0:0:0:
256,128,104675,1,0,0:0:0:0:
256,128,105024,1,8,0:0:0:0:
256,128,105372,1,0,0:0:0:0:
256,128,105547,1,8,0:0:0:0:
256,128,105721,1,8,0:0:0:0:
256,128,105896,1,0,0:0:0:0:
256,128,106070,1,12,0:0:0:0:
256,128,106419,1,8,0:0:0:0:
256,128,106768,1,0,0:0:0:0:
256,128,106943,1,8,0:0:0:0:
256,128,107117,1,8,0:0:0:0:
256,128,107292,1,8,0:0:0:0:
256,128,107466,1,0,0:0:0:0:
256,128,107815,1,8,0:0:0:0:
256,128,108164,1,0,0:0:0:0:
256,128,108338,1,8,0:0:0:0:
256,128,108512,1,8,0:0:0:0:
256,128,108687,1,0,0:0:0:0:
256,128,108861,1,0,0:0:0:0:
256,128,109210,1,8,0:0:0:0:
256,128,109559,1,0,0:0:0:0:
256,128,109733,1,8,0:0:0:0:
256,128,109908,1,8,0:0:0:0:
256,128,110257,1,8,0:0:0:0:
256,128,110431,1,8,0:0:0:0:
256,128,110606,1,0,0:0:0:0:
256,128,110779,1,0,0:0:0:0:
256,128,110954,1,8,0:0:0:0:
256,128,111652,1,12,0:0:0:0:
256,128,112000,1,8,0:0:0:0:
256,128,112349,1,0,0:0:0:0:
256,128,112524,1,0,0:0:0:0:
256,128,112698,1,8,0:0:0:0:
256,128,112873,1,8,0:0:0:0:
256,128,113047,1,0,0:0:0:0:
256,128,113221,1,0,0:0:0:0:
256,128,113396,1,8,0:0:0:0:
256,128,113745,1,0,0:0:0:0:
256,128,113919,1,0,0:0:0:0:
256,128,114093,1,8,0:0:0:0:
256,128,114268,1,0,0:0:0:0:
256,128,114442,1,0,0:0:0:0:
256,128,114617,1,0,0:0:0:0:
256,128,114791,1,8,0:0:0:0:
256,128,115140,1,0,0:0:0:0:
256,128,115314,1,8,0:0:0:0:
256,128,115489,1,8,0:0:0:0:
256,128,115663,1,0,0:0:0:0:
256,128,115838,1,0,0:0:0:0:
256,128,116012,1,0,0:0:0:0:
256,128,116187,1,8,0:0:0:0:
256,128,116535,1,0,0:0:0:0:
256,128,116710,1,8,0:0:0:0:
256,128,116884,1,8,0:0:0:0:
256,128,117059,1,0,0:0:0:0:
256,128,117233,1,12,0:0:0:0:
256,128,117581,1,8,0:0:0:0:
256,128,117930,1,0,0:0:0:0:
256,128,118105,1,0,0:0:0:0:
256,128,118279,1,8,0:0:0:0:
256,128,118454,1,8,0:0:0:0:
256,128,118628,1,0,0:0:0:0:
256,128,118977,1,8,0:0:0:0:
256,128,119326,1,0,0:0:0:0:
256,128,119500,1,0,0:0:0:0:
256,128,119674,1,8,0:0:0:0:
256,128,119849,1,0,0:0:0:0:
256,128,120023,1,0,0:0:0:0:
256,128,120372,1,8,0:0:0:0:
256,128,120721,1,0,0:0:0:0:
256,128,120895,1,8,0:0:0:0:
256,128,121070,1,8,0:0:0:0:
256,128,121244,1,0,0:0:0:0:
256,128,121419,1,12,0:0:0:0:
256,128,121768,1,8,0:0:0:0:
256,128,122116,1,0,0:0:0:0:
256,128,122291,1,0,0:0:0:0:
256,128,122465,1,8,0:0:0:0:
256,128,122640,1,8,0:0:0:0:
256,128,122814,1,4,0:0:0:0:
256,192,122989,12,0,133977,0:0:0:0:
