osu file format v14

[General]
AudioFilename: audio.mp3
AudioLeadIn: 0
PreviewTime: 81465
Countdown: 0
SampleSet: Soft
StackLeniency: 0.6
Mode: 0
LetterboxInBreaks: 0
WidescreenStoryboard: 0

[Editor]
DistanceSpacing: 1.7
BeatDivisor: 4
GridSize: 4
TimelineZoom: 2.1

[Metadata]
Title:Nightmare
TitleUnicode:Nightmare
Artist:Mediks
ArtistUnicode:Mediks
Creator:Strategas
Version:Skubi's Normal
Source:
Tags:dnb drum and & bass 2012 outbreak ep edm DeRandom Otaku CptSqBany
BeatmapID:1258268
BeatmapSetID:550808

[Difficulty]
HPDrainRate:4
CircleSize:3.5
OverallDifficulty:5
ApproachRate:5
SliderMultiplier:1.2
SliderTickRate:1

[Events]
//Background and Video events
0,0,"nightmare.jpg",0,0
//Break Periods
2,49485,53666
2,102508,103376
//Storyboard Layer 0 (Background)
//Storyboard Layer 1 (Fail)
//Storyboard Layer 2 (Pass)
//Storyboard Layer 3 (Foreground)
//Storyboard Sound Samples

[TimingPoints]
26960,348.837209302326,4,2,25,100,1,0
54866,-133.333333333333,4,2,25,100,0,0
60448,-133.333333333333,4,2,25,100,0,1
63239,-133.333333333333,4,2,25,100,0,0
66029,-133.333333333333,4,2,25,100,0,1
68820,-133.333333333333,4,2,25,100,0,0
71611,-133.333333333333,4,2,25,100,0,1
74401,-133.333333333333,4,2,25,100,0,0
77192,-133.333333333333,4,2,25,100,0,1
79983,-133.333333333333,4,2,25,100,0,0
81378,-133.333333333333,4,2,25,5,0,0
82773,-133.333333333333,4,2,25,100,0,1
85564,-133.333333333333,4,2,25,100,0,0
88355,-133.333333333333,4,2,25,100,0,1
91146,-133.333333333333,4,2,25,100,0,0
93936,-133.333333333333,4,2,25,100,0,1
96727,-133.333333333333,4,2,25,100,0,0
99518,-133.333333333333,4,2,25,100,0,1
102308,-133.333333333333,4,2,25,100,0,0
104227,-133.333333333333,4,2,25,5,0,0
104576,-133.333333333333,4,2,25,50,0,0
105095,348.837209302326,4,2,25,50,1,0
105095,-133.333333333333,4,2,25,50,0,0
130124,-133.333333333333,4,2,25,5,0,0

[Colours]
Combo1 : 183,11,36
Combo2 : 138,138,138
Combo3 : 111,55,0

[HitObjects]
140,104,49285,5,4,3:2:0:0:
40,48,54866,6,0,L|86:140,1,90.0000034332277,0|0,3:0|1:0,0:0:0:0:
180,336,55739,2,0,L|204:286,1,45.0000017166138,0|0,3:0|1:0,0:0:0:0:
308,92,56436,2,0,L|252:96,1,45.0000017166138,0|0,3:0|1:0,0:0:0:0:
33,104,57134,2,0,L|64:149,1,45.0000017166138,0|0,3:0|1:0,0:0:0:0:
188,220,57657,6,0,P|200:176|192:144,2,67.5000025749207,0|0|0,3:0|3:0|3:0,0:0:0:0:
136,276,58355,2,0,P|124:320|140:368,1,90.0000034332277,0|0,3:0|3:0,0:0:0:0:
188,220,59053,1,4,3:0:0:0:
206,322,60099,1,8,1:0:0:0:
206,322,60448,6,0,B|148:292,2,45.0000017166138,4|0|8,3:2|0:0|1:0,0:0:0:0:
276,352,60971,1,2,0:0:0:0:
352,360,61146,2,0,P|344:315|313:284,1,90.0000034332277,2|8,0:2|1:0,0:0:0:0:
192,192,61843,6,0,P|193:141|228:98,1,90.0000034332277,0|8,3:0|1:0,0:0:0:0:
268,168,62366,1,0,0:0:0:0:
355,144,62541,2,0,L|344:188,1,45.0000017166138,2|2,0:0|3:2,0:0:0:0:
428,172,62890,2,0,L|439:128,1,45.0000017166138,8|4,1:0|0:3,0:0:0:0:
460,56,63239,1,2,3:2:0:0:
460,56,63587,5,8,1:0:0:0:
316,4,63936,1,2,0:0:0:0:
268,148,64285,1,8,1:0:0:0:
412,200,64634,1,2,0:0:0:0:
460,56,64983,1,8,1:0:0:0:
316,4,65332,1,2,0:0:0:0:
268,148,65680,1,8,1:0:0:0:
268,148,66029,6,0,B|314:165,2,45.0000017166138,4|0|8,3:2|0:0|1:0,0:0:0:0:
196,120,66553,1,2,0:0:0:0:
124,92,66727,2,0,P|121:143|141:176,1,90.0000034332277,2|8,0:0|1:0,0:0:0:0:
272,256,67425,6,0,L|252:296,1,45.0000017166138,0|2,3:0|0:0,0:0:0:0:
324,324,67773,2,0,L|344:284,1,45.0000017166138,8|0,1:0|0:0,0:0:0:0:
416,312,68122,2,0,L|396:352,1,45.0000017166138,2|2,0:0|3:2,0:0:0:0:
468,380,68471,2,0,L|488:340,1,45.0000017166138,8|0,1:0|0:0,0:0:0:0:
476,264,68820,1,2,3:2:0:0:
380,144,69169,6,0,B|332:164|332:164|276:156,1,90.0000034332277,8|2,1:0|0:0,0:0:0:0:
148,132,69866,1,8,1:0:0:0:
148,132,70215,6,0,B|112:136|112:136|72:164,2,67.5000025749207,2|2|0,3:2|0:0|0:0,0:0:0:0:
360,40,71262,1,0,3:0:0:0:
260,156,71611,6,0,B|280:176|280:176|292:200,2,45.0000017166138,4|0|8,3:2|0:0|1:0,0:0:0:0:
196,112,72134,1,2,0:0:0:0:
128,76,72308,2,0,P|118:111|136:162,1,90.0000034332277,2|8,0:0|1:0,0:0:0:0:
236,276,73006,6,0,P|229:317|257:368,1,90.0000034332277,0|8,3:0|1:0,0:0:0:0:
308,308,73529,1,0,0:0:0:0:
379,283,73704,2,0,P|396:298|417:307,1,45.0000017166138,2|2,0:0|3:2,0:0:0:0:
438,233,74053,2,0,P|473:237|498:229,1,45.0000017166138,8|2,1:0|0:0,0:0:0:0:
462,160,74401,1,2,3:2:0:0:
316,112,74750,5,8,1:0:0:0:
164,144,75099,1,2,0:0:0:0:
192,296,75448,1,8,1:0:0:0:
344,264,75797,1,2,0:0:0:0:
316,112,76146,1,8,1:0:0:0:
164,144,76495,1,2,0:0:0:0:
192,296,76843,1,8,1:0:0:0:
192,296,77192,6,0,L|236:287,2,45.0000017166138,0|0|8,3:0|0:0|1:0,0:0:0:0:
115,307,77715,1,2,0:0:0:0:
39,318,77890,2,0,P|47:267|81:236,1,90.0000034332277,2|8,0:0|1:0,0:0:0:0:
204,160,78587,6,0,P|216:128|216:112,1,45.0000017166138,0|0,3:0|0:0,0:0:0:0:
228,40,78936,2,0,P|260:52|276:52,1,45.0000017166138,8|2,1:0|0:0,0:0:0:0:
348,60,79285,2,0,P|336:92|336:108,1,45.0000017166138,2|0,0:0|3:0,0:0:0:0:
324,180,79634,1,8,1:0:0:0:
256,192,79983,12,0,81378,0:0:0:0:
428,144,82773,6,0,P|436:180|432:208,2,45.0000017166138,4|0|8,3:2|0:0|0:1,0:0:0:0:
338,70,83384,2,0,P|281:66|222:92,1,112.500004291535,2|8,3:2|0:1,0:0:0:0:
172,184,84082,2,0,P|168:240|194:300,1,112.500004291535,0|8,3:0|0:1,0:0:0:0:
292,336,84779,2,0,P|348:339|408:314,1,112.500004291535,0|8,3:0|0:1,0:0:0:0:
476,188,85564,1,2,3:2:0:0:
476,188,85913,5,8,1:0:0:0:
452,340,86262,1,2,0:0:0:0:
300,312,86611,1,8,1:0:0:0:
324,160,86960,1,2,0:0:0:0:
476,188,87308,1,8,1:0:0:0:
452,340,87657,1,2,0:0:0:0:
300,312,88006,1,8,1:0:0:0:
300,312,88355,6,0,L|308:264,2,45.0000017166138,4|0|8,3:2|0:0|1:0,0:0:0:0:
240,360,88878,1,2,0:0:0:0:
164,344,89053,2,0,P|187:302|239:283,1,90.0000034332277,2|8,0:0|1:0,0:0:0:0:
356,208,89750,6,0,P|364:184|364:156,1,45.0000017166138,0|0,3:0|0:0,0:0:0:0:
332,96,90099,2,0,P|308:88|280:88,1,45.0000017166138,8|0,1:0|0:0,0:0:0:0:
224,128,90448,2,0,P|216:152|216:180,1,45.0000017166138,2|0,0:0|3:0,0:0:0:0:
248,240,90797,2,0,P|272:248|300:248,1,45.0000017166138,8|0,1:0|0:0,0:0:0:0:
356,208,91146,1,2,3:2:0:0:
356,208,91494,6,0,P|368:256|346:304,1,90.0000034332277,8|2,1:0|0:0,0:0:0:0:
224,376,92192,1,8,1:0:0:0:
88,308,92541,6,0,B|48:308|48:308|12:292,2,67.5000025749207,2|2|0,3:2|0:0|0:0,0:0:0:0:
156,88,93587,1,0,3:0:0:0:
264,196,93936,6,0,L|264:244,2,45.0000017166138,4|0|8,3:2|0:0|1:0,0:0:0:0:
276,120,94460,1,2,0:0:0:0:
340,76,94634,2,0,P|352:109|337:169,1,90.0000034332277,2|8,0:0|1:0,0:0:0:0:
304,312,95332,6,0,B|332:316|332:316|356:332,1,45.0000017166138,0|2,3:0|0:0,0:0:0:0:
422,325,95680,2,0,B|450:321|450:321|474:305,1,45.0000017166138,8|0,1:0|0:0,0:0:0:0:
463,234,96029,2,0,B|435:230|435:230|411:214,1,45.0000017166138,2|0,0:0|3:0,0:0:0:0:
345,221,96378,2,0,B|317:225|317:225|293:241,1,45.0000017166138,8|0,1:0|0:0,0:0:0:0:
236,273,96727,1,2,3:2:0:0:
104,352,97076,5,8,1:0:0:0:
32,216,97425,1,2,0:0:0:0:
164,137,97774,1,8,1:0:0:0:
236,273,98122,1,2,0:0:0:0:
104,352,98471,1,8,1:0:0:0:
32,216,98820,1,2,0:0:0:0:
164,137,99169,1,8,1:0:0:0:
164,137,99518,6,0,L|112:172,2,45.0000017166138,0|0|8,3:0|0:0|1:0,0:0:0:0:
228,176,100041,1,2,0:0:0:0:
283,121,100215,2,0,P|304:159|300:204,1,90.0000034332277,2|8,0:0|1:0,0:0:0:0:
252,348,100913,6,0,L|292:326,1,45.0000017166138,0|0,3:0|0:0,0:0:0:0:
355,287,101262,2,0,L|394:265,1,45.0000017166138,8|0,1:0|0:0,0:0:0:0:
460,228,101611,2,0,L|438:188,1,45.0000017166138,2|0,0:0|3:0,0:0:0:0:
400,124,101960,2,0,L|377:85,1,45.0000017166138,8|0,1:0|0:0,0:0:0:0:
335,13,102308,1,0,3:0:0:0:
132,236,104576,6,0,P|111:221|80:212,2,45.0000017166138,0|8|0,3:0|1:0|3:0,0:0:0:0:
200,268,105095,6,0,L|253:278,1,45.0000017166138,4|0,3:2|0:0,0:0:0:0:
320,288,105443,1,8,1:0:0:0:
392,152,105792,2,0,L|436:160,2,45.0000017166138,2|0|8,0:0|3:0|0:1,0:0:0:0:
244,108,106490,2,0,L|252:197,1,90.0000034332277,0|8,3:0|1:0,0:0:0:0:
264,368,107188,2,0,L|210:342,1,45.0000017166138,2|0,0:0|3:0,0:0:0:0:
156,312,107536,1,8,1:0:0:0:
100,168,107885,6,0,L|92:112,2,45.0000017166138,0|0|8,3:0|0:0|1:0,0:0:0:0:
224,260,108583,2,0,L|232:204,1,45.0000017166138,2|0,0:0|3:0,0:0:0:0:
240,140,108932,1,8,1:0:0:0:
344,28,109281,2,0,L|356:128,1,90.0000034332277,0|8,3:0|1:0,0:0:0:0:
364,192,109804,2,0,P|420:196|452:172,1,90.0000034332277,2|0,0:0|3:0,0:0:0:0:
484,112,110327,1,8,1:0:0:0:
500,264,110676,6,0,B|472:256|472:256|445:271|409:276,1,90.0000034332277,0|8,3:0|1:0,0:0:0:0:
260,264,111374,2,0,L|208:280,1,45.0000017166138,2|0,0:0|3:0,0:0:0:0:
144,300,111722,1,8,1:0:0:0:
16,216,112071,2,0,P|28:152|44:136,1,90.0000034332277,0|8,3:0|1:0,0:0:0:0:
196,136,112769,2,0,P|208:164|212:192,2,45.0000017166138,2|0|8,0:0|3:0|1:0,0:0:0:0:
116,4,113467,6,0,L|168:8,1,45.0000017166138,0|0,3:0|0:0,0:0:0:0:
236,16,113815,1,8,1:0:0:0:
380,64,114164,2,0,L|424:60,2,45.0000017166138,2|0|8,0:0|3:0|1:0,0:0:0:0:
228,92,114862,2,0,L|224:144,1,45.0000017166138,0|0,3:0|0:0,0:0:0:0:
216,212,115210,1,8,1:0:0:0:
124,336,115560,2,0,L|80:356,2,45.0000017166138,2|0|8,0:0|3:0|1:0,0:0:0:0:
276,312,116257,6,0,L|320:292,1,45.0000017166138,6|0,0:0|0:0,0:0:0:0:
396,280,116606,1,8,1:0:0:0:
464,140,116955,2,0,L|456:80,2,45.0000017166138,2|0|8,0:0|3:0|1:0,0:0:0:0:
476,292,117653,2,0,P|442:348|406:362,1,90.0000034332277,0|8,3:0|1:0,0:0:0:0:
276,308,118350,2,0,L|268:264,1,45.0000017166138,2|0,0:0|3:0,0:0:0:0:
252,188,118699,1,8,1:0:0:0:
300,44,119048,6,0,L|332:4,2,45.0000017166138,0|0|8,3:0|0:0|1:0,0:0:0:0:
184,148,119746,2,0,L|136:140,1,45.0000017166138,2|0,0:0|3:0,0:0:0:0:
64,128,120095,1,8,1:0:0:0:
175,225,120443,2,0,P|235:207|257:175,1,90.0000034332277,0|8,3:0|1:0,0:0:0:0:
288,120,120967,2,0,P|320:89|364:82,1,90.0000034332277,2|0,0:0|3:0,0:0:0:0:
440,100,121490,1,8,1:0:0:0:
472,248,121839,6,0,B|428:232|428:232|376:248,1,90.0000034332277,0|8,3:0|1:0,0:0:0:0:
244,300,122537,2,0,L|192:316,1,45.0000017166138,2|0,0:0|3:0,0:0:0:0:
128,336,122885,1,8,1:0:0:0:
16,232,123234,2,0,P|28:168|44:152,1,90.0000034332277,0|8,3:0|1:0,0:0:0:0:
196,144,123932,2,0,L|224:192,2,45.0000017166138,2|0|8,0:0|3:0|1:0,0:0:0:0:
108,16,124630,6,0,P|160:28|208:20,1,90.0000034332277,0|8,3:0|1:0,0:0:0:0:
348,20,125327,1,2,0:0:0:0:
348,20,125501,2,0,L|356:72,1,45.0000017166138,0|8,3:0|1:0,0:0:0:0:
376,216,126025,6,0,B|304:272|304:272|236:217|236:217|160:276,1,270.000010299683,2|2,3:2|0:0,0:0:0:0:
256,192,127420,12,0,130211,0:0:0:0:
