osu file format v14

[General]
AudioFilename: audio.mp3
AudioLeadIn: 0
PreviewTime: 81465
Countdown: 0
SampleSet: Soft
StackLeniency: 0.5
Mode: 0
LetterboxInBreaks: 0
WidescreenStoryboard: 0

[Editor]
DistanceSpacing: 1.3
BeatDivisor: 8
GridSize: 32
TimelineZoom: 3.599998

[Metadata]
Title:Nightmare
TitleUnicode:Nightmare
Artist:Mediks
ArtistUnicode:Mediks
Creator:Strategas
Version:Ren's Insane
Source:
Tags:dnb drum and & bass 2012 outbreak ep edm DeRandom Otaku CptSqBany
BeatmapID:1276997
BeatmapSetID:550808

[Difficulty]
HPDrainRate:5
CircleSize:2.7
OverallDifficulty:7.2
ApproachRate:9
SliderMultiplier:1.9
SliderTickRate:1

[Events]
//Background and Video events
0,0,"nightmare.jpg",0,0
//Break Periods
2,80183,82173
2,102508,103976
//Storyboard Layer 0 (Background)
//Storyboard Layer 1 (Fail)
//Storyboard Layer 2 (Pass)
//Storyboard Layer 3 (Foreground)
//Storyboard Sound Samples

[TimingPoints]
26960,348.837209302326,4,1,25,100,1,0
43704,-200,4,2,25,40,0,0
50244,-200,4,2,25,20,0,0
51553,-133.333333333333,4,2,25,40,0,0
51901,-133.333333333333,4,2,25,15,0,0
52076,-133.333333333333,4,2,25,40,0,0
54866,-133.333333333333,4,2,25,50,0,0
60099,-133.333333333333,4,2,25,60,0,0
60448,-83.3333333333333,4,2,25,70,0,1
63239,-76.9230769230769,4,2,25,70,0,1
63500,-66.6666666666667,4,2,25,5,0,1
63587,-90.9090909090909,4,2,25,70,0,1
66029,-83.3333333333333,4,2,25,70,0,1
68820,-76.9230769230769,4,2,25,70,0,1
69082,-66.6666666666667,4,2,25,5,0,1
69169,-90.9090909090909,4,2,25,70,0,1
70215,-71.4285714285714,4,2,25,70,0,1
70477,-62.5,4,2,25,70,0,1
70739,-55.5555555555556,4,2,25,70,0,1
71000,-50,4,2,25,70,0,1
71611,-83.3333333333333,4,2,25,70,0,1
74401,-66.6666666666667,4,2,25,70,0,1
74750,-90.9090909090909,4,2,25,70,0,1
79983,-200,4,2,25,20,0,0
82773,-100,4,2,25,65,0,0
85564,-83.3333333333333,4,2,25,70,0,0
85826,-66.6666666666667,4,2,25,5,0,0
85913,-100,4,2,25,65,0,0
91146,-76.9230769230769,4,2,25,65,0,0
91494,-100,4,2,25,65,0,0
92541,-71.4285714285714,4,2,25,70,0,0
92803,-62.5,4,2,25,70,0,0
93065,-55.5555555555556,4,2,25,70,0,0
93326,-50,4,2,25,70,0,0
93936,-83.3333333333333,4,2,25,70,0,0
96727,-80,4,2,25,50,0,0
97076,-100,4,2,25,50,0,0
105095,348.837209302326,4,2,25,50,1,0
105095,-117.647058823529,4,2,25,50,0,0
126025,-133.333333333333,4,2,25,50,0,0

[Colours]
Combo1 : 204,0,0
Combo2 : 89,89,89
Combo3 : 89,45,0

[HitObjects]
256,192,43704,5,4,0:0:0:0:
256,192,43791,12,0,49111,0:0:0:0:
256,192,49285,5,4,3:2:0:0:
256,192,50855,1,0,3:0:0:0:
79,47,51553,2,0,L|80:199,1,142.500005435944,0|0,3:0|1:0,0:0:0:0:
83,277,52076,5,0,3:0:0:0:
256,232,52425,1,0,1:0:0:0:
256,232,52948,5,0,3:0:0:0:
256,328,53122,1,0,1:0:0:0:
256,136,53646,5,0,3:0:0:0:
256,232,53820,1,0,1:0:0:0:
256,40,54343,5,0,3:0:0:0:
256,136,54517,1,0,1:0:0:0:
256,328,54866,5,0,3:0:0:0:
256,40,55215,1,0,1:0:0:0:
377,40,55739,5,0,3:0:0:0:
256,40,55914,1,0,1:0:0:0:
136,160,56436,5,0,3:0:0:0:
257,160,56611,1,0,1:0:0:0:
377,280,57134,5,0,3:0:0:0:
256,280,57309,1,0,1:0:0:0:
385,192,57657,5,0,3:0:0:0:
407,192,57744,1,0,3:0:0:0:
429,192,57831,1,0,3:0:0:0:
451,192,57918,1,0,3:0:0:0:
474,192,58006,5,0,3:0:0:0:
474,169,58093,1,0,3:0:0:0:
474,147,58180,1,0,3:0:0:0:
474,125,58267,1,0,3:0:0:0:
474,102,58355,5,0,3:0:0:0:
451,102,58442,1,0,3:0:0:0:
429,102,58529,1,0,3:0:0:0:
407,102,58616,1,0,3:0:0:0:
384,102,58704,5,0,3:0:0:0:
384,124,58791,1,0,3:0:0:0:
384,146,58878,1,0,3:0:0:0:
384,168,58965,1,0,3:0:0:0:
384,192,59052,5,4,3:0:0:0:
384,192,60099,1,8,1:0:0:0:
128,192,60448,5,4,3:2:0:0:
140,293,60622,1,0,0:0:0:0:
116,91,60797,1,8,1:0:0:0:
28,254,60971,1,2,0:0:0:0:
62,249,61058,1,2,0:0:0:0:
245,231,61233,1,2,0:0:0:0:
211,236,61320,1,2,3:2:0:0:
331,165,61494,2,0,P|352:216|338:288,1,113.999996520996,8|0,1:0|0:0,0:0:0:0:
270,78,61843,6,0,L|397:81,2,113.999996520996,0|0|8,3:0|0:0|1:0,0:0:0:0:
130,76,62366,1,0,0:0:0:0:
130,76,62454,1,0,0:0:0:0:
130,76,62541,1,2,0:0:0:0:
189,177,62715,1,2,3:2:0:0:
60,190,62890,1,8,1:0:0:0:
61,225,62977,1,4,0:3:0:0:
62,261,63064,1,4,0:3:0:0:
63,296,63151,1,4,0:3:0:0:
64,332,63239,6,0,B|123:312|123:312|252:327,1,185.249991519928,2|0,3:2|0:0,0:0:0:0:
330,293,63587,6,0,P|325:257|333:216,2,69.6666687927247,8|0|0,1:0|0:0|0:0,0:0:0:0:
423,259,63936,2,0,P|428:223|420:182,2,69.6666687927247,2|0|0,0:0|0:0|0:0,0:0:0:0:
330,224,64285,2,0,P|325:188|333:147,2,69.6666687927247,8|0|0,1:0|0:0|0:0,0:0:0:0:
407,88,64634,5,2,0:0:0:0:
383,71,64750,1,0,0:0:0:0:
356,60,64866,1,0,0:0:0:0:
327,56,64982,5,8,1:0:0:0:
299,61,65099,1,0,0:0:0:0:
272,73,65215,1,0,0:0:0:0:
247,88,65331,5,2,0:0:0:0:
223,104,65447,1,0,0:0:0:0:
198,118,65564,1,0,0:0:0:0:
171,128,65680,5,8,1:0:0:0:
142,129,65796,1,0,0:0:0:0:
114,121,65913,1,0,0:0:0:0:
90,104,66029,6,0,L|93:235,1,113.999996520996,4|0,3:2|0:0,0:0:0:0:
141,348,66378,1,8,1:0:0:0:
208,205,66553,1,2,0:0:0:0:
206,246,66640,1,2,0:0:0:0:
90,104,66814,1,2,0:0:0:0:
92,145,66901,1,2,3:2:0:0:
146,31,67076,2,0,P|99:13|32:32,1,113.999996520996,8|2,1:0|0:0,0:0:0:0:
208,205,67425,6,0,L|337:202,1,113.999996520996,0|2,3:0|0:0,0:0:0:0:
447,203,67773,1,8,1:0:0:0:
385,93,67948,1,0,0:0:0:0:
385,93,68035,1,0,0:0:0:0:
385,93,68122,1,2,0:0:0:0:
322,202,68297,1,2,3:2:0:0:
383,313,68471,1,8,1:0:0:0:
356,323,68558,1,0,0:0:0:0:
328,327,68645,1,0,0:0:0:0:
299,325,68732,1,0,0:0:0:0:
272,317,68820,6,0,P|194:271|121:318,1,185.249991519928,2|0,3:2|0:0,0:0:0:0:
47,288,69169,6,0,P|72:247|103:222,2,69.6666687927247,8|0|0,1:0|0:0|0:0,0:0:0:0:
160,195,69518,2,0,P|202:190|245:199,2,69.6666687927247,2|0|0,0:0|0:0|0:0,0:0:0:0:
301,227,69866,2,0,P|333:261|349:298,2,69.6666687927247,8|0|0,1:0|0:0|0:0,0:0:0:0:
360,365,70215,5,2,3:2:0:0:
387,135,70477,1,2,0:0:0:0:
152,365,70739,5,2,0:0:0:0:
125,135,71001,1,2,0:0:0:0:
256,320,71262,5,0,0:0:0:0:
256,284,71349,1,0,3:0:0:0:
256,248,71436,1,0,3:0:0:0:
256,213,71523,1,0,3:0:0:0:
256,177,71611,6,0,L|256:41,1,113.999996520996,4|0,3:2|0:0,0:0:0:0:
367,192,71960,1,8,1:0:0:0:
145,192,72134,1,2,0:0:0:0:
125,222,72221,1,2,0:0:0:0:
256,320,72396,1,2,0:0:0:0:
256,284,72483,1,2,3:2:0:0:
256,63,72657,2,0,L|256:183,1,113.999996520996,8|0,1:0|0:0,0:0:0:0:
367,306,73006,6,0,L|367:186,1,113.999996520996,0|0,3:0|0:0,0:0:0:0:
367,78,73355,1,8,1:0:0:0:
256,177,73529,1,0,0:0:0:0:
256,177,73616,1,0,0:0:0:0:
256,177,73704,1,2,0:0:0:0:
145,78,73878,1,2,3:2:0:0:
34,177,74053,1,8,1:0:0:0:
45,210,74140,1,0,0:0:0:0:
51,245,74227,1,2,0:0:0:0:
49,281,74314,1,0,0:0:0:0:
40,315,74401,6,0,B|107:290|107:290|178:290|178:290|246:256,1,213.750008153916,2|0,3:2|0:0,0:0:0:0:
314,211,74750,6,0,P|326:253|318:301,2,69.6666687927247,8|0|0,1:0|0:0|0:0,0:0:0:0:
234,167,75099,2,0,P|255:128|294:100,2,69.6666687927247,2|0|0,0:0|0:0|0:0,0:0:0:0:
242,258,75448,2,0,P|200:270|152:262,2,69.6666687927247,8|0|0,1:0|0:0|0:0,0:0:0:0:
314,211,75797,6,0,L|399:208,2,69.6666687927247,2|0|0,0:0|0:0|0:0,0:0:0:0:
330,373,76146,2,0,L|399:370,2,69.6666687927247,8|0|0,1:0|0:0|0:0,0:0:0:0:
306,130,76494,2,0,L|391:127,2,69.6666687927247,2|0|0,0:0|0:0|0:0,0:0:0:0:
322,292,76843,2,0,L|391:289,2,69.6666687927247,8|0|0,1:0|0:0|0:0,0:0:0:0:
174,268,77192,6,0,L|48:278,1,104.500003189087,0|0,3:0|0:0,0:0:0:0:
232,192,77541,1,8,1:0:0:0:
69,107,77715,1,2,0:0:0:0:
75,81,77803,1,2,0:0:0:0:
69,276,77977,1,2,0:0:0:0:
75,303,78065,1,2,3:2:0:0:
232,192,78239,2,0,L|104:192,1,104.500003189087,8|0,1:0|0:0,0:0:0:0:
288,320,78587,6,0,L|416:320,1,104.500003189087,0|0,3:0|0:0,0:0:0:0:
478,239,78936,1,8,1:0:0:0:
381,191,79111,1,2,0:0:0:0:
376,152,79198,1,0,0:0:0:0:
386,114,79285,1,2,0:0:0:0:
409,83,79372,1,0,0:0:0:0:
443,62,79459,1,0,3:0:0:0:
381,191,79634,2,0,P|328:191|270:171,1,104.500003189087,8|0,1:0|0:0,0:0:0:0:
472,158,79983,5,0,3:0:0:0:
472,158,82773,6,0,L|473:285,1,95,4|0,3:2|0:0,0:0:0:0:
391,333,83122,1,8,1:0:0:0:
310,252,83297,1,2,0:0:0:0:
310,252,83384,2,0,B|261:244|261:244|211:251,1,95,2|2,3:2|3:2,0:0:0:0:
216,250,83646,1,2,0:0:0:0:
115,303,83820,2,0,P|104:246|119:198,1,95,8|0,1:0|0:0,0:0:0:0:
123,154,84082,5,0,3:0:0:0:
236,163,84256,2,0,B|243:115|243:115|237:59,1,95,0|0,3:0|0:0,0:0:0:0:
232,11,84518,2,0,L|353:14,1,95,8|0,1:0|0:0,0:0:0:0:
383,16,84779,1,0,3:0:0:0:
472,87,84954,2,0,P|455:130|455:186,1,95,0|0,0:0|3:0,0:0:0:0:
462,200,85215,1,8,1:0:0:0:
467,224,85302,1,4,0:3:0:0:
467,247,85389,1,4,0:3:0:0:
463,271,85476,1,4,0:3:0:0:
456,293,85564,6,0,B|396:278|396:278|268:288,1,170.999994781494,2|0,3:2|0:0,0:0:0:0:
205,316,85913,6,0,L|207:250,2,63.3333333333333,8|0|0,1:0|0:0|0:0,0:0:0:0:
121,254,86262,2,0,L|119:190,2,63.3333333333333,2|0|0,0:0|0:0|0:0,0:0:0:0:
205,192,86611,2,0,L|207:126,2,63.3333333333333,8|0|0,1:0|0:0|0:0,0:0:0:0:
121,130,86960,5,2,0:0:0:0:
134,79,87076,1,0,0:0:0:0:
174,46,87192,1,0,0:0:0:0:
226,41,87308,5,8,1:0:0:0:
271,67,87425,1,0,0:0:0:0:
293,114,87541,1,0,0:0:0:0:
285,165,87657,5,2,0:0:0:0:
276,216,87773,1,0,0:0:0:0:
299,263,87889,1,0,0:0:0:0:
344,288,88005,5,8,1:0:0:0:
396,284,88122,1,0,0:0:0:0:
436,250,88238,1,0,0:0:0:0:
449,200,88355,6,0,P|448:154|482:84,1,95,4|0,3:2|0:0,0:0:0:0:
383,27,88704,1,8,1:0:0:0:
302,107,88878,1,2,0:0:0:0:
302,107,88965,2,0,B|255:117|255:117|205:108,1,95,2|2,0:0|0:0,0:0:0:0:
208,108,89227,1,2,3:2:0:0:
108,52,89401,2,0,P|94:101|99:149,1,95,8|0,1:0|0:0,0:0:0:0:
131,253,89750,6,0,L|34:249,2,95,0|0|8,3:0|0:0|1:0,0:0:0:0:
211,172,90273,1,0,0:0:0:0:
211,172,90361,1,0,0:0:0:0:
211,172,90448,1,2,0:0:0:0:
245,280,90622,1,0,3:0:0:0:
131,253,90797,1,8,1:0:0:0:
110,224,90884,1,0,0:0:0:0:
99,190,90971,1,0,0:0:0:0:
98,154,91058,1,0,0:0:0:0:
108,120,91146,6,0,B|153:98|192:107|192:107|195:93|195:93|230:115|304:102,1,185.249991519928,2|0,3:2|0:0,0:0:0:0:
360,63,91494,6,0,L|436:49,2,63.3333333333333,8|0|0,1:0|0:0|0:0,0:0:0:0:
414,153,91843,2,0,L|480:153,2,63.3333333333333,2|0|0,0:0|0:0|0:0,0:0:0:0:
360,243,92192,2,0,L|436:257,2,63.3333333333333,8|0|0,1:0|0:0|0:0,0:0:0:0:
316,153,92541,5,2,3:2:0:0:
256,362,92803,1,2,0:0:0:0:
196,153,93064,5,2,0:0:0:0:
256,362,93326,1,2,0:0:0:0:
256,32,93587,5,0,3:0:0:0:
256,67,93674,1,0,3:0:0:0:
256,103,93761,1,0,3:0:0:0:
256,138,93848,1,0,3:0:0:0:
256,174,93936,6,0,L|256:311,1,113.999996520996,4|0,3:2|0:0,0:0:0:0:
358,102,94285,1,8,1:0:0:0:
154,102,94460,1,2,0:0:0:0:
157,134,94547,1,2,0:0:0:0:
256,289,94721,1,2,0:0:0:0:
256,256,94808,1,2,3:2:0:0:
358,102,94983,2,0,L|355:228,1,113.999996520996,8|2,1:0|0:0,0:0:0:0:
347,366,95332,5,0,3:0:0:0:
480,298,95506,1,2,0:0:0:0:
355,216,95680,2,0,L|232:223,1,113.999996520996,8|0,1:0|0:0,0:0:0:0:
191,228,95942,1,0,0:0:0:0:
191,228,96029,1,2,0:0:0:0:
71,162,96204,1,0,3:0:0:0:
171,67,96378,1,8,1:0:0:0:
193,103,96465,1,0,0:0:0:0:
205,144,96552,1,2,0:0:0:0:
204,187,96639,1,0,0:0:0:0:
191,228,96727,6,0,L|374:218,1,178.125,2|0,3:2|0:0,0:0:0:0:
446,173,97076,6,0,P|446:137|454:103,2,63.3333333333333,8|0|0,1:0|0:0|0:0,0:0:0:0:
369,219,97425,2,0,P|369:255|377:289,2,63.3333333333333,2|0|0,0:0|0:0|0:0,0:0:0:0:
293,173,97773,2,0,P|293:137|301:103,2,63.3333333333333,8|0|0,1:0|0:0|0:0,0:0:0:0:
216,219,98122,6,0,P|216:255|224:289,2,63.3333333333333,2|0|0,0:0|0:0|0:0,0:0:0:0:
139,173,98471,2,0,P|139:137|147:103,2,63.3333333333333,8|0|0,1:0|0:0|0:0,0:0:0:0:
62,219,98820,2,0,P|62:255|70:289,2,63.3333333333333,2|0|0,0:0|0:0|0:0,0:0:0:0:
24,107,99169,5,8,1:0:0:0:
62,122,99285,1,0,0:0:0:0:
104,123,99401,1,0,0:0:0:0:
144,110,99518,6,0,P|192:105|238:108,1,95,0|0,3:0|0:0,0:0:0:0:
359,129,99866,1,8,1:0:0:0:
284,227,100041,1,2,0:0:0:0:
284,227,100128,2,0,P|275:270|281:322,1,95,2|2,0:0|0:0,0:0:0:0:
280,320,100390,1,2,3:2:0:0:
396,278,100564,2,0,P|401:231|392:184,1,95,8|0,1:0|0:0,0:0:0:0:
363,64,100913,6,0,P|401:62|465:63,2,95,0|0|8,3:0|0:0|1:0,0:0:0:0:
239,70,101436,1,0,0:0:0:0:
239,70,101523,1,0,0:0:0:0:
239,70,101611,1,2,0:0:0:0:
145,150,101785,1,0,3:0:0:0:
261,193,101960,1,8,1:0:0:0:
239,70,102134,1,0,0:0:0:0:
167,273,102308,5,4,1:0:0:0:
167,273,104576,5,0,3:0:0:0:
261,193,104750,1,8,1:0:0:0:
145,150,104925,1,0,3:0:0:0:
284,284,105095,6,0,P|335:250|346:153,1,161.500003080368,4|8,3:2|1:0,0:0:0:0:
256,73,105618,1,2,0:0:0:0:
257,103,105705,1,2,0:0:0:0:
258,133,105792,1,2,0:0:0:0:
260,163,105879,1,0,0:0:0:0:
261,193,105966,1,0,3:0:0:0:
270,366,106141,2,0,P|322:361|362:343,1,80.750001540184,8|0,1:0|0:0,0:0:0:0:
461,205,106490,6,0,L|457:370,1,161.500003080368,0|8,3:0|1:0,0:0:0:0:
387,160,107013,1,2,0:0:0:0:
407,137,107100,1,0,0:0:0:0:
434,123,107187,1,2,0:0:0:0:
463,119,107274,1,0,0:0:0:0:
493,124,107361,1,0,3:0:0:0:
362,50,107536,2,0,L|267:50,1,80.750001540184,8|0,1:0|0:0,0:0:0:0:
98,85,107885,6,0,P|128:153|94:232,1,161.500003080368,0|8,3:0|1:0,0:0:0:0:
233,169,108408,1,2,0:0:0:0:
262,167,108495,1,0,0:0:0:0:
291,177,108582,1,2,0:0:0:0:
314,196,108669,1,0,0:0:0:0:
331,220,108756,1,0,3:0:0:0:
231,354,108932,2,0,L|238:274,1,80.750001540184,8|0,1:0|0:0,0:0:0:0:
318,61,109281,6,0,P|265:95|302:182,1,161.500003080368,0|8,3:0|1:0,0:0:0:0:
436,265,109804,1,2,0:0:0:0:
435,234,109891,1,0,0:0:0:0:
435,204,109978,1,2,0:0:0:0:
435,174,110065,1,0,0:0:0:0:
435,143,110152,1,0,3:0:0:0:
366,329,110327,2,0,P|403:354|439:359,1,80.750001540184,8|0,1:0|3:0,0:0:0:0:
291,177,110676,6,0,L|120:184,1,161.500003080368,0|8,3:0|1:0,0:0:0:0:
183,337,111199,1,2,0:0:0:0:
202,314,111286,1,0,0:0:0:0:
215,286,111373,1,2,0:0:0:0:
220,256,111460,1,0,0:0:0:0:
217,227,111547,1,0,3:0:0:0:
126,103,111722,2,0,L|131:195,1,80.750001540184,8|0,1:0|0:0,0:0:0:0:
287,96,112071,6,0,L|116:103,1,161.500003080368,0|8,3:0|1:0,0:0:0:0:
344,168,112595,1,2,0:0:0:0:
364,146,112682,1,0,0:0:0:0:
377,118,112769,1,2,0:0:0:0:
379,88,112856,1,0,0:0:0:0:
371,59,112943,1,0,3:0:0:0:
243,192,113118,2,0,L|323:189,1,80.750001540184,8|0,1:0|0:0,0:0:0:0:
344,345,113467,6,0,B|321:302|321:302|324:182,1,161.500003080368,0|8,3:0|1:0,0:0:0:0:
445,124,113990,1,2,0:0:0:0:
443,154,114077,1,0,0:0:0:0:
442,184,114164,1,2,0:0:0:0:
441,214,114251,1,0,0:0:0:0:
440,245,114338,1,0,3:0:0:0:
367,108,114513,2,0,B|407:108|407:108|449:125,1,80.750001540184,8|0,1:0|0:0,0:0:0:0:
293,262,114862,6,0,L|127:258,1,161.500003080368,0|8,3:0|1:0,0:0:0:0:
30,93,115385,1,2,0:0:0:0:
48,116,115472,1,0,0:0:0:0:
59,144,115559,1,2,0:0:0:0:
63,174,115646,1,0,0:0:0:0:
57,204,115733,1,0,3:0:0:0:
128,53,115908,2,0,L|237:53,1,80.750001540184,8|0,1:0|3:0,0:0:0:0:
256,192,116257,6,0,P|213:149|213:46,1,161.500003080368,4|8,3:2|1:0,0:0:0:0:
432,77,116781,1,2,0:0:0:0:
402,82,116868,1,0,0:0:0:0:
372,87,116955,1,2,0:0:0:0:
342,92,117042,1,0,0:0:0:0:
313,98,117129,1,0,3:0:0:0:
233,267,117304,2,0,P|253:229|254:180,1,80.750001540184,8|0,1:0|0:0,0:0:0:0:
152,39,117653,6,0,L|163:201,1,161.500003080368,0|8,3:0|1:0,0:0:0:0:
374,201,118176,1,2,0:0:0:0:
345,191,118263,1,0,0:0:0:0:
315,185,118350,1,2,0:0:0:0:
285,186,118437,1,0,0:0:0:0:
255,191,118524,1,0,3:0:0:0:
301,363,118699,2,0,P|308:318|304:278,1,80.750001540184,8|0,1:0|0:0,0:0:0:0:
106,190,119048,6,0,P|172:217|261:186,1,161.500003080368,0|8,3:0|1:0,0:0:0:0:
134,78,119571,1,2,0:0:0:0:
116,102,119658,1,0,0:0:0:0:
105,130,119745,1,2,0:0:0:0:
102,160,119832,1,0,0:0:0:0:
106,190,119919,1,0,3:0:0:0:
171,344,120095,2,0,P|183:296|183:249,1,80.750001540184,8|0,1:0|0:0,0:0:0:0:
106,29,120443,6,0,L|106:208,1,161.500003080368,0|8,3:0|1:0,0:0:0:0:
279,119,120967,1,2,0:0:0:0:
251,106,121054,1,0,0:0:0:0:
221,102,121141,1,2,0:0:0:0:
191,104,121228,1,0,0:0:0:0:
162,114,121315,1,0,3:0:0:0:
329,199,121490,2,0,P|361:161|376:117,1,80.750001540184,8|0,1:0|3:0,0:0:0:0:
251,258,121839,6,0,L|425:255,1,161.500003080368,0|8,3:0|1:0,0:0:0:0:
181,195,122362,1,2,0:0:0:0:
164,220,122449,1,0,0:0:0:0:
156,249,122536,1,2,0:0:0:0:
159,279,122623,1,0,0:0:0:0:
171,307,122710,1,0,3:0:0:0:
246,126,122885,2,0,P|213:106|171:103,1,80.750001540184,8|0,1:0|0:0,0:0:0:0:
34,194,123234,6,0,P|107:224|181:195,1,161.500003080368,0|8,3:0|1:0,0:0:0:0:
293,55,123757,1,2,0:0:0:0:
293,85,123844,1,0,0:0:0:0:
293,115,123931,1,2,0:0:0:0:
293,145,124018,1,0,0:0:0:0:
293,176,124105,1,0,0:0:0:0:
300,331,124281,2,0,P|268:324|216:324,1,80.750001540184,8|0,1:0|0:0,0:0:0:0:
28,355,124629,6,0,L|36:175,1,161.500003080368,0|8,3:0|1:0,0:0:0:0:
179,83,125153,1,2,0:0:0:0:
193,109,125240,1,0,0:0:0:0:
199,138,125327,1,2,0:0:0:0:
194,168,125414,1,0,0:0:0:0:
180,195,125501,1,0,3:0:0:0:
71,281,125676,1,8,1:0:0:0:
113,141,125850,1,0,0:0:0:0:
192,316,126025,5,2,3:2:0:0:
256,192,126112,12,6,127420,3:2:0:0:
