osu file format v14

[General]
AudioFilename: audio.mp3
AudioLeadIn: 0
PreviewTime: 81465
Countdown: 0
SampleSet: Soft
StackLeniency: 0.5
Mode: 0
LetterboxInBreaks: 0
WidescreenStoryboard: 0

[Editor]
DistanceSpacing: 1.7
BeatDivisor: 4
GridSize: 32
TimelineZoom: 2.1

[Metadata]
Title:Nightmare
TitleUnicode:Nightmare
Artist:Mediks
ArtistUnicode:Mediks
Creator:Strategas
Version:Outbreak
Source:
Tags:dnb drum and & bass 2012 outbreak ep edm DeRandom Otaku CptSqBany
BeatmapID:1166837
BeatmapSetID:550808

[Difficulty]
HPDrainRate:6
CircleSize:2
OverallDifficulty:8.3
ApproachRate:9
SliderMultiplier:2
SliderTickRate:1

[Events]
//Background and Video events
0,0,"nightmare.jpg",0,0
//Break Periods
//Storyboard Layer 0 (Background)
//Storyboard Layer 1 (Fail)
//Storyboard Layer 2 (Pass)
//Storyboard Layer 3 (Foreground)
//Storyboard Sound Samples

[TimingPoints]
26960,348.837209302326,4,1,25,100,1,0
43704,-200,4,2,25,40,0,0
50244,-200,4,2,25,20,0,0
51553,-133.333333333333,4,2,25,40,0,0
51901,-133.333333333333,4,2,25,15,0,0
52076,-133.333333333333,4,2,25,40,0,0
54866,-133.333333333333,4,2,25,50,0,0
60099,-133.333333333333,4,2,25,60,0,0
60448,-90.9090909090909,4,2,25,70,0,1
63239,-66.6666666666667,4,2,25,70,0,1
63500,-66.6666666666667,4,2,25,5,0,1
63587,-90.9090909090909,4,2,25,70,0,1
68820,-66.6666666666667,4,2,25,70,0,1
69082,-66.6666666666667,4,2,25,5,0,1
69169,-90.9090909090909,4,2,25,70,0,1
70215,-71.4285714285714,4,2,25,70,0,1
70477,-62.5,4,2,25,70,0,1
70739,-55.5555555555556,4,2,25,70,0,1
71000,-50,4,2,25,70,0,1
71785,-90.9090909090909,4,2,25,70,0,1
74401,-66.6666666666667,4,2,25,70,0,1
74750,-90.9090909090909,4,2,25,70,0,1
79983,-200,4,2,25,20,0,0
82773,-100,4,2,25,65,0,0
85564,-66.6666666666667,4,2,25,70,0,0
85826,-66.6666666666667,4,2,25,5,0,0
85913,-100,4,2,25,65,0,0
91146,-66.6666666666667,4,2,25,65,0,0
91494,-100,4,2,25,65,0,0
92541,-71.4285714285714,4,2,25,70,0,0
92803,-62.5,4,2,25,70,0,0
93065,-55.5555555555556,4,2,25,70,0,0
93326,-50,4,2,25,70,0,0
94111,-100,4,2,25,50,0,0
96727,-66.6666666666667,4,2,25,50,0,0
97076,-100,4,2,25,50,0,0
105095,348.837209302326,4,2,25,50,1,0
126025,-133.333333333333,4,2,25,50,0,0

[Colours]
Combo1 : 0,255,242
Combo2 : 89,89,89
Combo3 : 89,45,0
Combo4 : 255,0,0
Combo5 : 40,40,255
Combo6 : 202,0,202

[HitObjects]
203,140,43704,5,4,0:0:0:0:
256,192,43791,12,4,48936,0:3:0:0:
156,138,49285,6,0,P|261:80|402:153,1,275,4|0,3:2|3:0,0:0:0:0:
393,140,50855,69,0,3:0:0:0:
393,140,51553,2,0,B|316:151|323:118|236:145,1,150.000005722046,0|0,3:0|1:0,0:0:0:0:
296,255,52076,6,0,P|369:269|442:256,1,150.000005722046,0|0,3:0|1:0,0:0:0:0:
442,256,52948,69,0,3:0:0:0:
470,374,53122,1,0,1:0:0:0:
470,374,53646,5,0,3:0:0:0:
442,256,53820,1,0,1:0:0:0:
442,256,54343,69,0,3:0:0:0:
470,374,54517,1,0,1:0:0:0:
450,117,54866,6,0,B|403:98|403:98|282:113,1,150.000005722046,0|0,3:0|1:0,0:0:0:0:
304,110,55739,69,0,3:0:0:0:
263,224,55913,1,0,1:0:0:0:
263,224,56436,5,0,3:0:0:0:
304,110,56610,1,0,1:0:0:0:
304,110,57134,69,0,3:0:0:0:
263,224,57308,1,0,1:0:0:0:
109,124,57657,5,0,3:0:0:0:
127,123,57744,1,0,3:0:0:0:
146,123,57831,1,0,3:0:0:0:
165,122,57918,1,0,3:0:0:0:
180,107,58006,69,0,3:0:0:0:
161,108,58093,1,0,3:0:0:0:
142,108,58180,1,0,3:0:0:0:
124,109,58267,1,0,3:0:0:0:
139,94,58355,5,0,3:0:0:0:
157,93,58442,1,0,3:0:0:0:
176,93,58529,1,0,3:0:0:0:
195,92,58616,1,0,3:0:0:0:
210,77,58704,69,0,3:0:0:0:
191,78,58791,1,0,3:0:0:0:
172,78,58878,1,0,3:0:0:0:
154,79,58965,1,0,3:0:0:0:
169,64,59053,5,4,3:0:0:0:
338,84,59227,1,0,0:0:0:0:
338,84,59576,69,0,0:0:0:0:
338,84,59925,5,0,0:0:0:0:
364,284,60099,1,8,1:0:0:0:
105,175,60448,6,0,L|102:289,1,110.000003356934,4|0,0:2|0:0,0:0:0:0:
109,53,60797,1,8,1:0:0:0:
221,145,60971,1,2,0:0:0:0:
224,200,61058,2,0,L|221:145,1,55.0000016784668,2|0,0:0|0:0,0:0:0:0:
337,84,61233,1,2,0:0:0:0:
340,138,61320,2,0,L|337:83,1,55.0000016784668,2|0,3:2|0:0,0:0:0:0:
448,34,61494,1,8,1:0:0:0:
429,214,61669,2,0,L|426:268,1,55.0000016784668
344,356,61843,6,0,B|289:369|289:369|242:343,1,110.000003356934,0|0,3:0|0:0,0:0:0:0:
69,204,62192,1,8,1:0:0:0:
127,311,62366,1,0,0:0:0:0:
123,334,62454,1,0,0:0:0:0:
119,357,62541,2,0,L|42:373,1,55.0000016784668,2|0,0:0|0:0,0:0:0:0:
187,205,62715,2,0,L|240:216,1,55.0000016784668,2|0,3:2|0:0,0:0:0:0:
356,287,62890,1,8,1:0:0:0:
352,310,62977,1,4,0:3:0:0:
348,333,63064,1,4,0:3:0:0:
344,356,63151,1,4,0:3:0:0:
340,379,63239,70,0,B|414:375|414:375|442:214,1,225.000008583069,2|0,3:2|0:0,0:0:0:0:
377,131,63587,22,0,B|341:118|341:118|305:122,2,73.3333355712891,8|0|0,1:0|0:0|0:0,1:0:0:0:
191,268,63936,2,0,B|222:246|222:246|240:216,2,73.3333355712891,2|0|0,0:0|0:0|0:0,0:0:0:0:
171,43,64285,2,0,B|175:81|175:81|193:112,2,73.3333355712891,8|0|0,1:0|0:0|0:0,1:0:0:0:
377,131,64634,5,2,0:0:0:0:
399,141,64750,2,0,B|434:144|434:144|470:132,1,73.3333355712891
360,247,64983,1,8,1:0:0:0:
340,261,65099,2,0,B|318:289|318:289|311:326,1,73.3333355712891
269,174,65332,1,2,0:0:0:0:
266,149,65448,2,0,B|251:116|251:116|223:91,1,73.3333355712891
162,180,65680,1,8,1:0:0:0:
112,275,65797,1,0,0:0:0:0:
220,272,65913,1,0,0:0:0:0:
21,196,66029,38,0,P|-1:246|-5:300,1,110.000003356934,4|0,3:2|0:0,0:0:0:0:
81,91,66378,1,8,1:0:0:0:
275,275,66553,1,2,0:0:0:0:
220,272,66640,2,0,L|275:275,1,55.0000016784668,2|0,0:0|0:0,0:0:0:0:
337,159,66815,1,2,0:0:0:0:
282,156,66902,2,0,L|337:159,1,55.0000016784668,2|0,3:2|0:0,0:0:0:0:
397,54,67076,1,8,1:0:0:0:
450,282,67250,6,0,L|395:279,1,55.0000016784668,2|0,0:0|0:0,0:0:0:0:
86,268,67425,1,0,3:0:0:0:
99,277,67599,2,0,L|154:280,1,55.0000016784668,2|0,0:0|0:0,0:0:0:0:
463,291,67774,1,8,1:0:0:0:
297,349,67948,1,0,0:0:0:0:
279,311,68035,1,0,0:0:0:0:
275,271,68122,1,2,0:0:0:0:
284,231,68209,1,0,0:0:0:0:
307,196,68296,1,2,3:2:0:0:
86,268,68471,2,0,P|33:240|11:128,1,165.000005035401,8|0,1:0|0:0,1:0:0:0:
104,168,68820,70,0,B|157:192|157:192|340:166,1,225.000008583069,2|0,3:2|0:0,0:0:0:0:
450,84,69169,22,0,L|376:90,1,73.3333355712891,8|0,1:0|0:0,1:0:0:0:
322,168,69401,1,0,0:0:0:0:
401,228,69518,2,0,L|475:222,2,73.3333355712891,2|0|0,0:0|0:0|0:0,0:0:0:0:
235,278,69866,1,8,1:0:0:0:
268,371,69983,1,0,0:0:0:0:
332,296,70099,1,0,0:0:0:0:
235,278,70215,22,0,B|176:316|176:316|140:377,1,139.999995727539,2|0,3:2|0:0,0:0:0:0:
143,217,70477,6,0,B|212:173|212:173|289:183,1,160,2|0,0:0|0:0,0:0:0:0:
375,89,70739,6,0,B|239:71|239:71|280:51,1,179.999994506836,2|0,0:0|0:0,0:0:0:0:
464,136,71000,6,0,B|438:184|386:190|386:190|414:236|390:286,1,200,2|0,0:0|0:0,0:0:0:0:
211,240,71262,69,0,3:0:0:0:
229,183,71349,1,0,3:0:0:0:
289,183,71436,1,0,3:0:0:0:
308,240,71524,1,0,3:0:0:0:
259,276,71611,6,0,B|229:184|229:184|245:67,1,200,4|0,3:2|0:0,0:0:0:0:
263,61,71872,1,0,3:0:0:0:
361,87,71960,1,8,1:0:0:0:
127,51,72134,1,2,0:0:0:0:
120,106,72221,2,0,B|127:50,1,55.0000016784668,2|0,0:0|0:0,0:0:0:0:
368,32,72396,1,2,0:0:0:0:
361,87,72483,2,0,B|368:31,1,55.0000016784668,2|0,3:2|0:0,0:0:0:0:
450,161,72657,2,0,P|394:199|295:183,1,165.000005035401,8|0,1:0|0:0,1:0:0:0:
381,245,73006,70,0,P|377:299|338:355,1,110.000003356934,0|0,3:0|0:0,0:0:0:0:
322,357,73268,1,0,0:0:0:0:
234,302,73355,1,8,1:0:0:0:
486,260,73529,1,0,0:0:0:0:
487,234,73616,1,0,0:0:0:0:
479,206,73704,2,0,P|468:180|449:160,1,55.0000016784668,2|0,0:0|0:0,0:0:0:0:
254,189,73878,2,0,P|264:163|283:143,1,55.0000016784668,2|0,3:2|0:0,0:0:0:0:
511,66,74053,2,0,P|494:44|470:29,1,55.0000016784668,8|0,1:0|0:0,1:0:0:0:
200,65,74227,2,0,P|214:41|236:24,1,55.0000016784668,2|0,0:0|0:0,0:0:0:0:
459,18,74401,6,0,P|380:47|222:-10,1,225.000008583069,2|0,3:2|0:0,0:0:0:0:
282,143,74750,6,0,L|292:232,2,73.3333355712891,8|0|0,1:0|0:0|0:0,1:0:0:0:
186,238,75099,2,0,L|196:327,2,73.3333355712891,2|0|0,0:0|0:0|0:0,0:0:0:0:
396,222,75448,2,0,L|404:294,2,73.3333355712891,8|0|0,1:0|0:0|0:0,1:0:0:0:
290,215,75797,5,2,0:0:0:0:
348,125,75913,1,0,0:0:0:0:
396,222,76029,1,0,0:0:0:0:
240,117,76146,2,0,P|249:82|269:51,2,73.3333355712891,8|0|0,1:0|0:0|0:0,1:0:0:0:
348,125,76494,69,2,0:0:0:0:
372,19,76611,1,0,0:0:0:0:
269,51,76727,1,0,0:0:0:0:
450,91,76843,2,0,P|469:61|478:25,2,73.3333355712891,8|0|0,1:0|0:0|0:0,1:0:0:0:
287,228,77192,54,0,B|227:235|227:235|165:217,1,110.000003356934,0|0,3:0|0:0,0:0:0:0:
3,110,77541,1,8,1:0:0:0:
66,257,77715,1,2,0:0:0:0:
61,311,77803,2,0,L|67:245,1,55.0000016784668,2|0,0:0|0:0,0:0:0:0:
183,166,77976,1,2,0:0:0:0:
179,221,78064,2,0,L|183:166,1,55.0000016784668,2|0,3:2|0:0,0:0:0:0:
283,97,78239,1,8,1:0:0:0:
155,27,78413,1,0,0:0:0:0:
146,27,78500,1,0,0:0:0:0:
137,27,78587,6,0,B|77:61|77:61|61:225,1,220.000006713867,0|8,3:0|1:0,0:0:0:0:
228,89,79111,2,0,L|288:97,1,55.0000016784668,2|0,0:0|0:0,0:0:0:0:
360,226,79285,2,0,L|305:218,1,55.0000016784668,2|0,0:0|0:0,0:0:0:0:
186,203,79460,1,0,3:0:0:0:
401,116,79634,1,8,1:0:0:0:
499,248,79808,1,0,0:0:0:0:
489,244,79896,1,0,0:0:0:0:
480,242,79983,38,0,B|440:268|430:306|430:306|364:226|438:163|438:163|497:111|494:46|475:17,1,400,0|0,3:0|0:0,0:0:0:0:
378,59,82773,22,0,B|332:48|332:48|247:68,1,100,4|0,3:2|0:0,0:0:0:0:
261,77,83035,1,0,3:0:0:0:
332,151,83122,1,8,1:0:0:0:
128,152,83297,5,2,0:0:0:0:
176,161,83384,2,0,L|128:152,1,50,2|0,3:2|0:0,0:0:0:0:
106,31,83559,1,2,3:2:0:0:
156,41,83646,2,0,L|107:31,1,50,2|0,0:0|0:0,0:0:0:0:
16,109,83820,2,0,B|10:161|10:161|23:213,1,100,8|0,1:0|0:0,0:0:0:0:
110,317,84082,70,0,L|119:268,1,50,0|0,3:0|0:0,0:0:0:0:
239,263,84256,2,0,L|221:361,1,100,0|0,3:0|0:0,0:0:0:0:
176,161,84518,2,0,P|218:144|274:148,1,100,8|0,1:0|0:0,0:0:0:0:
404,242,84779,6,0,L|355:234,1,50,0|0,3:0|0:0,0:0:0:0:
390,117,84954,2,0,L|488:134,1,100,0|0,0:0|3:0,0:0:0:0:
272,147,85215,1,8,1:0:0:0:
269,122,85302,1,4,0:3:0:0:
267,97,85389,1,4,0:3:0:0:
265,72,85476,1,4,0:3:0:0:
262,47,85564,70,0,B|218:67|218:67|229:254,1,225.000008583069,2|0,3:2|0:0,0:0:0:0:
331,275,85913,22,0,L|334:341,2,66.6666666666667,8|0|0,1:0|0:0|0:0,0:0:0:0:
421,216,86262,2,0,L|417:149,2,66.6666666666667,2|0|0,0:0|0:0|0:0,0:0:0:0:
507,280,86611,2,0,L|510:346,2,66.6666666666667,8|0|0,1:0|0:0|0:0,0:0:0:0:
413,43,86960,5,2,0:0:0:0:
417,149,87076,1,0,0:0:0:0:
507,94,87192,1,0,0:0:0:0:
320,99,87308,2,0,P|307:129|308:161,2,66.6666666666667,8|0|0,1:0|0:0|0:0,0:0:0:0:
417,149,87657,69,2,0:0:0:0:
374,248,87773,1,0,0:0:0:0:
309,162,87890,1,0,0:0:0:0:
480,236,88006,2,0,P|480:270|468:300,2,66.6666666666667,8|0|0,1:0|0:0|0:0,0:0:0:0:
207,127,88355,53,4,3:2:0:0:
230,279,88529,1,0,0:0:0:0:
20,163,88704,1,8,1:0:0:0:
127,217,88878,1,2,0:0:0:0:
120,267,88965,2,0,L|128:211,1,50,2|0,0:0|0:0,0:0:0:0:
214,77,89140,1,2,0:0:0:0:
207,127,89227,2,0,L|215:71,1,50,2|0,3:2|0:0,0:0:0:0:
307,0,89401,1,8,1:0:0:0:
314,279,89576,6,0,L|314:229,1,50
317,13,89750,1,0,3:0:0:0:
327,26,89925,2,0,L|327:76,1,50
324,292,90099,1,8,1:0:0:0:
105,196,90273,1,0,0:0:0:0:
87,203,90361,1,0,0:0:0:0:
69,210,90448,2,0,L|61:278,1,50,2|0,0:0|0:0,0:0:0:0:
206,379,90622,2,0,L|213:330,1,50,0|0,3:0|0:0,0:0:0:0:
238,155,90797,1,8,1:0:0:0:
324,292,90971,1,0,0:0:0:0:
342,285,91059,1,0,0:0:0:0:
360,278,91146,70,0,B|381:187|314:149|314:149|237:155,1,225.000008583069,2|0,3:2|0:0,0:0:0:0:
349,170,91494,22,0,L|427:165,1,66.6666666666667,8|0,1:0|0:0,0:0:0:0:
512,118,91727,1,0,0:0:0:0:
330,63,91843,2,0,L|408:58,1,66.6666666666667,2|0,0:0|0:0,0:0:0:0:
493,11,92076,1,0,0:0:0:0:
415,165,92192,2,0,L|337:170,1,66.6666666666667,8|0,1:0|0:0,0:0:0:0:
237,155,92425,1,0,0:0:0:0:
280,254,92541,22,0,P|211:260|141:203,1,139.999995727539,2|0,3:2|0:0,0:0:0:0:
15,66,92803,6,0,P|83:27|158:47,1,160,2|0,0:0|0:0,0:0:0:0:
52,267,93064,6,0,B|43:189|43:189|96:128,1,160,2|0,0:0|0:0,0:0:0:0:
355,47,93326,6,0,B|245:16|273:73|158:47,1,200,2|0,0:0|0:0,0:0:0:0:
301,139,93587,69,0,3:0:0:0:
312,212,93674,1,0,3:0:0:0:
284,281,93761,1,0,3:0:0:0:
226,326,93848,1,0,3:0:0:0:
152,335,93936,6,0,B|148:293|181:253|181:253|247:246|287:284,1,200,4|0,3:2|0:0,0:0:0:0:
304,298,94198,1,0,3:0:0:0:
384,361,94285,1,8,1:0:0:0:
423,164,94460,1,2,0:0:0:0:
429,213,94547,2,0,L|421:150,1,50,2|0,0:0|0:0,0:0:0:0:
295,90,94721,1,2,0:0:0:0:
301,139,94808,2,0,L|293:76,1,50,2|0,3:2|0:0,0:0:0:0:
404,45,94983,1,8,1:0:0:0:
192,28,95157,70,0,P|163:35|126:59,1,50,2|0,0:0|0:0,0:0:0:0:
78,143,95332,1,0,3:0:0:0:
301,139,95506,2,0,P|319:162|332:204,1,50,2|0,0:0|0:0,0:0:0:0:
316,299,95681,1,8,1:0:0:0:
84,213,95855,1,0,0:0:0:0:
81,178,95942,1,0,0:0:0:0:
78,143,96029,2,0,L|11:124,1,50,2|0,0:0|0:0,0:0:0:0:
87,248,96204,2,0,L|154:267,1,50,0|0,3:0|0:0,0:0:0:0:
316,299,96378,1,8,1:0:0:0:
252,125,96553,2,0,L|301:139,1,50
395,119,96727,6,0,L|179:59,1,225.000008583069,2|0,3:2|0:0,0:0:0:0:
78,143,97076,6,0,L|13:125,2,66.6666666666667,8|0|0,1:0|0:0|0:0,0:0:0:0:
78,251,97425,2,0,L|13:233,2,66.6666666666667,2|0|0,0:0|0:0|0:0,0:0:0:0:
78,359,97773,2,0,L|13:341,2,66.6666666666667,8|0|0,1:0|0:0|0:0,0:0:0:0:
171,305,98122,5,2,0:0:0:0:
276,330,98239,1,0,0:0:0:0:
381,355,98355,1,0,0:0:0:0:
479,309,98471,2,0,L|490:220,2,66.6666666666667,8|0|0,1:0|0:0|0:0,0:0:0:0:
431,150,98820,69,2,0:0:0:0:
326,125,98937,1,0,0:0:0:0:
221,100,99053,1,0,0:0:0:0:
123,146,99169,2,0,L|112:235,2,66.6666666666667,8|0|0,1:0|0:0|0:0,0:0:0:0:
295,8,99518,53,0,3:0:0:0:
354,242,99692,1,0,0:0:0:0:
502,51,99866,1,8,1:0:0:0:
295,8,100041,1,2,0:0:0:0:
343,19,100128,2,0,L|294:7,1,50,2|0,0:0|0:0,0:0:0:0:
172,88,100303,1,2,0:0:0:0:
220,99,100390,2,0,L|172:88,1,50,2|0,3:2|0:0,0:0:0:0:
71,153,100564,1,8,1:0:0:0:
354,242,100739,2,0,L|274:218,1,50
71,153,100913,5,0,3:0:0:0:
92,271,101087,1,0,0:0:0:0:
172,88,101262,1,8,1:0:0:0:
65,32,101436,1,0,0:0:0:0:
65,32,101523,1,0,0:0:0:0:
65,32,101611,1,2,0:0:0:0:
281,37,101785,1,0,3:0:0:0:
193,207,101960,1,8,1:0:0:0:
465,187,102134,1,0,0:0:0:0:
465,187,102221,1,0,0:0:0:0:
465,187,102308,1,4,1:0:0:0:
256,192,104053,69,0,0:0:0:0:
256,192,104401,5,2,0:0:0:0:
512,192,104576,1,0,3:0:0:0:
256,192,104750,1,8,1:0:0:0:
512,192,104925,1,0,3:0:0:0:
0,192,105095,37,4,3:2:0:0:
0,192,105444,2,0,L|14:80,1,100,8|2,1:0|0:0,0:0:0:0:
17,74,105706,1,2,0:0:0:0:
20,56,105793,1,2,0:0:0:0:
86,277,105967,1,0,3:0:0:0:
233,11,106142,2,0,L|134:20,1,100,8|0,1:0|0:0,0:0:0:0:
338,107,106490,6,0,P|345:153|314:233,1,100,0|0,3:0|0:0,0:0:0:0:
86,277,106839,1,8,1:0:0:0:
127,162,107014,1,2,0:0:0:0:
150,152,107101,1,0,0:0:0:0:
174,146,107188,1,2,0:0:0:0:
199,145,107275,1,0,0:0:0:0:
224,147,107362,1,0,3:0:0:0:
32,87,107537,2,0,P|71:54|116:33,1,100,8|0,1:0|0:0,0:0:0:0:
342,119,107886,70,0,B|352:69|352:69|347:20,1,100,0|0,3:0|0:0,0:0:0:0:
127,162,108235,1,8,1:0:0:0:
200,259,108409,1,2,0:0:0:0:
224,261,108496,1,0,0:0:0:0:
249,263,108583,1,2,0:0:0:0:
274,265,108670,1,0,0:0:0:0:
299,267,108757,1,0,3:0:0:0:
82,275,108932,2,0,B|75:326|75:326|85:378,1,100,8|0,1:0|0:0,0:0:0:0:
6,191,109281,6,0,P|-1:136|18:78,1,100,0|0,3:0|0:0,0:0:0:0:
333,48,109630,1,8,1:0:0:0:
258,143,109804,1,2,0:0:0:0:
233,149,109891,1,0,0:0:0:0:
208,150,109978,1,2,0:0:0:0:
184,147,110065,1,0,0:0:0:0:
160,139,110153,2,0,P|127:137|95:147,1,50,0|0,3:0|0:0,0:0:0:0:
362,254,110328,2,0,P|365:230|362:205,1,50,8|0,1:0|0:0,0:0:0:0:
140,257,110502,2,0,P|138:290|146:320,1,50,0|0,3:0|0:0,0:0:0:0:
333,372,110676,70,0,P|429:354|482:263,1,200,0|8,3:0|1:0,0:0:0:0:
312,180,111200,1,2,0:0:0:0:
311,204,111287,1,0,0:0:0:0:
320,227,111374,1,2,0:0:0:0:
338,245,111461,1,0,0:0:0:0:
361,253,111548,1,0,3:0:0:0:
229,93,111723,2,0,P|181:102|132:143,1,100,8|0,1:0|0:0,0:0:0:0:
150,331,112072,6,0,B|101:339|101:339|26:317,1,100,0|0,3:0|0:0,0:0:0:0:
26,103,112421,1,8,1:0:0:0:
141,131,112595,2,0,L|133:180,1,50,2|0,0:0|0:0,0:0:0:0:
52,324,112769,2,0,L|59:274,1,50,2|0,0:0|0:0,0:0:0:0:
106,14,112944,1,0,3:0:0:0:
230,186,113118,2,0,B|181:194|181:194|106:172,1,100,8|0,1:0|0:0,0:0:0:0:
324,38,113467,70,0,L|225:30,1,100,0|0,3:0|0:0,0:0:0:0:
230,186,113816,2,0,L|329:194,1,100,8|2,1:0|0:0,0:0:0:0:
355,196,114078,1,0,0:0:0:0:
380,199,114165,1,2,0:0:0:0:
324,38,114339,1,0,3:0:0:0:
111,172,114514,1,8,1:0:0:0:
229,283,114688,1,0,0:0:0:0:
229,283,114775,1,0,0:0:0:0:
229,283,114862,6,0,P|238:233|229:185,1,100,0|0,3:0|0:0,0:0:0:0:
140,35,115211,1,8,1:0:0:0:
255,68,115386,1,2,0:0:0:0:
279,66,115473,1,0,0:0:0:0:
304,60,115560,1,2,0:0:0:0:
327,50,115647,1,0,0:0:0:0:
347,36,115734,1,0,3:0:0:0:
30,83,115909,1,8,1:0:0:0:
370,160,116083,1,0,3:0:0:0:
0,332,116258,69,4,3:2:0:0:
0,332,116607,2,0,L|128:324,1,100,8|2,1:0|0:0,0:0:0:0:
125,325,116868,1,0,0:0:0:0:
150,323,116956,1,2,0:0:0:0:
14,210,117130,1,0,3:0:0:0:
233,197,117304,2,0,L|134:204,1,100,8|0,1:0|0:0,0:0:0:0:
341,146,117653,6,0,P|353:195|344:245,1,100,0|0,3:0|0:0,0:0:0:0:
242,79,118002,1,8,1:0:0:0:
350,26,118176,2,0,P|380:19|404:20,1,50,2|0,0:0|0:0,0:0:0:0:
508,117,118351,2,0,P|483:123|459:124,1,50,2|0,0:0|0:0,0:0:0:0:
242,79,118525,1,0,3:0:0:0:
344,243,118700,2,0,P|352:194|341:146,1,100,8|0,1:0|0:0,0:0:0:0:
135,24,119049,70,0,B|124:72|124:72|131:123,1,100,0|0,3:0|0:0,0:0:0:0:
162,363,119397,1,8,1:0:0:0:
193,240,119572,1,2,0:0:0:0:
168,241,119659,1,0,0:0:0:0:
143,243,119746,1,2,0:0:0:0:
118,245,119833,1,0,0:0:0:0:
93,247,119920,1,0,3:0:0:0:
300,295,120095,2,0,B|311:247|311:247|304:196,1,100,8|0,1:0|0:0,0:0:0:0:
254,26,120444,6,0,L|386:9,1,100,0|0,3:0|0:0,0:0:0:0:
499,114,120793,1,8,1:0:0:0:
404,189,120967,1,2,0:0:0:0:
379,190,121054,1,0,0:0:0:0:
354,192,121141,1,2,0:0:0:0:
329,194,121228,1,0,0:0:0:0:
304,196,121316,2,0,L|239:202,1,50,0|0,3:0|0:0,0:0:0:0:
204,30,121490,2,0,L|253:25,1,50,8|0,1:0|0:0,0:0:0:0:
135,201,121665,2,0,L|85:205,1,50,0|0,3:0|0:0,0:0:0:0:
104,33,121839,70,0,L|203:29,1,100,0|0,3:0|0:0,0:0:0:0:
374,23,122188,1,8,1:0:0:0:
293,112,122362,1,2,0:0:0:0:
294,137,122449,1,0,0:0:0:0:
296,162,122536,1,2,0:0:0:0:
298,187,122623,1,0,0:0:0:0:
300,212,122711,1,0,3:0:0:0:
474,19,122886,2,0,L|374:22,1,100,8|0,1:0|0:0,0:0:0:0:
203,29,123235,6,0,B|165:56|165:56|173:236,1,200,0|8,3:0|1:0,0:0:0:0:
288,166,123758,2,0,L|287:117,1,50,2|0,0:0|0:0,0:0:0:0:
262,285,123932,2,0,L|263:334,1,50,2|0,0:0|0:0,0:0:0:0:
376,249,124107,1,0,3:0:0:0:
172,209,124281,2,0,B|121:205|121:205|49:220,1,100,8|0,1:0|0:0,0:0:0:0:
0,363,124630,70,0,P|51:375|102:365,1,100,0|0,3:0|0:0,0:0:0:0:
262,285,124979,1,8,1:0:0:0:
59,156,125153,1,2,0:0:0:0:
51,179,125240,1,0,0:0:0:0:
47,204,125327,1,2,0:0:0:0:
48,229,125414,1,0,0:0:0:0:
54,254,125501,1,0,3:0:0:0:
114,47,125676,2,0,P|65:36|16:43,1,100,8|0,1:0|0:0,0:0:0:0:
219,104,126025,6,0,L|394:94,1,150.000005722046,2|0,3:2|0:0,0:0:0:0:
512,207,126549,2,0,L|363:216,1,150.000005722046,2|0,0:0|0:0,0:0:0:0:
244,221,127072,1,2,0:0:0:0:
500,40,127421,5,6,3:2:0:0:
