osu file format v14

[General]
AudioFilename: audio.mp3
AudioLeadIn: 0
PreviewTime: 81465
Countdown: 0
SampleSet: Soft
StackLeniency: 0.5
Mode: 0
LetterboxInBreaks: 0
WidescreenStoryboard: 0

[Editor]
DistanceSpacing: 1.2
BeatDivisor: 4
GridSize: 32
TimelineZoom: 2.1

[Metadata]
Title:Nightmare
TitleUnicode:Nightmare
Artist:Mediks
ArtistUnicode:Mediks
Creator:Strategas
Version:Hard
Source:
Tags:dnb drum and & bass 2012 outbreak ep edm DeRandom Otaku CptSqBany
BeatmapID:1261486
BeatmapSetID:550808

[Difficulty]
HPDrainRate:4
CircleSize:3
OverallDifficulty:5.5
ApproachRate:7.7
SliderMultiplier:1.5
SliderTickRate:1

[Events]
//Background and Video events
0,0,"nightmare.jpg",0,0
//Break Periods
//Storyboard Layer 0 (Background)
//Storyboard Layer 1 (Fail)
//Storyboard Layer 2 (Pass)
//Storyboard Layer 3 (Foreground)
//Storyboard Sound Samples

[TimingPoints]
26960,348.837209302326,4,1,25,100,1,0
43704,-133.333333333333,4,2,25,40,0,0
50244,-133.333333333333,4,2,25,20,0,0
51553,-133.333333333333,4,2,25,40,0,0
51901,-133.333333333333,4,2,25,15,0,0
52076,-133.333333333333,4,2,25,40,0,0
54866,-133.333333333333,4,2,25,50,0,0
60099,-133.333333333333,4,2,25,60,0,0
60448,-100,4,2,25,70,0,1
63239,-100,4,2,25,70,0,1
63500,-100,4,2,25,5,0,1
63587,-100,4,2,25,70,0,1
68820,-100,4,2,25,70,0,1
69082,-100,4,2,25,5,0,1
69169,-100,4,2,25,70,0,1
70215,-100,4,2,25,70,0,1
70477,-100,4,2,25,70,0,1
70739,-100,4,2,25,70,0,1
71000,-100,4,2,25,70,0,1
71611,-83.3333333333333,4,2,25,70,0,1
71785,-100,4,2,25,70,0,1
74401,-100,4,2,25,70,0,1
74750,-100,4,2,25,70,0,1
79983,-133.333333333333,4,2,25,20,0,0
82773,-100,4,2,25,65,0,0
85564,-100,4,2,25,70,0,0
85826,-100,4,2,25,5,0,0
85913,-100,4,2,25,65,0,0
91146,-100,4,2,25,65,0,0
91494,-100,4,2,25,65,0,0
92541,-100,4,2,25,70,0,0
92803,-100,4,2,25,70,0,0
93065,-100,4,2,25,70,0,0
93326,-100,4,2,25,70,0,0
94111,-100,4,2,25,50,0,0
96727,-100,4,2,25,50,0,0
97076,-100,4,2,25,50,0,0
105095,348.837209302326,4,2,25,50,1,0
126025,-100,4,2,25,50,0,0

[Colours]
Combo1 : 183,11,36
Combo2 : 138,138,138
Combo3 : 111,55,0

[HitObjects]
256,192,43704,5,4,0:0:0:0:
256,192,43791,12,0,48936,0:0:0:0:
256,192,49285,5,4,3:2:0:0:
128,192,52076,6,0,P|174:174|243:189,1,112.500004291535,0|0,3:0|1:0,0:0:0:0:
403,179,52948,2,0,P|376:175|346:180,1,56.2500021457673,0|0,3:0|1:0,0:0:0:0:
178,173,53646,2,0,P|210:168|235:174,1,56.2500021457673,0|0,3:0|1:0,0:0:0:0:
400,162,54343,2,0,P|366:159|343:163,1,56.2500021457673,0|0,3:0|1:0,0:0:0:0:
300,266,54866,5,0,3:0:0:0:
189,289,55215,1,0,1:0:0:0:
24,248,55739,5,0,3:0:0:0:
24,248,55913,1,0,1:0:0:0:
137,123,56436,1,0,3:0:0:0:
137,123,56610,1,0,1:0:0:0:
189,289,57134,1,0,3:0:0:0:
189,289,57308,1,0,1:0:0:0:
282,226,57657,6,0,L|331:229,3,28.1250010728836,0|0|0|0,3:0|3:0|3:0|3:0,0:0:0:0:
232,175,58006,2,0,L|233:146,3,28.1250010728836,0|0|0|0,3:0|3:0|3:0|3:0,0:0:0:0:
176,219,58355,2,0,L|127:216,3,28.1250010728836,0|0|0|0,3:0|3:0|3:0|3:0,0:0:0:0:
228,271,58704,2,0,L|225:320,3,28.1250010728836,0|0|0|0,3:0|3:0|3:0|3:0,0:0:0:0:
223,370,59053,5,4,3:0:0:0:
256,192,60099,5,8,1:0:0:0:
372,97,60448,6,0,L|459:100,2,75,4|0|8,3:2|0:0|1:0,0:0:0:0:
281,96,60971,1,2,0:0:0:0:
266,96,61058,1,2,0:0:0:0:
197,37,61233,1,2,0:0:0:0:
182,37,61320,1,2,3:2:0:0:
111,91,61494,2,0,B|74:98|74:98|29:90,1,75,8|0,1:0|0:0,0:0:0:0:
81,186,61843,6,0,P|78:224|104:274,1,75,0|0,3:0|0:0,0:0:0:0:
177,284,62192,2,0,P|180:246|154:196,1,75,8|0,1:0|0:0,0:0:0:0:
148,123,62541,1,2,0:0:0:0:
81,186,62715,1,2,3:2:0:0:
167,212,62890,1,8,1:0:0:0:
234,152,63064,1,4,0:3:0:0:
217,63,63239,6,0,P|285:61|345:86,1,112.5,2|0,3:2|0:0,0:0:0:0:
371,123,63587,6,0,L|377:184,5,50,8|0|0|2|0|0,1:0|0:0|0:0|0:0|0:0|0:0,0:0:0:0:
417,54,64285,2,0,L|411:-7,5,50,8|0|0|2|0|0,1:0|0:0|0:0|0:0|0:0|0:0,0:0:0:0:
454,126,64983,2,0,L|460:187,5,50,8|0|0|2|0|0,1:0|0:0|0:0|0:0|0:0|0:0,0:0:0:0:
497,55,65680,1,8,1:0:0:0:
438,263,66029,6,0,L|539:275,2,75,4|0|8,3:2|0:0|1:0,0:0:0:0:
370,200,66553,1,2,0:0:0:0:
355,198,66640,1,2,0:0:0:0:
292,132,66815,1,2,0:0:0:0:
277,130,66902,1,2,3:2:0:0:
213,66,67076,2,0,L|138:57,1,75,8|2,1:0|0:0,0:0:0:0:
71,118,67425,6,0,P|65:151|85:211,1,75,0|0,3:0|0:0,0:0:0:0:
142,248,67773,2,0,P|148:281|128:341,1,75,8|0,1:0|0:0,0:0:0:0:
58,282,68122,1,2,0:0:0:0:
73,191,68297,1,2,3:2:0:0:
157,159,68471,1,8,1:0:0:0:
228,213,68646,1,0,0:0:0:0:
309,174,68820,6,0,P|344:123|338:57,1,112.5,2|0,3:2|0:0,0:0:0:0:
312,42,69169,6,0,L|222:39,5,50,8|0|0|2|0|0,1:0|0:0|0:0|0:0|0:0|0:0,0:0:0:0:
189,76,69866,1,8,1:0:0:0:
63,205,70215,6,0,B|121:217|121:217|174:207,1,112.5,2|2,3:2|0:0,0:0:0:0:
281,124,70739,2,0,B|334:114|334:114|392:126,1,112.5,2|2,0:0|0:0,0:0:0:0:
499,208,71262,2,0,L|489:170,3,37.5,0|0|0|0,3:0|3:0|3:0|3:0,0:0:0:0:
508,247,71611,6,0,P|468:263|401:258,1,89.9999972534181,4|0,3:2|0:0,0:0:0:0:
410,260,71872,1,0,3:0:0:0:
400,253,71960,1,8,1:0:0:0:
313,277,72134,1,2,0:0:0:0:
303,284,72222,1,2,0:0:0:0:
232,227,72396,1,2,0:0:0:0:
222,220,72484,1,2,3:2:0:0:
150,273,72657,2,0,B|96:287|96:287|36:273,1,112.5,8|0,1:0|0:0,0:0:0:0:
32,263,73006,6,0,L|46:172,1,75,0|0,3:0|0:0,0:0:0:0:
121,143,73355,2,0,L|135:52,1,75,8|0,1:0|0:0,0:0:0:0:
210,23,73704,1,2,0:0:0:0:
299,28,73878,1,2,3:2:0:0:
251,105,74053,1,8,1:0:0:0:
340,110,74227,1,2,0:0:0:0:
389,35,74401,6,0,P|417:64|412:163,1,112.5,2|0,3:2|0:0,0:0:0:0:
408,175,74750,6,0,L|414:245,5,50,8|0|0|2|0|0,1:0|0:0|0:0|0:0|0:0|0:0,0:0:0:0:
372,298,75448,2,0,L|378:368,5,50,8|0|0|2|0|0,1:0|0:0|0:0|0:0|0:0|0:0,0:0:0:0:
326,226,76146,2,0,L|320:156,5,50,8|0|0|2|0|0,1:0|0:0|0:0|0:0|0:0|0:0,0:0:0:0:
288,304,76843,1,8,1:0:0:0:
98,126,77192,6,0,L|23:133,2,75,0|0|8,3:0|0:0|1:0,0:0:0:0:
176,86,77715,1,2,0:0:0:0:
189,84,77803,1,2,0:0:0:0:
269,121,77977,1,2,0:0:0:0:
282,119,78065,1,2,3:2:0:0:
349,63,78239,2,0,P|441:68|482:92,1,112.5,8|0,1:0|0:0,0:0:0:0:
463,82,78587,6,0,B|476:157|476:157|457:246,1,150,0|8,3:0|1:0,0:0:0:0:
377,197,79111,2,0,L|388:138,2,37.5,2|0|2,0:0|0:0|0:0,0:0:0:0:
391,284,79460,1,2,3:2:0:0:
321,339,79634,1,8,1:0:0:0:
308,251,79808,1,0,0:0:0:0:
308,251,79896,1,0,0:0:0:0:
308,251,79983,6,0,B|283:212|225:209|225:209|121:255|151:203|58:233|58:233|113:147|66:55,1,450.000017166138,0|0,3:0|0:0,0:0:0:0:
69,60,82773,6,0,L|166:67,1,75,4|0,3:2|0:0,0:0:0:0:
158,67,83035,1,0,3:0:0:0:
172,68,83122,1,8,1:0:0:0:
249,114,83297,1,2,0:0:0:0:
263,115,83384,1,2,3:2:0:0:
336,63,83558,1,2,3:2:0:0:
350,64,83645,1,2,0:0:0:0:
420,120,83820,6,0,L|413:217,1,75,8|0,1:0|0:0,0:0:0:0:
405,202,84082,2,0,L|311:197,2,75,0|0|0,3:0|3:0|0:0,0:0:0:0:
416,207,84518,2,0,L|409:304,1,75,8|0,1:0|0:0,0:0:0:0:
400,288,84779,2,0,L|303:281,2,75,0|0|0,3:0|0:0|3:0,0:0:0:0:
410,296,85215,2,0,P|406:348|361:385,1,112.5,8|4,1:0|0:3,0:0:0:0:
345,383,85564,1,2,3:2:0:0:
121,251,85913,6,0,L|71:255,5,50,8|0|0|2|0|0,1:0|0:0|0:0|0:0|0:0|0:0,0:0:0:0:
189,200,86611,2,0,L|238:195,5,50,8|0|0|2|0|0,1:0|0:0|0:0|0:0|0:0|0:0,0:0:0:0:
111,168,87308,2,0,L|61:172,5,50,8|0|0|2|0|0,1:0|0:0|0:0|0:0|0:0|0:0,0:0:0:0:
182,116,88006,1,8,1:0:0:0:
328,247,88355,6,0,L|429:259,2,75,4|0|8,3:2|0:0|1:0,0:0:0:0:
260,184,88879,1,2,0:0:0:0:
245,182,88966,1,2,0:0:0:0:
182,116,89141,1,2,0:0:0:0:
167,114,89228,1,2,3:2:0:0:
103,50,89402,2,0,B|3:44,1,75,8|0,1:0|0:0,0:0:0:0:
8,131,89750,6,0,B|108:137,1,75,0|0,3:0|0:0,0:0:0:0:
167,114,90099,1,8,1:0:0:0:
143,200,90273,2,0,L|134:247,2,37.5,0|0|2,0:0|0:0|0:0,0:0:0:0:
228,179,90622,1,2,3:2:0:0:
167,114,90797,1,8,1:0:0:0:
82,135,90971,1,0,0:0:0:0:
143,200,91146,1,2,3:2:0:0:
434,279,91494,6,0,L|428:355,5,50,8|0|0|2|0|0,1:0|0:0|0:0|0:0|0:0|0:0,0:0:0:0:
440,197,92192,1,8,1:0:0:0:
385,26,92541,6,0,B|331:12|331:12|276:29,1,112.5,2|2,3:2|0:0,0:0:0:0:
182,125,93064,2,0,B|164:179|164:179|178:233,1,112.5,2|2,0:0|0:0,0:0:0:0:
285,314,93587,2,0,L|274:268,3,37.5,0|0|0|0,3:0|3:0|3:0|3:0,0:0:0:0:
317,333,93936,6,0,L|413:333,1,75,4|0,3:2|0:0,0:0:0:0:
404,333,94198,1,0,3:0:0:0:
416,333,94285,1,8,1:0:0:0:
481,273,94460,1,2,0:0:0:0:
481,261,94547,1,2,0:0:0:0:
424,194,94721,1,2,0:0:0:0:
424,182,94808,1,2,3:2:0:0:
481,113,94983,2,0,B|427:94|427:94|348:115,1,112.5,8|0,1:0|0:0,0:0:0:0:
363,116,95332,6,0,L|272:111,1,75,0|2,3:0|0:0,0:0:0:0:
216,63,95680,2,0,L|125:58,1,75,8|0,1:0|0:0,0:0:0:0:
61,94,96029,1,2,0:0:0:0:
132,146,96204,1,2,3:2:0:0:
52,181,96378,1,8,1:0:0:0:
123,233,96553,1,0,0:0:0:0:
41,271,96727,1,2,3:2:0:0:
334,288,97076,6,0,L|394:292,5,50,8|0|0|2|0|0,1:0|0:0|0:0|0:0|0:0|0:0,0:0:0:0:
263,243,97773,2,0,L|203:239,5,50,8|0|0|2|0|0,1:0|0:0|0:0|0:0|0:0|0:0,0:0:0:0:
340,205,98471,2,0,L|400:209,5,50,8|0|0|2|0|0,1:0|0:0|0:0|0:0|0:0|0:0,0:0:0:0:
267,160,99169,1,8,1:0:0:0:
97,144,99518,6,0,L|89:218,2,75,0|0|8,3:0|0:0|1:0,0:0:0:0:
176,103,100041,1,2,0:0:0:0:
188,103,100128,1,2,0:0:0:0:
255,160,100302,1,2,0:0:0:0:
267,160,100389,1,2,3:2:0:0:
336,103,100564,2,0,B|355:157|355:157|334:236,1,112.5,8|0,1:0|0:0,0:0:0:0:
332,221,100913,6,0,P|389:279|478:263,1,150,0|8,3:0|1:0,0:0:0:0:
505,209,101436,2,0,L|498:160,2,37.5,0|0|2,0:0|0:0|0:0,0:0:0:0:
418,197,101785,1,2,3:2:0:0:
453,277,101960,1,8,1:0:0:0:
402,348,102134,1,0,0:0:0:0:
367,268,102308,5,4,1:0:0:0:
111,194,104576,5,0,3:0:0:0:
200,194,104750,1,8,1:0:0:0:
289,194,104925,1,0,3:0:0:0:
340,265,105095,5,4,3:2:0:0:
113,339,105443,2,0,B|94:265|94:265|110:193,1,150,8|2,1:0|0:0,0:0:0:0:
157,117,105967,1,0,3:0:0:0:
200,194,106141,2,0,L|183:277,1,75,8|0,1:0|0:0,0:0:0:0:
203,355,106490,6,0,P|310:349|354:302,1,150,0|8,3:0|1:0,0:0:0:0:
342,233,107013,2,0,P|336:210|333:181,2,37.5,2|0|2,0:0|0:0|0:0,0:0:0:0:
415,285,107362,1,0,3:0:0:0:
421,195,107536,2,0,P|413:160|371:115,1,75,8|0,1:0|0:0,0:0:0:0:
301,110,107885,5,0,3:0:0:0:
258,286,108234,2,0,B|184:305|184:305|112:288,1,150,8|2,1:0|0:0,0:0:0:0:
29,252,108757,1,0,3:0:0:0:
98,194,108932,2,0,L|198:215,1,75,8|0,1:0|0:0,0:0:0:0:
251,167,109281,6,0,P|246:61|192:29,1,150,0|8,3:0|1:0,0:0:0:0:
177,117,109804,2,0,L|114:106,2,37.5,2|0|2,0:0|0:0|0:0,0:0:0:0:
54,96,110153,1,0,3:0:0:0:
84,179,110327,1,8,1:0:0:0:
24,245,110501,1,0,3:0:0:0:
54,328,110675,5,0,3:0:0:0:
234,329,111025,2,0,B|347:332|347:332|398:298,1,150,8|2,1:0|0:0,0:0:0:0:
442,247,111548,1,0,3:0:0:0:
383,178,111722,2,0,L|296:174,1,75,8|0,1:0|0:0,0:0:0:0:
223,205,112071,6,0,L|122:207,1,75,0|0,3:0|0:0,0:0:0:0:
62,236,112420,1,8,1:0:0:0:
15,158,112595,2,0,L|13:57,1,75,2|2,0:0|0:0,0:0:0:0:
77,20,112943,1,0,3:0:0:0:
152,68,113118,2,0,L|253:66,1,75,8|0,1:0|0:0,0:0:0:0:
317,65,113467,5,0,3:0:0:0:
395,226,113815,2,0,B|326:253|326:253|237:228,1,150,8|2,1:0|0:0,0:0:0:0:
166,205,114339,1,0,3:0:0:0:
219,133,114513,2,0,L|318:157,1,75,8|0,1:0|0:0,0:0:0:0:
378,125,114862,6,0,P|398:93|398:44,2,75,0|0|8,3:0|0:0|1:0,0:0:0:0:
317,65,115385,2,0,P|284:50|230:42,1,75,2|2,0:0|0:0,0:0:0:0:
157,61,115734,1,0,3:0:0:0:
125,145,115908,1,8,1:0:0:0:
177,218,116083,1,0,3:0:0:0:
266,210,116257,5,4,3:2:0:0:
428,131,116606,2,0,B|460:195|460:195|435:298,1,150,8|2,1:0|0:0,0:0:0:0:
403,353,117129,1,0,3:0:0:0:
344,284,117304,2,0,L|365:198,1,75,8|0,1:0|0:0,0:0:0:0:
333,125,117653,6,0,P|263:113|156:145,1,150,0|8,3:0|1:0,0:0:0:0:
118,187,118176,2,0,P|93:257|95:331,1,150,2|0,0:0|3:0,0:0:0:0:
172,378,118699,2,0,P|220:385|268:369,1,75,8|0,1:0|0:0,0:0:0:0:
321,330,119048,5,0,3:0:0:0:
445,199,119397,2,0,B|343:208|343:208|291:181,1,150,8|2,1:0|0:0,0:0:0:0:
273,100,119920,1,0,3:0:0:0:
193,143,120095,2,0,P|156:152|94:138,1,75,8|0,1:0|0:0,0:0:0:0:
42,102,120443,6,0,P|30:137|38:194,1,75,0|0,3:0|0:0,0:0:0:0:
97,236,120792,2,0,P|191:237|255:215,1,150,8|2,1:0|0:0,0:0:0:0:
323,178,121315,1,0,3:0:0:0:
408,145,121490,1,8,1:0:0:0:
478,201,121664,1,0,3:0:0:0:
393,234,121839,5,0,3:0:0:0:
256,117,122188,2,0,P|175:102|91:127,1,150,8|2,1:0|0:0,0:0:0:0:
38,172,122711,1,0,3:0:0:0:
77,252,122885,2,0,P|119:265|169:255,1,75,8|0,1:0|0:0,0:0:0:0:
223,209,123234,6,0,L|396:218,1,150,0|8,3:0|1:0,0:0:0:0:
455,184,123757,2,0,P|462:221|454:258,1,75,2|2,0:0|0:0,0:0:0:0:
381,311,124106,1,0,3:0:0:0:
291,303,124281,2,0,L|208:297,1,75,8|0,1:0|0:0,0:0:0:0:
126,289,124629,5,0,3:0:0:0:
201,125,124978,2,0,L|288:131,1,75,8|2,1:0|0:0,0:0:0:0:
289,132,125240,1,0,0:0:0:0:
301,133,125327,1,2,0:0:0:0:
360,200,125501,1,0,3:0:0:0:
288,254,125676,2,0,L|201:248,1,75,8|0,1:0|0:0,0:0:0:0:
136,201,126025,6,0,P|71:185|-6:257,1,150,2|0,3:2|0:0,0:0:0:0:
83,276,126548,2,0,P|148:292|225:220,1,150,2|0,0:0|0:0,0:0:0:0:
218,158,127071,1,2,0:0:0:0:
493,41,127420,5,6,3:2:0:0:
