osu file format v14

[General]
AudioFilename: audio.mp3
AudioLeadIn: 0
PreviewTime: 97894
Countdown: 0
SampleSet: Soft
StackLeniency: 0.3
Mode: 0
LetterboxInBreaks: 0
WidescreenStoryboard: 1

[Editor]
DistanceSpacing: 1
BeatDivisor: 4
GridSize: 32
TimelineZoom: 1.6

[Metadata]
Title:Doomsday
TitleUnicode:Doomsday
Artist:Mediks
ArtistUnicode:Mediks
Creator:Strategas
Version:Insane
Source:
Tags:outbreak zombie dnb ep 2012 drum & and bass wub
BeatmapID:1290316
BeatmapSetID:545677

[Difficulty]
HPDrainRate:5.5
CircleSize:3
OverallDifficulty:8
ApproachRate:9
SliderMultiplier:1.7
SliderTickRate:2

[Events]
//Background and Video events
0,0,"nnoo.jpg",0,0
//Break Periods
//Storyboard Layer 0 (Background)
//Storyboard Layer 1 (Fail)
//Storyboard Layer 2 (Pass)
//Storyboard Layer 3 (Foreground)
//Storyboard Sound Samples

[TimingPoints]
220,348.837209302326,4,1,25,100,1,0
22545,-200,4,2,25,50,0,0
22720,-200,4,2,25,30,0,0
44871,-133.333333333333,4,2,25,50,0,0
45132,-133.333333333333,4,2,25,25,0,0
45220,-133.333333333333,4,2,25,50,0,0
45481,-133.333333333333,4,2,25,25,0,0
45569,-133.333333333333,4,2,25,50,0,0
45830,-133.333333333333,4,2,25,25,0,0
45918,-133.333333333333,4,2,25,50,0,0
46179,-133.333333333333,4,2,25,25,0,0
46267,-133.333333333333,4,2,25,50,0,0
46528,-133.333333333333,4,2,25,25,0,0
46616,-133.333333333333,4,2,25,50,0,0
46876,-133.333333333333,4,2,25,25,0,0
46964,-133.333333333333,4,2,25,50,0,0
47225,-133.333333333333,4,2,25,25,0,0
47313,-133.333333333333,4,2,25,50,0,0
47574,-133.333333333333,4,2,25,25,0,0
47662,-133.333333333333,4,2,25,50,0,0
47923,-133.333333333333,4,2,25,25,0,0
48011,-133.333333333333,4,2,25,50,0,0
48272,-133.333333333333,4,2,25,25,0,0
48360,-133.333333333333,4,2,25,50,0,0
48621,-133.333333333333,4,2,25,25,0,0
48709,-133.333333333333,4,2,25,50,0,0
48970,-133.333333333333,4,2,25,25,0,0
49058,-133.333333333333,4,2,25,50,0,0
49318,-133.333333333333,4,2,25,25,0,0
49406,-133.333333333333,4,2,25,50,0,0
49667,-133.333333333333,4,2,25,25,0,0
49755,-133.333333333333,4,2,25,50,0,0
50016,-133.333333333333,4,2,25,25,0,0
50104,-133.333333333333,4,2,25,50,0,0
50365,-133.333333333333,4,2,25,25,0,0
50453,-133.333333333333,4,2,25,55,0,0
54900,-111.111111111111,4,2,25,50,0,0
55074,-95.2380952380952,4,2,25,50,0,0
55249,-83.3333333333333,4,2,25,50,0,0
55423,-74.0740740740741,4,2,25,50,0,0
55597,-66.6666666666667,4,2,25,50,0,0
55772,-60.6060606060606,4,2,25,50,0,0
55946,-55.5555555555556,4,2,25,50,0,0
56033,-66.6666666666667,4,2,25,70,0,1
56295,-66.6666666666667,4,2,25,5,0,1
56382,-100,4,2,25,70,0,1
56470,-100,4,2,25,5,0,1
56557,-100,4,2,25,70,0,1
56600,-100,4,2,25,5,0,1
56644,-100,4,2,25,70,0,1
56688,-100,4,2,25,5,0,1
56731,-100,4,2,25,70,0,1
56949,-100,4,2,25,5,0,1
56993,-100,4,2,25,70,0,1
57211,-100,4,2,25,5,0,1
57254,-100,4,2,25,70,0,1
57429,-66.6666666666667,4,2,25,70,0,1
57690,-66.6666666666667,4,2,25,5,0,1
57778,-133.333333333333,4,2,25,70,0,1
58824,-66.6666666666667,4,2,25,70,0,1
61964,-100,4,2,25,70,0,1
62138,-100,4,2,25,70,0,1
62182,-100,4,2,25,5,0,1
62225,-100,4,2,25,70,0,1
62269,-100,4,2,25,5,0,1
62313,-100,4,2,25,70,0,1
62531,-100,4,2,25,5,0,1
62574,-100,4,2,25,70,0,1
62792,-100,4,2,25,5,0,1
62836,-100,4,2,25,70,0,1
63010,-66.6666666666667,4,2,25,70,0,1
63272,-66.6666666666667,4,2,25,5,0,1
63359,-133.333333333333,4,2,25,70,0,1
64406,-100,4,2,25,50,0,0
67196,-66.6666666666667,4,2,25,70,0,1
67458,-66.6666666666667,4,2,25,5,0,1
67545,-100,4,2,25,70,0,1
67763,-100,4,2,25,5,0,1
67807,-100,4,2,25,70,0,1
67850,-100,4,2,25,5,0,1
67894,-100,4,2,25,70,0,1
68112,-100,4,2,25,5,0,1
68156,-100,4,2,25,70,0,1
68374,-100,4,2,25,5,0,1
68417,-100,4,2,25,70,0,1
68592,-66.6666666666667,4,2,25,70,0,1
68853,-50,4,2,25,5,0,1
68940,-133.333333333333,4,2,25,70,0,1
69987,-66.6666666666667,4,2,25,70,0,1
72778,-100,4,2,25,70,0,1
75568,-133.333333333333,4,2,25,50,0,0
78359,-66.6666666666667,4,2,25,70,0,1
78621,-66.6666666666667,4,2,25,5,0,1
78708,-100,4,2,25,70,0,1
78926,-100,4,2,25,5,0,1
78970,-100,4,2,25,70,0,1
79013,-100,4,2,25,5,0,1
79057,-100,4,2,25,70,0,1
79275,-100,4,2,25,5,0,1
79318,-100,4,2,25,70,0,1
79536,-100,4,2,25,5,0,1
79580,-100,4,2,25,70,0,1
79754,-66.6666666666667,4,2,25,70,0,1
80016,-66.6666666666667,4,2,25,5,0,1
80103,-133.333333333333,4,2,25,70,0,1
81499,-66.6666666666667,4,2,25,70,0,1
84289,-100,4,2,25,70,0,1
84507,-100,4,2,25,5,0,1
84551,-100,4,2,25,70,0,1
84595,-100,4,2,25,5,0,1
84638,-100,4,2,25,70,0,1
84856,-100,4,2,25,5,0,1
84900,-100,4,2,25,70,0,1
85118,-100,4,2,25,5,0,1
85161,-100,4,2,25,70,0,1
85335,-66.6666666666667,4,2,25,70,0,1
85597,-66.6666666666667,4,2,25,5,0,1
85684,-133.333333333333,4,2,25,70,0,1
86731,-100,4,2,25,50,0,0
89522,-66.6666666666667,4,2,25,70,0,1
89783,-66.6666666666667,4,2,25,5,0,1
89870,-100,4,2,25,70,0,1
90089,-100,4,2,25,5,0,1
90132,-100,4,2,25,70,0,1
90176,-100,4,2,25,5,0,1
90220,-100,4,2,25,70,0,1
90438,-100,4,2,25,5,0,1
90481,-100,4,2,25,70,0,1
90699,-100,4,2,25,5,0,1
90743,-100,4,2,25,70,0,1
90917,-66.6666666666667,4,2,25,70,0,1
91179,-66.6666666666667,4,2,25,5,0,1
91265,-133.333333333333,4,2,25,70,0,1
92312,-66.6666666666667,4,2,25,70,0,1
95103,-100,4,2,25,70,0,1
97894,-100,4,2,25,70,0,0
100685,-66.6666666666667,4,2,25,70,0,0
100946,-66.6666666666667,4,2,25,5,0,0
101033,-50,4,2,25,70,0,0
101600,-66.6666666666667,4,2,25,5,0,0
101644,-50,4,2,25,70,0,0
101688,-66.6666666666667,4,2,25,5,0,0
101731,-50,4,2,25,70,0,0
102080,-66.6666666666667,4,2,25,70,0,0
102342,-66.6666666666667,4,2,25,5,0,0
102429,-133.333333333333,4,2,25,70,0,0
102690,-66.6666666666667,4,2,25,5,0,0
102778,-50,4,2,25,70,0,0
102865,-66.6666666666667,4,2,25,5,0,0
102952,-133.333333333333,4,2,25,70,0,0
103388,-66.6666666666667,4,2,25,5,0,0
103475,-100,4,2,25,70,0,0
104871,-66.6666666666667,4,2,25,70,0,0
106615,-50,4,2,25,70,0,0
107182,-66.6666666666667,4,2,25,5,0,0
107225,-50,4,2,25,70,0,0
107269,-66.6666666666667,4,2,25,5,0,0
107313,-50,4,2,25,70,0,0
107661,-66.6666666666667,4,2,25,70,0,0
107923,-66.6666666666667,4,2,25,5,0,0
108010,-133.333333333333,4,2,25,70,0,0
108272,-66.6666666666667,4,2,25,5,0,0
108359,-50,4,2,25,70,0,0
108446,-66.6666666666667,4,2,25,5,0,0
108533,-133.333333333333,4,2,25,70,0,0
108970,-66.6666666666667,4,2,25,5,0,0
109057,-133.333333333333,4,2,25,50,0,0
110452,-200,4,2,25,40,0,0
111847,-66.6666666666667,4,2,25,70,0,0
112109,-66.6666666666667,4,2,25,5,0,0
112196,-200,4,2,25,70,0,0
112545,-50,4,2,25,70,0,0
112763,-66.6666666666667,4,2,25,5,0,0
112807,-50,4,2,25,70,0,0
112850,-66.6666666666667,4,2,25,5,0,0
112894,-50,4,2,25,70,0,0
113243,-66.6666666666667,4,2,25,70,0,0
113504,-66.6666666666667,4,2,25,5,0,0
113592,-133.333333333333,4,2,25,70,0,0
113853,-66.6666666666667,4,2,25,5,0,0
113940,-50,4,2,25,70,0,0
114028,-66.6666666666667,4,2,25,5,0,0
114115,-133.333333333333,4,2,25,70,0,0
114551,-66.6666666666667,4,2,25,5,0,0
114638,-100,4,2,25,70,0,0
116033,-66.6666666666667,4,2,25,70,0,0
117429,-100,4,2,25,70,0,0
120220,-200,4,2,25,40,0,0
123000,348.837209302326,4,2,25,50,1,0
123000,-133.333333333333,4,2,25,50,0,0
142535,-133.333333333333,4,2,25,30,0,0
145325,-100,4,2,25,25,0,0
145848,-125,4,2,25,23,0,0
146372,-166.666666666667,4,2,25,21,0,0
146895,-250,4,2,25,19,0,0
147418,-500,4,2,25,17,0,0
147941,-500,4,2,25,15,0,0

[Colours]
Combo1 : 207,207,207
Combo2 : 19,166,27
Combo3 : 0,91,204
Combo4 : 194,12,39
Combo5 : 193,97,0
Combo6 : 0,193,193
Combo7 : 116,0,232
Combo8 : 106,106,106

[HitObjects]
13,139,22545,102,0,L|69:134,2,42.5,6|0|0,0:0|0:0|0:0,0:0:0:0:
146,127,23068,2,0,L|202:122,2,42.5,2|0|0,0:0|0:0|0:0,0:0:0:0:
279,115,23592,2,0,L|335:110,2,42.5,2|0|0,0:0|0:0|0:0,0:0:0:0:
412,103,24115,2,0,L|468:98,2,42.5,2|0|0,0:0|0:0|0:0,0:0:0:0:
370,186,24638,2,0,L|375:242,1,42.5,2|0,0:0|0:0,0:0:0:0:
378,320,24987,1,0,0:0:0:0:
455,270,25161,1,2,0:0:0:0:
297,277,25336,6,0,L|241:282,2,42.5,2|0|0,0:0|0:0|0:0,0:0:0:0:
196,210,25859,2,0,L|140:215,2,42.5,2|0|0,0:0|0:0|0:0,0:0:0:0:
95,143,26382,2,0,L|39:148,1,42.5,2|0,0:0|0:0,0:0:0:0:
0,222,26731,1,0,0:0:0:0:
161,80,26906,2,0,L|217:75,1,42.5,2|0,0:0|0:0,0:0:0:0:
276,131,27254,1,0,0:0:0:0:
210,194,27429,2,0,L|154:199,1,42.5,2|0,0:0|0:0,0:0:0:0:
95,143,27777,1,0,0:0:0:0:
286,245,27952,2,0,L|291:301,1,42.5,2|0,0:0|0:0,0:0:0:0:
235,360,28300,1,0,0:0:0:0:
159,309,28475,2,0,L|154:253,1,42.5,2|0,0:0|0:0,0:0:0:0:
210,194,28823,1,0,0:0:0:0:
143,131,28999,2,0,L|139:88,2,42.5,2|0|0,0:0|0:0|0:0,0:0:0:0:
293,150,29522,102,0,L|335:151,2,42.5,2|0|0,0:0|0:0|0:0,0:0:0:0:
312,243,30045,2,0,L|354:244,2,42.5,2|0|0,0:0|0:0|0:0,0:0:0:0:
331,336,30568,2,0,L|373:337,2,42.5,2|0|0,0:0|0:0|0:0,0:0:0:0:
236,148,31092,2,0,L|193:149,2,42.5,2|0|0,0:0|0:0|0:0,0:0:0:0:
217,241,31615,2,0,L|174:242,2,42.5,2|0|0,0:0|0:0|0:0,0:0:0:0:
198,334,32138,2,0,L|155:335,2,42.5,2|0|0,0:0|0:0|0:0,0:0:0:0:
89,272,32661,2,0,L|46:273,2,42.5,2|0|0,0:0|0:0|0:0,0:0:0:0:
175,242,33185,2,0,L|218:241,2,42.5,2|0|0,0:0|0:0|0:0,0:0:0:0:
51,100,33708,6,0,B|92:92|92:92|144:98,1,85,6|0,0:0|0:0,0:0:0:0:
225,106,34231,2,0,L|274:109,2,42.5,2|0|0,0:0|0:0|0:0,0:0:0:0:
358,117,34754,2,0,L|407:120,2,42.5,2|0|0,0:0|0:0|0:0,0:0:0:0:
491,131,35278,1,2,0:0:0:0:
394,211,35452,2,0,L|351:208,1,42.5,0|0,0:0|0:0,0:0:0:0:
262,200,35801,1,2,0:0:0:0:
332,298,35975,2,0,L|374:300,1,42.5,0|0,0:0|0:0,0:0:0:0:
465,310,36324,1,2,0:0:0:0:
406,119,36499,101,2,0:0:0:0:
394,211,36673,1,0,0:0:0:0:
418,27,36847,1,0,0:0:0:0:
334,63,37022,2,0,L|282:59,2,42.5,2|0|0,0:0|0:0|0:0,0:0:0:0:
322,154,37545,2,0,L|270:150,2,42.5,2|0|0,0:0|0:0|0:0,0:0:0:0:
310,245,38068,2,0,L|258:241,2,42.5,2|0|0,0:0|0:0|0:0,0:0:0:0:
298,336,38592,2,0,L|246:332,2,42.5,2|0|0,0:0|0:0|0:0,0:0:0:0:
381,300,39115,1,2,0:0:0:0:
256,192,39289,12,0,44696,0:0:0:0:
40,102,44871,22,0,B|86:91|86:91|136:98,1,95.6250036478044,0|0,3:0|0:0,0:0:0:0:
88,175,45220,2,0,B|135:181|135:181|181:170,1,95.6250036478044,0|0,3:0|0:0,0:0:0:0:
134,97,45568,2,0,B|180:86|180:86|230:93,1,95.6250036478044,0|0,3:0|0:0,0:0:0:0:
182,170,45917,2,0,B|229:176|229:176|275:165,1,95.6250036478044,0|0,3:0|0:0,0:0:0:0:
228,92,46266,2,0,B|274:81|274:81|324:88,1,95.6250036478044,0|0,3:0|0:0,0:0:0:0:
276,165,46615,2,0,B|323:171|323:171|369:160,1,95.6250036478044,0|0,3:0|0:0,0:0:0:0:
322,88,46964,2,0,B|368:77|368:77|418:84,1,95.6250036478044,0|0,3:0|0:0,0:0:0:0:
370,160,47313,2,0,B|417:166|417:166|463:155,1,95.6250036478044,0|0,3:0|0:0,0:0:0:0:
461,324,47661,38,0,B|415:335|415:335|365:328,1,95.6250036478044,0|0,3:0|0:0,0:0:0:0:
413,251,48010,2,0,B|365:244|365:244|319:255,1,95.6250036478044,0|0,3:0|0:0,0:0:0:0:
367,328,48359,2,0,B|321:339|321:339|271:332,1,95.6250036478044,0|0,3:0|0:0,0:0:0:0:
319,255,48708,2,0,B|271:248|271:248|225:259,1,95.6250036478044,0|0,3:0|0:0,0:0:0:0:
273,332,49057,2,0,B|227:343|227:343|177:336,1,95.6250036478044,0|0,3:0|0:0,0:0:0:0:
225,259,49406,2,0,B|177:252|177:252|131:263,1,95.6250036478044,0|0,3:0|0:0,0:0:0:0:
179,336,49754,2,0,B|133:347|133:347|83:340,1,95.6250036478044,0|0,3:0|0:0,0:0:0:0:
131,262,50103,2,0,B|83:255|83:255|37:266,1,95.6250036478044,0|0,3:0|0:0,0:0:0:0:
1,345,50452,69,2,3:2:0:0:
78,175,50626,1,0,3:0:0:0:
1,345,50801,1,0,3:0:0:0:
78,175,50975,1,0,3:0:0:0:
155,345,51150,37,2,3:2:0:0:
78,175,51324,1,0,3:0:0:0:
155,345,51499,1,0,3:0:0:0:
78,175,51673,1,0,3:0:0:0:
1,345,51847,69,2,3:2:0:0:
78,175,52021,1,0,3:0:0:0:
1,345,52196,1,0,3:0:0:0:
78,175,52370,1,0,3:0:0:0:
155,345,52545,37,2,3:2:0:0:
78,175,52719,1,0,3:0:0:0:
155,345,52894,1,0,3:0:0:0:
78,175,53068,1,0,3:0:0:0:
257,253,53243,101,2,3:2:0:0:
279,260,53330,1,0,3:0:0:0:
303,262,53417,1,0,3:0:0:0:
326,258,53504,1,0,3:0:0:0:
348,248,53591,1,2,3:2:0:0:
366,233,53679,1,0,3:0:0:0:
380,213,53766,1,0,3:0:0:0:
388,191,53853,1,0,3:0:0:0:
390,167,53940,1,2,3:2:0:0:
386,143,54027,1,0,3:0:0:0:
376,122,54115,1,0,3:0:0:0:
361,103,54202,1,0,3:0:0:0:
341,90,54289,1,2,3:2:0:0:
319,81,54376,1,0,3:0:0:0:
295,79,54463,1,0,3:0:0:0:
272,83,54551,1,0,3:0:0:0:
250,93,54638,1,4,3:0:0:0:
300,169,55685,101,8,1:0:0:0:
300,169,56033,2,0,B|241:153|241:153|178:172|178:172|116:155,1,191.250007295609,4|0,0:0|0:0,0:0:0:0:
94,148,56382,5,8,1:0:0:0:
131,265,56557,1,2,0:0:0:0:
128,289,56644,1,2,0:0:0:0:
125,313,56731,2,0,L|120:358,1,42.5,2|0,0:0|0:0,0:0:0:0:
340,331,56906,1,2,3:2:0:0:
343,307,56993,2,0,L|348:262,1,42.5,2|8,0:0|1:0,0:0:0:0:
240,265,57167,1,2,0:0:0:0:
237,289,57254,2,0,L|232:334,1,42.5,2|0,0:0|0:0,0:0:0:0:
300,169,57429,102,0,B|241:153|241:153|178:172|178:172|116:155,1,191.250007295609,0|0,3:0|0:0,0:0:0:0:
138,64,57778,6,0,B|139:108|116:155|116:155|90:109|91:60,1,191.250007295609,8|0,1:0|3:0,0:0:0:0:
118,264,58475,1,8,1:0:0:0:
24,211,58650,1,0,0:0:0:0:
211,207,58824,5,2,3:2:0:0:
211,207,59173,69,8,1:0:0:0:
250,193,59260,1,0,0:0:0:0:
280,163,59347,1,2,3:2:0:0:
293,123,59434,1,0,0:0:0:0:
287,82,59521,1,2,0:0:0:0:
263,47,59609,1,0,0:0:0:0:
226,27,59696,1,2,3:2:0:0:
211,207,59871,21,8,1:0:0:0:
225,246,59958,1,2,0:0:0:0:
255,276,60045,1,2,0:0:0:0:
295,289,60132,1,2,0:0:0:0:
336,283,60220,6,0,B|294:244|294:244|129:267,1,191.250007295609,0|2,3:0|0:0,0:0:0:0:
72,276,60568,1,8,1:0:0:0:
0,137,60743,1,2,0:0:0:0:
31,132,60830,1,0,3:0:0:0:
63,128,60917,1,2,0:0:0:0:
94,123,61004,1,2,0:0:0:0:
126,119,61092,2,0,L|189:112,1,63.7500024318696,2|2,3:2|0:0,0:0:0:0:
341,167,61266,2,0,L|278:174,1,63.7500024318696,8|2,1:0|0:0,0:0:0:0:
267,35,61440,2,0,L|330:28,1,63.7500024318696,2|2,3:2|0:0,0:0:0:0:
419,90,61615,69,2,3:2:0:0:
419,90,61964,1,8,1:0:0:0:
446,190,62139,1,2,0:0:0:0:
443,214,62226,1,2,0:0:0:0:
440,238,62313,2,0,L|435:283,1,42.5,2|0,0:0|0:0,0:0:0:0:
220,245,62488,1,2,3:2:0:0:
223,221,62574,2,0,L|228:176,1,42.5,2|8,0:0|1:0,0:0:0:0:
341,167,62749,1,2,0:0:0:0:
338,191,62836,2,0,L|333:236,1,42.5,2|0,0:0|0:0,0:0:0:0:
277,79,63010,6,0,B|218:63|218:63|155:82|155:82|93:65,1,191.250007295609,2|0,3:2|0:0,0:0:0:0:
71,156,63359,6,0,B|70:112|93:65|93:65|119:111|118:160,1,191.250007295609,8|0,1:0|3:0,0:0:0:0:
0,13,64057,1,8,1:0:0:0:
195,18,64231,1,0,3:0:0:0:
83,264,64406,54,0,B|143:324|143:324|213:271,1,170,6|8,3:2|1:0,0:0:0:0:
297,208,64929,1,4,3:0:0:0:
314,197,65016,1,4,3:0:0:0:
331,186,65103,1,4,3:0:0:0:
335,311,65278,1,4,3:0:0:0:
318,322,65365,1,4,3:0:0:0:
301,333,65452,1,8,1:0:0:0:
177,295,65626,1,4,3:0:0:0:
194,284,65713,1,4,3:0:0:0:
211,273,65800,1,4,0:0:0:0:
474,88,66499,5,2,0:0:0:0:
474,88,66847,1,2,0:0:0:0:
365,214,67196,22,0,B|381:155|381:155|362:92|362:92|379:30,1,191.250007295609,2|0,3:2|0:0,0:0:0:0:
386,8,67545,5,8,1:0:0:0:
268,45,67720,1,2,0:0:0:0:
244,42,67807,1,2,0:0:0:0:
220,39,67894,2,0,L|175:34,1,42.5,2|0,0:0|0:0,0:0:0:0:
191,145,68069,1,2,3:2:0:0:
215,148,68156,2,0,L|260:153,1,42.5,0|8,0:0|1:0,0:0:0:0:
255,261,68330,1,2,0:0:0:0:
231,258,68417,2,0,L|186:253,1,42.5,2|0,0:0|0:0,0:0:0:0:
365,214,68592,102,0,B|381:155|381:155|362:92|362:92|379:30,1,191.250007295609,2|0,3:2|0:0,0:0:0:0:
470,51,68940,6,0,B|426:52|379:29|379:29|425:3|474:4,1,191.250007295609,8|0,1:0|3:0,0:0:0:0:
272,159,69637,1,8,1:0:0:0:
274,50,69812,1,0,0:0:0:0:
365,214,69986,5,2,3:2:0:0:
365,214,70336,1,8,1:0:0:0:
337,245,70423,1,0,0:0:0:0:
299,264,70510,1,2,3:2:0:0:
257,267,70597,1,0,0:0:0:0:
217,252,70684,1,2,0:0:0:0:
186,224,70772,1,0,0:0:0:0:
168,186,70859,1,2,3:2:0:0:
365,214,71033,69,8,1:0:0:0:
351,253,71120,1,2,0:0:0:0:
321,283,71207,1,2,0:0:0:0:
281,296,71294,1,2,0:0:0:0:
240,290,71382,22,0,B|282:251|282:251|447:274,1,191.250007295609,2|2,3:2|0:0,0:0:0:0:
504,288,71731,1,8,1:0:0:0:
460,119,71906,1,2,0:0:0:0:
429,114,71993,1,0,3:0:0:0:
397,110,72080,1,2,0:0:0:0:
366,105,72167,1,2,0:0:0:0:
334,101,72255,2,0,L|271:94,1,63.7500024318696,0|2,3:0|0:0,0:0:0:0:
119,149,72429,2,0,L|182:156,1,63.7500024318696,8|2,1:0|0:0,0:0:0:0:
193,17,72603,2,0,L|130:10,1,63.7500024318696,2|2,3:2|0:0,0:0:0:0:
41,72,72778,21,2,3:2:0:0:
41,72,73126,2,0,L|12:146,2,56.6666666666667,8|2|2,1:0|0:0|0:0,0:0:0:0:
119,149,73475,2,0,L|148:223,2,56.6666666666667,2|2|2,0:0|0:0|0:0,0:0:0:0:
40,226,73824,2,0,L|11:300,2,56.6666666666667,8|2|2,1:0|0:0|0:0,0:0:0:0:
119,303,74173,2,0,L|148:377,2,56.6666666666667,2|2|2,3:2|0:0|0:0,0:0:0:0:
212,265,74522,5,8,1:0:0:0:
239,269,74638,2,0,L|294:278,1,56.6666666666667,2|2,0:0|0:0,0:0:0:0:
422,199,74871,1,2,0:0:0:0:
395,195,74987,2,0,L|340:186,1,56.6666666666667,2|2,0:0|0:0,0:0:0:0:
220,77,75220,1,8,1:0:0:0:
247,81,75336,2,0,L|302:90,1,56.6666666666667,2|2,0:0|0:0,0:0:0:0:
141,151,75568,6,0,P|102:156|72:149,1,63.7500024318696,2|0,3:2|0:0,0:0:0:0:
109,64,75917,1,8,0:0:0:0:
205,216,76092,2,0,P|206:236|204:264,2,31.8750012159348,2|2|0,0:0|0:0|3:0,0:0:0:0:
139,310,76440,1,8,0:0:0:0:
293,275,76615,6,0,P|308:274|324:275,3,31.8750012159348,2|2|2|2,0:0|0:0|0:0|0:0,0:0:0:0:
404,231,76964,2,0,P|419:230|435:230,3,31.8750012159348,2|2|0|0,0:0|0:0|3:0|0:0,0:0:0:0:
512,283,77313,1,8,0:0:0:0:
486,153,77487,1,2,0:0:0:0:
483,147,77574,1,2,0:0:0:0:
480,141,77661,2,0,L|471:113,4,15.9375006079674,8|8|8|8|8,3:0|3:0|3:0|3:0|3:0,0:0:0:0:
438,42,78010,1,8,1:0:0:0:
438,42,78359,22,0,B|398:51|351:30|351:30|339:42|339:42|298:20|244:39,1,191.250007295609,2|0,3:2|0:0,0:0:0:0:
188,99,78708,5,8,1:0:0:0:
281,229,78882,1,2,0:0:0:0:
284,205,78970,1,2,0:0:0:0:
286,181,79057,2,0,L|291:139,1,42.5,2|0,0:0|0:0,0:0:0:0:
176,202,79231,1,2,3:2:0:0:
173,225,79318,2,0,L|168:267,1,42.5,2|8,0:0|1:0,0:0:0:0:
71,176,79493,1,2,0:0:0:0:
73,152,79580,2,0,L|77:109,1,42.5,2|0,0:0|0:0,0:0:0:0:
256,35,79754,102,0,B|296:26|343:47|343:47|355:35|355:35|396:57|450:38,1,191.250007295609,2|0,3:2|0:0,0:0:0:0:
416,133,80103,6,0,B|415:89|438:42|438:42|464:88|463:134,1,191.250007295609,8|0,1:0|3:0,0:0:0:0:
444,351,80801,1,8,1:0:0:0:
442,242,80975,1,0,0:0:0:0:
254,351,81150,5,2,3:2:0:0:
254,351,81499,69,8,1:0:0:0:
234,314,81586,1,0,0:0:0:0:
199,290,81674,1,2,3:2:0:0:
158,284,81761,1,0,0:0:0:0:
118,297,81848,1,2,0:0:0:0:
88,327,81935,1,0,0:0:0:0:
74,366,82022,1,2,3:2:0:0:
160,176,82196,21,8,1:0:0:0:
146,137,82283,1,2,0:0:0:0:
116,107,82370,1,2,0:0:0:0:
76,94,82457,1,2,0:0:0:0:
35,100,82545,6,0,B|77:139|77:139|242:116,1,191.250007295609,2|2,3:2|0:0,0:0:0:0:
300,105,82894,1,8,1:0:0:0:
348,259,83068,1,2,0:0:0:0:
317,264,83155,1,0,3:0:0:0:
285,268,83242,1,2,0:0:0:0:
254,273,83329,1,0,0:0:0:0:
222,277,83417,2,0,L|159:284,1,63.7500024318696,0|2,3:0|0:0,0:0:0:0:
3,236,83591,2,0,L|66:229,1,63.7500024318696,8|2,1:0|0:0,0:0:0:0:
77,354,83765,2,0,L|14:361,1,63.7500024318696,2|2,3:2|0:0,0:0:0:0:
159,284,83940,69,2,3:2:0:0:
187,100,84289,1,8,1:0:0:0:
75,139,84463,1,2,0:0:0:0:
72,163,84551,1,2,0:0:0:0:
70,186,84638,2,0,L|65:228,1,42.5,2|0,0:0|0:0,0:0:0:0:
180,166,84812,1,2,3:2:0:0:
183,143,84899,2,0,L|187:100,1,42.5,2|8,0:0|1:0,0:0:0:0:
288,164,85074,1,2,0:0:0:0:
286,188,85161,2,0,L|281:230,1,42.5,2|0,0:0|0:0,0:0:0:0:
133,327,85336,6,0,B|173:318|220:339|220:339|232:327|232:327|273:349|327:330,1,191.250007295609,2|0,3:2|0:0,0:0:0:0:
406,308,85685,6,0,B|360:308|314:334|314:334|361:357|405:356,1,191.250007295609,8|0,1:0|3:0,0:0:0:0:
281,230,86382,1,8,1:0:0:0:
133,327,86557,1,0,3:0:0:0:
33,152,86731,54,0,B|93:92|93:92|163:145,1,170,6|8,3:2|1:0,0:0:0:0:
247,208,87254,1,4,3:0:0:0:
264,219,87341,1,4,3:0:0:0:
281,230,87428,1,4,3:0:0:0:
285,105,87603,1,4,3:0:0:0:
268,94,87690,1,4,3:0:0:0:
251,83,87777,1,8,1:0:0:0:
127,121,87951,1,4,3:0:0:0:
144,132,88038,1,4,3:0:0:0:
161,143,88125,1,8,3:0:0:0:
480,352,88824,5,2,0:0:0:0:
480,352,89173,1,2,0:0:0:0:
509,242,89522,22,0,B|469:233|422:254|422:254|410:242|410:242|369:264|315:245,1,191.250007295609,2|0,3:2|0:0,0:0:0:0:
259,185,89871,5,8,1:0:0:0:
352,55,90045,1,2,0:0:0:0:
355,79,90133,1,2,0:0:0:0:
358,102,90220,2,0,L|362:144,1,42.5,2|0,0:0|0:0,0:0:0:0:
247,82,90394,1,2,3:2:0:0:
244,59,90481,2,0,L|239:16,1,42.5,0|8,0:0|1:0,0:0:0:0:
142,108,90656,1,2,0:0:0:0:
144,132,90743,2,0,L|148:174,1,42.5,2|0,0:0|0:0,0:0:0:0:
217,261,90917,102,0,B|257:270|304:249|304:249|316:261|316:261|357:239|411:258,1,191.250007295609,2|0,3:2|0:0,0:0:0:0:
376,345,91266,6,0,B|375:301|398:254|398:254|424:300|423:346,1,191.250007295609,8|0,1:0|3:0,0:0:0:0:
453,160,91964,2,0,P|482:147|513:139,1,63.7500024318696,8|0,1:0|0:0,0:0:0:0:
398,254,92313,5,2,3:2:0:0:
398,254,92661,69,8,1:0:0:0:
364,277,92748,1,0,0:0:0:0:
322,282,92835,1,2,3:2:0:0:
282,269,92922,1,0,0:0:0:0:
253,239,93009,1,2,0:0:0:0:
239,199,93097,1,0,0:0:0:0:
246,158,93184,1,2,3:2:0:0:
173,311,93359,21,8,1:0:0:0:
138,333,93446,1,2,0:0:0:0:
96,339,93533,1,2,0:0:0:0:
56,325,93621,1,2,0:0:0:0:
28,296,93708,6,0,B|16:248|16:248|36:105,1,191.250007295609,2|2,3:2|0:0,0:0:0:0:
58,18,94057,1,8,1:0:0:0:
264,32,94231,1,2,0:0:0:0:
259,63,94318,1,0,3:0:0:0:
255,95,94405,1,2,0:0:0:0:
250,126,94492,1,2,0:0:0:0:
246,158,94580,2,0,L|239:221,1,63.7500024318696,0|2,3:0|0:0,0:0:0:0:
287,377,94754,2,0,L|294:314,1,63.7500024318696,8|2,1:0|0:0,0:0:0:0:
169,303,94928,2,0,L|162:366,1,63.7500024318696,2|2,3:2|0:0,0:0:0:0:
239,221,95103,5,2,3:2:0:0:
239,221,95452,2,0,L|268:147,2,56.6666666666667,8|2|2,1:0|0:0|0:0,0:0:0:0:
161,144,95801,2,0,L|132:70,2,56.6666666666667,2|2|2,0:0|0:0|0:0,0:0:0:0:
302,75,96150,2,0,L|331:1,2,56.6666666666667,8|2|2,1:0|0:0|0:0,0:0:0:0:
444,183,96499,5,2,3:2:0:0:
417,179,96615,2,0,L|362:170,1,56.6666666666667,2|2,0:0|0:0,0:0:0:0:
234,249,96848,1,8,1:0:0:0:
261,253,96964,2,0,L|316:262,1,56.6666666666667,2|0,0:0|0:0,0:0:0:0:
436,371,97197,1,2,0:0:0:0:
409,367,97313,2,0,L|354:358,1,56.6666666666667,2|0,0:0|0:0,0:0:0:0:
361,169,97545,1,8,1:0:0:0:
388,173,97661,2,0,L|443:182,1,56.6666666666667,2|2,0:0|0:0,0:0:0:0:
512,277,97894,5,4,3:2:0:0:
361,145,100685,38,0,B|302:129|302:129|239:148|239:148|177:131,1,191.250007295609,2|0,3:2|0:0,0:0:0:0:
153,17,101033,6,0,L|235:38,1,85,2|0,0:0|0:0,0:0:0:0:
237,49,101208,2,0,L|155:26,1,85,2|0,3:2|0:0,0:0:0:0:
7,53,101382,1,8,1:0:0:0:
78,137,101557,1,2,0:0:0:0:
86,145,101644,1,2,0:0:0:0:
94,153,101731,2,0,L|176:130,1,85,2|0,0:0|0:0,0:0:0:0:
184,138,101906,2,0,L|102:161,1,85,2|0,0:0|0:0,0:0:0:0:
79,337,102080,102,0,B|95:278|95:278|76:215|76:215|93:153,1,191.250007295609,2|0,3:2|0:0,0:0:0:0:
247,143,102429,6,0,L|183:137,1,63.7500024318696,2|0,3:2|0:0,0:0:0:0:
11,118,102778,1,8,1:0:0:0:
233,27,102952,2,0,B|292:33|292:33|295:38|295:38|367:44,1,127.500004863739,2|0,3:2|0:0,0:0:0:0:
464,58,103475,1,2,3:2:0:0:
464,58,103824,5,2,0:0:0:0:
465,72,103911,1,0,0:0:0:0:
440,112,103999,69,2,3:2:0:0:
441,126,104086,1,0,0:0:0:0:
416,166,104173,21,8,1:0:0:0:
417,180,104260,1,0,0:0:0:0:
393,220,104347,5,2,0:0:0:0:
194,158,104522,69,2,0:0:0:0:
220,139,104609,1,0,0:0:0:0:
250,131,104696,1,0,0:0:0:0:
282,133,104783,1,2,0:0:0:0:
311,147,104871,22,0,P|253:190|128:90,1,255.000009727478,2|2,3:2|3:2,0:0:0:0:
3,117,105394,5,2,0:0:0:0:
2,131,105481,1,0,0:0:0:0:
27,171,105569,69,8,1:0:0:0:
26,185,105656,1,2,0:0:0:0:
51,225,105743,21,2,3:2:0:0:
50,239,105830,1,2,0:0:0:0:
75,279,105917,5,2,0:0:0:0:
74,293,106004,1,2,0:0:0:0:
73,307,106092,1,2,0:0:0:0:
72,321,106179,1,2,0:0:0:0:
97,361,106266,69,2,3:2:0:0:
97,361,106615,22,0,L|181:352,1,85,2|0,0:0|0:0,0:0:0:0:
398,326,106789,2,0,L|314:335,1,85,2|0,3:2|0:0,0:0:0:0:
209,349,106964,1,8,1:0:0:0:
208,155,107138,1,2,0:0:0:0:
216,161,107225,1,2,0:0:0:0:
224,167,107313,2,0,L|233:251,1,85,2|0,0:0|0:0,0:0:0:0:
242,257,107487,2,0,L|233:173,1,85,2|0,0:0|0:0,0:0:0:0:
90,52,107661,102,0,B|149:68|149:68|212:49|212:49|274:66,1,191.250007295609,2|0,3:2|0:0,0:0:0:0:
459,123,108010,6,0,L|398:107,1,63.7500024318696,2|0,3:2|0:0,0:0:0:0:
274,66,108359,1,8,1:0:0:0:
281,291,108533,2,0,B|292:233|292:233|297:230|297:230|308:169,1,127.500004863739,2|0,3:2|0:0,0:0:0:0:
353,0,109056,53,4,3:2:0:0:
353,0,109406,1,0,0:0:0:0:
419,89,109580,2,0,L|387:84,1,31.8750012159348,0|0,3:0|0:0,0:0:0:0:
298,73,109754,1,12,3:0:0:0:
290,72,109842,1,4,3:0:0:0:
282,71,109929,1,4,3:0:0:0:
274,70,110016,1,4,3:0:0:0:
266,69,110103,1,8,1:0:0:0:
330,175,110278,1,4,3:0:0:0:
331,167,110365,1,4,3:0:0:0:
332,159,110452,1,4,0:0:0:0:
353,0,111150,5,2,0:0:0:0:
353,0,111499,1,2,0:0:0:0:
475,110,111847,22,0,B|416:94|416:94|354:112|354:112|291:96,1,191.250007295609,2|0,3:2|0:0,0:0:0:0:
480,127,112196,6,0,L|438:116,1,42.5,2|0,0:0|3:0,0:0:0:0:
208,77,112545,6,0,L|290:96,1,85,8|0,1:0|0:0,0:0:0:0:
311,197,112720,1,2,0:0:0:0:
303,205,112807,1,2,0:0:0:0:
295,213,112894,2,0,L|212:193,1,85,2|0,0:0|0:0,0:0:0:0:
159,291,113068,2,0,L|242:311,1,85,2|0,0:0|0:0,0:0:0:0:
398,201,113243,86,0,B|344:187|344:187|265:206|265:206|212:193,1,191.250007295609,2|0,3:2|0:0,0:0:0:0:
211,76,113592,6,0,L|273:97,1,63.7500024318696,2|0,3:2|0:0,0:0:0:0:
502,184,113941,1,8,1:0:0:0:
212,193,114115,2,0,B|155:173|155:173|154:168|154:168|85:146,1,127.500004863739,2|0,3:2|0:0,0:0:0:0:
0,111,114638,1,2,3:2:0:0:
50,265,114987,5,2,0:0:0:0:
64,266,115074,1,0,0:0:0:0:
104,241,115162,69,2,3:2:0:0:
118,242,115249,1,0,0:0:0:0:
158,217,115336,21,8,1:0:0:0:
172,218,115423,1,0,0:0:0:0:
212,193,115510,5,2,0:0:0:0:
335,318,115685,69,2,0:0:0:0:
309,337,115772,1,0,0:0:0:0:
279,345,115859,1,2,0:0:0:0:
247,343,115946,1,2,0:0:0:0:
218,329,116034,22,0,P|276:286|401:386,1,255.000009727478,2|2,3:2|3:2,0:0:0:0:
113,310,116557,5,2,0:0:0:0:
114,296,116644,1,0,0:0:0:0:
89,256,116732,69,8,1:0:0:0:
90,242,116819,1,2,0:0:0:0:
65,202,116906,21,0,3:0:0:0:
66,188,116993,1,2,0:0:0:0:
41,148,117080,5,2,0:0:0:0:
42,134,117167,1,2,0:0:0:0:
43,120,117255,1,2,0:0:0:0:
44,106,117342,1,2,0:0:0:0:
19,66,117429,5,2,3:2:0:0:
19,66,117778,2,0,L|93:37,2,56.6666666666667,2|2|2,0:0|0:0|0:0,0:0:0:0:
153,99,118127,2,0,L|205:119,2,56.6666666666667,8|2|2,1:0|0:0|0:0,0:0:0:0:
276,52,118476,2,0,L|350:23,2,56.6666666666667,2|2|2,0:0|0:0|0:0,0:0:0:0:
381,112,118824,2,0,L|433:132,2,56.6666666666667,2|2|2,3:2|0:0|0:0,0:0:0:0:
374,214,119173,6,0,L|353:266,1,56.6666666666667,0|2,3:2|0:0,0:0:0:0:
319,358,119406,1,2,0:0:0:0:
326,256,119522,2,0,L|346:203,1,56.6666666666667,8|0,1:0|0:0,0:0:0:0:
381,112,119755,1,2,0:0:0:0:
319,195,119871,2,0,L|298:247,1,56.6666666666667,2|2,3:2|0:0,0:0:0:0:
264,339,120104,1,2,0:0:0:0:
203,262,120220,5,2,3:2:0:0:
256,192,120307,12,2,122313,0:0:0:0:
256,192,122661,5,2,0:0:0:0:
256,192,123000,102,0,P|195:162|127:184,1,127.500004863739,4|0,3:2|0:0,0:0:0:0:
188,253,123523,1,2,3:2:0:0:
274,281,123697,2,0,P|346:207|321:128,1,191.250007295609,8|0,1:0|0:0,0:0:0:0:
176,94,124395,6,0,P|207:95|239:91,1,63.7500024318696,0|2,3:0|0:0,0:0:0:0:
378,37,124744,2,0,P|346:36|315:40,1,63.7500024318696,0|0,3:0|0:0,0:0:0:0:
252,185,125093,1,8,1:0:0:0:
98,142,125267,2,0,P|85:81|115:26,1,127.500004863739,0|2,3:0|0:0,0:0:0:0:
163,208,125790,101,2,3:2:0:0:
470,111,126313,1,0,3:0:0:0:
452,22,126488,2,0,P|380:96|405:175,1,191.250007295609,8|0,1:0|0:0,0:0:0:0:
339,314,127186,6,0,P|334:268|346:234,1,63.7500024318696,0|2,3:0|0:0,0:0:0:0:
420,344,127534,2,0,P|427:313|423:281,1,63.7500024318696,0|0,3:0|0:0,0:0:0:0:
271,375,127883,1,8,1:0:0:0:
223,298,128058,2,0,P|284:284|339:314,1,127.500004863739,0|2,3:0|0:0,0:0:0:0:
181,379,128581,101,4,0:0:0:0:
100,68,129104,1,0,3:0:0:0:
11,86,129279,2,0,P|85:158|164:133,1,191.250007295609,8|0,1:0|0:0,0:0:0:0:
285,65,129976,6,0,P|239:60|205:72,1,63.7500024318696,0|0,3:0|0:0,0:0:0:0:
252,150,130325,2,0,P|283:154|315:149,1,63.7500024318696
469,54,130673,1,8,1:0:0:0:
392,6,130848,2,0,P|378:67|408:122,1,127.500004863739,0|0,3:0|0:0,0:0:0:0:
512,238,131372,102,0,P|456:208|395:221,1,127.500004863739,0|0,3:0|0:0,0:0:0:0:
445,299,131895,1,0,3:0:0:0:
205,258,132069,2,0,P|279:330|358:305,1,191.250007295609,8|2,1:0|0:0,0:0:0:0:
295,176,132767,6,0,P|289:207|294:239,1,63.7500024318696,0|0,3:0|0:0,0:0:0:0:
442,207,133115,2,0,P|411:203|380:209,1,63.7500024318696,0|0,3:0|0:0,0:0:0:0:
209,264,133465,1,8,1:0:0:0:
295,176,133639,2,0,P|282:114|232:76,1,127.500004863739,0|0,3:0|0:0,0:0:0:0:
209,264,134162,101,4,0:0:0:0:
397,21,134686,1,0,3:0:0:0:
486,39,134861,2,0,P|412:111|333:86,1,191.250007295609,8|0,1:0|0:0,0:0:0:0:
422,202,135558,6,0,P|427:233|423:264,1,63.7500024318696,0|2,3:0|0:0,0:0:0:0:
274,233,135906,2,0,P|305:228|336:234,1,63.7500024318696,0|0,3:0|0:0,0:0:0:0:
485,332,136255,1,8,1:0:0:0:
422,202,136430,2,0,P|434:140|484:102,1,127.500004863739,0|2,3:0|0:0,0:0:0:0:
338,138,136953,102,0,P|276:125|238:75,1,127.500004863739,0|0,3:0|0:0,0:0:0:0:
326,47,137476,1,0,3:0:0:0:
288,225,137651,2,0,P|216:151|241:72,1,191.250007295609,8|0,1:0|0:0,0:0:0:0:
367,129,138348,6,0,P|336:137|305:134,1,63.7500024318696,0|2,3:0|0:0,0:0:0:0:
237,75,138697,2,0,P|206:66|174:69,1,63.7500024318696,0|0,3:0|0:0,0:0:0:0:
23,172,139046,1,8,1:0:0:0:
109,142,139220,2,0,P|70:92|9:79,1,127.500004863739,0|2,3:0|0:0,0:0:0:0:
175,69,139744,102,0,P|213:19|274:6,1,127.500004863739,0|2,3:0|0:0,0:0:0:0:
261,98,140267,1,0,3:0:0:0:
25,119,140441,2,0,P|99:47|178:72,1,191.250007295609,8|0,1:0|0:0,0:0:0:0:
118,199,141139,6,0,P|110:168|114:137,1,63.7500024318696,0|0,3:0|0:0,0:0:0:0:
159,282,141488,2,0,P|128:291|96:288,1,63.7500024318696,0|2,3:0|0:0,0:0:0:0:
202,161,141837,1,8,1:0:0:0:
16,200,142011,2,0,P|54:150|115:137,1,127.500004863739,0|0,3:0|0:0,0:0:0:0:
274,225,142534,101,0,3:0:0:0:
274,225,142709,2,0,L|265:306,2,63.7500024318696,2|0|0,0:0|0:0|0:0,0:0:0:0:
274,225,143232,2,0,L|348:258,2,63.7500024318696,2|0|0,0:0|0:0|0:0,0:0:0:0:
274,225,143755,2,0,L|328:164,2,63.7500024318696,2|0|0,0:0|0:0|0:0,0:0:0:0:
274,225,144279,2,0,L|233:154,2,63.7500024318696,2|0|0,0:0|0:0|0:0,0:0:0:0:
274,225,144802,2,0,L|194:241,2,63.7500024318696,2|0|0,0:0|0:0|0:0,0:0:0:0:
433,136,145325,22,0,P|424:94|395:53,2,85,2|0|0,0:0|0:0|0:0,0:0:0:0:
340,129,145848,6,0,P|306:102|257:89,2,68,2|0|0,0:0|0:0|0:0,0:0:0:0:
266,185,146372,6,0,P|237:186|208:200,2,50.9999984436036,2|0|0,0:0|0:0|0:0,0:0:0:0:
257,276,146895,6,0,P|241:290|230:313,2,34,2|0|0,0:0|0:0|0:0,0:0:0:0:
313,347,147418,6,0,P|311:357|314:369,2,17,2|0|0,0:0|0:0|0:0,0:0:0:0:
404,358,147941,5,2,0:0:0:0:
