osu file format v14

[General]
AudioFilename: audio.mp3
AudioLeadIn: 0
PreviewTime: 88502
Countdown: 0
SampleSet: None
StackLeniency: 0.7
Mode: 0
LetterboxInBreaks: 0
WidescreenStoryboard: 1

[Editor]
Bookmarks: 74881
DistanceSpacing: 1.2
BeatDivisor: 4
GridSize: 4
TimelineZoom: 2.1

[Metadata]
Title:Come Back Down
TitleUnicode:Come Back Down
Artist:Mediks
ArtistUnicode:Mediks
Creator:FlanDrive
Version:Back Down
Source:
Tags:Oiso papapa213 Emilia remix
BeatmapID:1460096
BeatmapSetID:689807

[Difficulty]
HPDrainRate:5.5
CircleSize:3.5
OverallDifficulty:8.5
ApproachRate:9.5
SliderMultiplier:1.8
SliderTickRate:1

[Events]
//Background and Video events
0,0,"oof.jpg",0,0
//Break Periods
//Storyboard Layer 0 (Background)
//Storyboard Layer 1 (Fail)
//Storyboard Layer 2 (Pass)
//Storyboard Layer 3 (Foreground)
//Storyboard Sound Samples

[TimingPoints]
-635,344.827586206897,4,2,0,50,1,0
744,-200,4,2,0,50,0,0
20054,-200,4,2,0,50,0,0
22812,-111.111111111111,4,2,9,60,0,0
30744,-200,4,2,9,60,0,0
33847,-100,4,2,8,60,0,0
42122,-200,4,2,8,70,0,0
44192,-100,4,2,31,70,0,0
44365,-100,4,2,30,70,0,0
44537,-100,4,2,8,70,0,0
44881,-50,4,2,8,70,0,0
66260,-142.857142857143,4,2,8,70,0,0
66950,-50,4,2,8,70,0,0
77467,-83.3333333333333,4,2,8,50,0,0
77985,-50,4,2,8,70,0,0
89020,-90.9090909090909,4,2,8,85,0,1
108330,-200,4,2,0,70,0,0
111778,-200,4,2,0,5,0,0

[Colours]
Combo1 : 255,255,111
Combo2 : 128,0,128
Combo3 : 49,141,255
Combo4 : 242,24,57

[HitObjects]
88,148,744,6,0,P|172:96|220:88,1,135
220,168,1433,2,0,P|276:192|288:212,1,45
348,220,1778,2,0,P|384:200|396:180,1,45
340,128,2123,2,0,P|268:64|216:56,1,135
208,128,2813,2,0,P|244:168|248:176,1,45
184,216,3158,2,0,P|216:256|240:272,1,45
296,292,3502,6,0,P|400:292|440:272,1,135
368,212,4192,2,0,P|308:200|288:200,1,45
272,132,4537,2,0,P|232:148|212:160,1,45
216,232,4882,1,0,0:0:0:0:
72,328,5054,1,0,0:0:0:0:
80,160,5227,1,0,0:0:0:0:
120,248,5399,1,0,0:0:0:0:
184,104,5571,6,0,P|216:72|236:72,1,45
244,148,5916,2,0,P|276:188|292:176,1,45
336,124,6261,2,0,P|372:56|424:16,1,135
440,120,6951,2,0,P|380:204|340:236,1,135
348,304,7640,1,0,0:0:0:0:
248,108,7813,1,0,0:0:0:0:
128,300,7985,1,0,0:0:0:0:
84,236,8158,1,0,0:0:0:0:
92,160,8330,5,0,0:0:0:0:
132,96,8502,1,0,0:0:0:0:
196,52,8675,1,0,0:0:0:0:
268,32,8847,1,0,0:0:0:0:
456,216,9020,6,0,P|372:164|328:164,1,135
308,272,9709,2,0,P|260:272|236:260,1,45
184,224,10054,1,0,0:0:0:0:
136,164,10227,1,0,0:0:0:0:
148,88,10399,1,0,0:0:0:0:
208,40,10571,1,0,0:0:0:0:
236,112,10744,6,0,P|336:208|420:216,1,225
416,64,11778,1,0,0:0:0:0:
348,116,11951,1,0,0:0:0:0:
264,128,12123,2,0,L|208:112,1,45
180,200,12468,2,0,P|208:208|232:224,1,45
292,240,12813,1,0,0:0:0:0:
364,284,12985,1,0,0:0:0:0:
444,256,13158,1,0,0:0:0:0:
488,180,13330,1,0,0:0:0:0:
476,96,13502,1,0,0:0:0:0:
404,48,13675,1,0,0:0:0:0:
324,16,13847,5,0,0:0:0:0:
240,28,14020,1,0,0:0:0:0:
156,52,14192,2,0,P|124:72|108:88,1,45
56,164,14537,1,0,0:0:0:0:
84,244,14709,1,0,0:0:0:0:
156,196,14882,1,0,0:0:0:0:
232,160,15054,1,0,0:0:0:0:
320,152,15227,2,0,P|372:156|384:160,1,45
376,248,15571,2,0,P|328:240|312:244,1,45
284,324,15916,2,0,P|244:312|232:300,1,45
132,316,16261,2,0,P|120:280|120:256,1,45
188,200,16606,2,0,P|220:172|232:152,1,45
160,92,16951,2,0,P|180:56|200:52,1,45
184,240,17295,5,0,0:0:0:0:
256,148,17468,1,0,0:0:0:0:
328,240,17640,1,0,0:0:0:0:
184,84,17813,1,0,0:0:0:0:
256,304,17985,1,0,0:0:0:0:
324,84,18158,1,0,0:0:0:0:
184,364,18330,1,0,0:0:0:0:
256,24,18502,1,0,0:0:0:0:
324,360,18675,1,0,0:0:0:0:
168,68,18847,1,0,0:0:0:0:
400,304,19020,1,0,0:0:0:0:
108,140,19192,5,0,0:0:0:0:
456,236,19365,1,0,0:0:0:0:
108,224,19537,1,0,0:0:0:0:
460,152,19709,1,0,0:0:0:0:
164,288,19882,1,0,0:0:0:0:
408,76,20054,6,0,B|320:168|288:96|288:96|232:156|160:132|148:44|148:44|28:220|120:344,1,675
188,276,22813,1,0,0:0:0:0:
256,204,22985,1,0,0:0:0:0:
348,176,23158,2,0,P|380:212|420:220,1,80.9999975280763
456,136,23502,1,0,0:0:0:0:
456,136,23589,1,0,0:0:0:0:
456,136,23675,1,0,0:0:0:0:
408,52,23847,2,0,P|356:56|332:80,1,80.9999975280763
252,124,24192,5,0,0:0:0:0:
156,128,24365,1,0,0:0:0:0:
80,188,24537,2,0,P|120:216|136:248,1,80.9999975280763
72,320,24882,1,0,0:0:0:0:
72,320,24968,1,0,0:0:0:0:
72,320,25054,1,0,0:0:0:0:
168,300,25227,6,0,P|220:248|252:232,1,80.9999975280763
184,156,25571,1,0,0:0:0:0:
256,88,25744,1,0,0:0:0:0:
352,96,25916,2,0,P|408:128|400:156,1,80.9999975280763
340,204,26261,1,0,0:0:0:0:
340,204,26347,1,0,0:0:0:0:
340,204,26433,1,0,0:0:0:0:
428,248,26606,6,0,P|424:292|388:316,1,80.9999975280763
300,296,26951,1,0,0:0:0:0:
208,264,27123,1,0,0:0:0:0:
144,192,27296,2,0,P|120:136|128:116,1,80.9999975280763
212,80,27640,1,0,0:0:0:0:
212,80,27727,1,0,0:0:0:0:
212,80,27813,1,0,0:0:0:0:
308,92,27985,2,0,P|360:96|384:120,1,80.9999975280763
324,196,28330,5,0,0:0:0:0:
320,292,28503,1,0,0:0:0:0:
260,368,28675,2,0,P|232:328|200:312,1,80.9999975280763
128,376,29020,1,0,0:0:0:0:
128,376,29106,1,0,0:0:0:0:
128,376,29192,1,0,0:0:0:0:
148,280,29365,6,0,P|200:228|216:196,1,80.9999975280763
292,264,29709,1,0,0:0:0:0:
212,204,29882,1,0,0:0:0:0:
276,128,30054,1,0,0:0:0:0:
196,72,30227,1,0,0:0:0:0:
268,8,30399,1,0,0:0:0:0:
268,8,30485,1,0,0:0:0:0:
268,8,30571,1,0,0:0:0:0:
348,56,30744,6,0,B|432:88|368:184|368:184|320:196|320:196|368:248|336:312|336:312|132:336|136:340|88:288|88:288|160:244|160:244|128:152,1,765
184,68,33847,1,0,0:0:0:0:
284,24,34020,1,0,0:0:0:0:
384,68,34192,1,0,0:0:0:0:
468,136,34365,1,0,0:0:0:0:
364,172,34537,1,0,0:0:0:0:
272,116,34709,1,0,0:0:0:0:
180,172,34882,1,0,0:0:0:0:
100,244,35054,1,0,0:0:0:0:
200,284,35227,5,0,0:0:0:0:
288,344,35399,1,0,0:0:0:0:
384,296,35571,2,0,B|324:252|384:176|384:176|336:48,1,270
232,80,36261,1,0,0:0:0:0:
132,120,36433,1,0,0:0:0:0:
80,216,36606,1,0,0:0:0:0:
184,192,36778,1,0,0:0:0:0:
284,152,36951,1,0,0:0:0:0:
256,256,37123,1,0,0:0:0:0:
152,284,37296,2,0,B|144:348|412:404|384:220|384:220|404:184|404:184|460:188,2,405
56,176,39020,5,0,0:0:0:0:
76,76,39365,1,0,0:0:0:0:
76,76,39451,1,0,0:0:0:0:
76,76,39537,1,0,0:0:0:0:
76,76,39623,1,0,0:0:0:0:
76,76,39709,1,0,0:0:0:0:
76,76,39796,1,0,0:0:0:0:
76,76,39882,1,0,0:0:0:0:
76,76,39968,1,0,0:0:0:0:
76,76,40054,1,0,0:0:0:0:
76,76,40140,1,0,0:0:0:0:
88,96,40226,1,0,0:0:0:0:
128,141,40312,1,0,0:0:0:0:
159,173,40398,1,0,0:0:0:0:
200,190,40484,1,0,0:0:0:0:
245,197,40571,1,0,0:0:0:0:
289,202,40657,1,0,0:0:0:0:
334,207,40743,1,0,0:0:0:0:
378,215,40829,1,0,0:0:0:0:
421,229,40915,1,0,0:0:0:0:
460,251,41002,1,0,0:0:0:0:
456,296,41089,2,0,P|168:324|24:228,1,450
260,192,42123,1,0,0:0:0:0:
48,144,44192,2,0,P|80:92|112:80,1,90
144,176,44537,6,0,L|196:216,1,45
288,160,44709,2,0,L|296:112,1,45
76,312,44882,2,0,L|184:288,1,90
264,340,45054,2,0,L|288:248,1,90
156,80,45227,1,0,0:0:0:0:
364,20,45399,1,0,0:0:0:0:
340,236,45571,1,0,0:0:0:0:
124,236,45744,1,0,0:0:0:0:
288,96,45916,1,0,0:0:0:0:
464,224,46089,1,0,0:0:0:0:
260,288,46261,5,0,0:0:0:0:
144,104,46433,1,0,0:0:0:0:
352,164,46606,2,0,P|384:144|412:96,1,90
228,180,46951,2,0,P|176:192|152:236,1,90
308,272,47296,2,0,P|256:300|164:296,1,90
112,132,47640,6,0,L|192:76,1,90
352,136,47813,2,0,L|240:188,1,90
264,328,47985,2,0,L|356:256,1,90
168,280,48158,2,0,P|116:268|144:216,1,90
240,44,48330,6,0,L|248:144,1,90
247,133,48502,2,0,L|240:40,1,90
247,133,48675,2,0,L|232:40,1,90
472,256,49020,1,0,0:0:0:0:
404,52,49192,1,0,0:0:0:0:
296,240,49365,2,0,P|224:248|148:208,1,90
232,140,49537,2,0,L|112:92,1,90
52,212,49709,2,0,P|64:320|84:328,1,90
268,344,49968,6,0,L|172:296,1,90
148,280,50140,1,0,0:0:0:0:
148,280,50227,1,0,0:0:0:0:
148,280,50313,1,0,0:0:0:0:
156,172,50399,1,0,0:0:0:0:
360,108,50571,1,0,0:0:0:0:
168,8,50744,2,0,P|248:96|264:184,2,180
168,8,51175,5,0,0:0:0:0:
168,8,51261,1,0,0:0:0:0:
168,8,51347,1,0,0:0:0:0:
180,24,51433,1,0,0:0:0:0:
180,28,51520,1,0,0:0:0:0:
180,32,51606,2,0,L|108:96,1,90
160,188,51778,1,0,0:0:0:0:
376,180,51951,1,0,0:0:0:0:
248,8,52123,1,0,0:0:0:0:
452,0,52296,1,0,0:0:0:0:
376,180,52468,1,0,0:0:0:0:
232,340,52640,2,0,P|180:296|188:252,1,90
60,296,52813,2,0,L|124:224,1,90
68,156,53158,2,0,P|144:72|232:64,1,180
244,60,53416,5,0,0:0:0:0:
264,58,53502,1,0,0:0:0:0:
285,59,53588,1,0,0:0:0:0:
305,62,53674,1,0,0:0:0:0:
325,68,53760,1,0,0:0:0:0:
345,75,53847,1,0,0:0:0:0:
363,86,53933,1,0,0:0:0:0:
380,98,54019,1,0,0:0:0:0:
395,112,54105,1,0,0:0:0:0:
408,128,54191,1,0,0:0:0:0:
420,145,54278,1,0,0:0:0:0:
429,163,54364,1,0,0:0:0:0:
436,183,54450,1,0,0:0:0:0:
440,204,54537,2,0,L|444:300,2,90
344,208,54882,2,0,L|344:304,2,90
260,160,55227,6,0,L|168:220,2,90
344,96,55571,6,0,L|344:0,2,90
436,140,55916,6,0,L|384:180,1,45
208,112,56088,2,0,L|256:104,1,45
436,312,56261,2,0,L|328:288,1,90
284,156,56433,1,0,0:0:0:0:
284,156,56520,1,0,0:0:0:0:
356,80,56606,1,0,0:0:0:0:
148,20,56778,1,0,0:0:0:0:
388,236,57123,1,0,0:0:0:0:
232,72,57295,1,0,0:0:0:0:
64,176,57468,1,0,0:0:0:0:
252,288,57640,5,0,0:0:0:0:
368,104,57812,1,0,0:0:0:0:
160,164,57985,2,0,P|128:144|100:96,1,90
284,180,58330,2,0,P|336:192|360:236,1,90
204,272,58675,2,0,P|256:300|348:296,1,90
368,252,58847,2,0,L|456:200,1,90
400,132,59019,6,0,L|320:76,1,90
160,136,59192,2,0,L|272:188,1,90
248,328,59364,2,0,L|156:256,1,90
344,280,59537,2,0,P|396:268|368:216,1,90
136,36,59709,6,0,L|128:136,1,90
412,132,59881,2,0,L|419:39,1,90
265,133,60054,2,0,L|280:40,1,90
40,256,60227,1,0,0:0:0:0:
40,256,60313,1,0,0:0:0:0:
40,256,60399,1,0,0:0:0:0:
108,52,60571,1,0,0:0:0:0:
216,240,60744,2,0,P|288:248|364:208,1,90
280,140,60916,2,0,L|400:92,1,90
460,212,61088,2,0,P|448:320|428:328,1,90
244,344,61347,6,0,L|340:296,1,90
364,280,61519,1,0,0:0:0:0:
364,280,61606,1,0,0:0:0:0:
364,280,61692,1,0,0:0:0:0:
356,172,61778,1,0,0:0:0:0:
152,108,61950,1,0,0:0:0:0:
344,8,62123,2,0,P|264:96|248:184,2,180
420,120,62640,6,0,P|424:252|208:256,1,360
352,188,63157,1,0,0:0:0:0:
136,180,63330,1,0,0:0:0:0:
264,8,63502,1,0,0:0:0:0:
60,0,63675,1,0,0:0:0:0:
136,180,63847,1,0,0:0:0:0:
280,340,64019,2,0,P|332:296|324:252,1,90
336,176,64192,1,0,0:0:0:0:
64,200,66261,5,0,0:0:0:0:
256,8,66433,1,0,0:0:0:0:
464,208,66606,1,0,0:0:0:0:
256,376,66778,1,0,0:0:0:0:
380,148,66951,6,0,L|340:96,1,45
128,292,67123,2,0,L|120:244,1,45
436,312,67296,2,0,L|328:288,1,90
216,176,67468,2,0,L|192:84,1,90
280,128,67641,1,0,0:0:0:0:
148,20,67813,1,0,0:0:0:0:
32,136,67985,1,0,0:0:0:0:
156,268,68158,1,0,0:0:0:0:
224,96,68330,1,0,0:0:0:0:
56,300,68503,1,0,0:0:0:0:
356,300,68675,5,0,0:0:0:0:
368,104,68847,1,0,0:0:0:0:
160,164,69020,2,0,P|128:144|100:96,1,90
192,64,69192,2,0,P|244:76|268:120,1,90
308,272,69365,2,0,P|256:300|164:296,1,90
272,144,69537,1,0,0:0:0:0:
80,256,69709,1,0,0:0:0:0:
132,64,69882,1,0,0:0:0:0:
216,244,70054,1,0,0:0:0:0:
16,144,70227,1,0,0:0:0:0:
256,108,70399,1,0,0:0:0:0:
104,308,70571,1,0,0:0:0:0:
356,204,70744,1,0,0:0:0:0:
128,80,70916,1,0,0:0:0:0:
184,220,71175,6,0,L|260:152,2,90
324,60,71520,2,0,L|440:132,2,90
216,240,71779,2,0,P|288:248|364:208,1,90
280,140,71951,2,0,L|400:92,1,90
460,212,72123,2,0,P|448:320|428:328,1,90
244,344,72382,6,0,L|340:296,1,90
364,280,72554,1,0,0:0:0:0:
364,280,72641,1,0,0:0:0:0:
364,280,72727,1,0,0:0:0:0:
356,172,72813,1,0,0:0:0:0:
152,108,72985,1,0,0:0:0:0:
344,8,73158,2,0,P|264:96|248:184,2,180
344,8,73589,5,0,0:0:0:0:
344,8,73675,1,0,0:0:0:0:
344,8,73761,1,0,0:0:0:0:
204,144,73847,2,0,B|424:84|488:128|516:128,1,270
352,188,74192,1,0,0:0:0:0:
136,180,74365,1,0,0:0:0:0:
264,8,74537,1,0,0:0:0:0:
60,0,74710,1,0,0:0:0:0:
136,180,74882,1,0,0:0:0:0:
280,340,75054,2,0,P|332:296|324:252,1,90
444,156,75228,2,0,P|368:72|280:64,1,180
268,60,75486,5,0,0:0:0:0:
248,58,75572,1,0,0:0:0:0:
227,59,75658,1,0,0:0:0:0:
207,62,75744,1,0,0:0:0:0:
187,68,75830,1,0,0:0:0:0:
167,75,75917,1,0,0:0:0:0:
149,86,76003,1,0,0:0:0:0:
132,98,76089,1,0,0:0:0:0:
117,112,76175,1,0,0:0:0:0:
104,128,76261,1,0,0:0:0:0:
92,145,76348,1,0,0:0:0:0:
83,163,76434,1,0,0:0:0:0:
76,183,76520,1,0,0:0:0:0:
72,204,76607,2,0,L|68:300,2,90
304,328,76952,2,0,L|208:328,2,90
252,160,77297,6,0,L|344:220,2,90
416,40,77641,6,0,L|416:136,2,90
224,216,77985,6,0,L|276:256,1,45
304,112,78157,2,0,L|256:104,1,45
44,192,78330,2,0,L|152:168,1,90
380,328,78502,2,0,L|356:236,1,90
236,192,78675,1,0,0:0:0:0:
364,20,78847,1,0,0:0:0:0:
48,152,79019,1,0,0:0:0:0:
124,236,79192,1,0,0:0:0:0:
280,72,79364,1,0,0:0:0:0:
372,212,79537,1,0,0:0:0:0:
148,324,79709,5,0,0:0:0:0:
144,104,79881,1,0,0:0:0:0:
204,224,80054,2,0,P|336:128|376:120,1,180
328,228,80399,2,0,P|352:328|404:312,1,180
244,92,80744,2,0,L|356:84,1,90
232,204,80916,2,0,L|128:248,1,90
72,140,81089,2,0,L|208:16,3,180
192,152,81778,2,0,L|336:168,1,90
368,136,82123,2,0,L|388:228,1,90
296,308,82296,2,0,L|392:324,1,90
268,88,82468,5,0,0:0:0:0:
268,88,82554,1,0,0:0:0:0:
268,88,82640,1,0,0:0:0:0:
268,88,82727,1,0,0:0:0:0:
296,240,82813,2,0,P|224:248|148:208,1,90
232,140,82985,2,0,L|112:92,1,90
52,212,83157,2,0,P|64:320|84:328,1,90
268,344,83416,6,0,L|172:296,1,90
148,280,83588,1,0,0:0:0:0:
148,280,83675,1,0,0:0:0:0:
148,280,83761,1,0,0:0:0:0:
156,172,83847,1,0,0:0:0:0:
360,108,84019,1,0,0:0:0:0:
168,8,84192,2,0,P|248:96|264:184,2,180
160,12,84623,1,0,0:0:0:0:
147,20,84709,1,0,0:0:0:0:
135,29,84795,1,0,0:0:0:0:
124,39,84881,1,0,0:0:0:0:
113,49,84967,1,0,0:0:0:0:
103,60,85054,1,0,0:0:0:0:
93,72,85140,1,0,0:0:0:0:
84,83,85226,1,0,0:0:0:0:
75,96,85312,1,0,0:0:0:0:
67,108,85398,1,0,0:0:0:0:
60,121,85485,1,0,0:0:0:0:
53,135,85571,1,0,0:0:0:0:
47,149,85657,1,0,0:0:0:0:
42,163,85743,1,0,0:0:0:0:
37,177,85829,1,0,0:0:0:0:
33,191,85916,1,0,0:0:0:0:
30,206,86002,1,0,0:0:0:0:
28,221,86088,1,0,0:0:0:0:
26,236,86174,1,0,0:0:0:0:
104,84,89020,5,0,0:0:0:0:
216,48,89192,1,0,0:0:0:0:
176,160,89365,2,0,P|120:204|120:232,1,99.0000030212403
236,232,89709,2,0,P|300:208|316:168,1,99.0000030212403
276,72,90054,1,0,0:0:0:0:
388,116,90227,1,0,0:0:0:0:
388,236,90399,1,0,0:0:0:0:
312,328,90571,1,0,0:0:0:0:
212,264,90744,2,0,P|152:216|152:192,1,99.0000030212403
128,84,91089,5,0,0:0:0:0:
244,104,91261,1,0,0:0:0:0:
340,172,91433,2,0,P|416:236|412:264,1,99.0000030212403
332,308,91778,1,0,0:0:0:0:
256,80,91951,1,0,0:0:0:0:
188,304,92123,1,0,0:0:0:0:
104,164,92296,1,0,0:0:0:0:
416,164,92468,1,0,0:0:0:0:
188,304,92640,1,0,0:0:0:0:
256,80,92813,1,0,0:0:0:0:
336,308,92985,1,0,0:0:0:0:
104,164,93158,1,0,0:0:0:0:
416,164,93330,1,0,0:0:0:0:
256,80,93502,5,0,0:0:0:0:
336,308,93675,1,0,0:0:0:0:
104,164,93847,1,0,0:0:0:0:
192,304,94020,1,0,0:0:0:0:
80,272,94192,2,0,L|192:208,1,99.0000030212403
212,112,94537,1,0,0:0:0:0:
300,200,95227,1,0,0:0:0:0:
336,92,95916,1,0,0:0:0:0:
416,176,96606,1,0,0:0:0:0:
408,300,97296,2,0,P|200:300|104:248,4,297.000009063721
408,300,99451,1,0,0:0:0:0:
408,300,99537,1,0,0:0:0:0:
360,192,99709,2,0,P|268:156|268:152,1,99.0000030212403
344,84,100054,5,0,0:0:0:0:
232,80,100744,1,0,0:0:0:0:
232,200,101433,1,0,0:0:0:0:
348,200,102123,1,0,0:0:0:0:
200,288,102813,2,0,L|144:264,10,49.5000015106202
180,172,103847,2,0,L|124:148,10,49.5000015106202
300,172,104882,2,0,L|348:120,2,49.5000015106202
260,284,105227,2,0,P|328:316|372:312,1,99.0000030212403
420,220,105571,6,0,L|396:96,1,99.0000030212403
208,136,105916,2,0,L|172:32,1,99.0000030212403
136,240,106261,2,0,L|40:292,1,99.0000030212403
248,272,106606,2,0,L|308:184,1,99.0000030212403
368,268,106951,2,0,L|460:320,1,99.0000030212403
216,76,107296,2,0,L|128:136,1,99.0000030212403
336,144,107640,6,0,L|452:152,1,99.0000030212403
220,236,107985,2,0,L|160:320,1,99.0000030212403
24,44,108330,2,0,B|168:132|236:36|236:36|344:20|448:92|448:92|264:224|264:224|340:272|392:332,1,855
