osu file format v14

[General]
AudioFilename: audio.mp3
AudioLeadIn: 0
PreviewTime: 88502
Countdown: 0
SampleSet: Soft
StackLeniency: 0.7
Mode: 0
LetterboxInBreaks: 0
WidescreenStoryboard: 1

[Editor]
Bookmarks: 46606,58675,74881
DistanceSpacing: 1.3
BeatDivisor: 4
GridSize: 32
TimelineZoom: 1.7

[Metadata]
Title:Come Back Down
TitleUnicode:Come Back Down
Artist:Mediks
ArtistUnicode:Mediks
Creator:[Kamiya]
Version:papapa's hard
Source:
Tags:Oiso papapa213 Emilia remix
BeatmapID:1378906
BeatmapSetID:639013

[Difficulty]
HPDrainRate:5
CircleSize:4
OverallDifficulty:6
ApproachRate:8
SliderMultiplier:1.3
SliderTickRate:1

[Events]
//Background and Video events
0,0,"bg.jpg",0,0
//Break Periods
//Storyboard Layer 0 (Background)
//Storyboard Layer 1 (Fail)
//Storyboard Layer 2 (Pass)
//Storyboard Layer 3 (Foreground)
//Storyboard Sound Samples

[TimingPoints]
-635,344.827586206897,4,2,0,50,1,0
54,-100,4,2,0,50,0,0
743,-153.846153846154,4,2,0,50,0,0
2467,-100,4,2,0,50,0,0
3502,-153.846153846154,4,2,0,50,0,0
5743,-100,4,2,0,50,0,0
6260,-153.846153846154,4,2,0,50,0,0
6950,-100,4,2,0,50,0,0
8674,-153.846153846154,4,2,0,50,0,0
8933,-153.846153846154,4,2,0,5,0,0
9019,-100,4,2,0,50,0,0
9365,-153.846153846154,4,2,0,50,0,0
11089,-100,4,2,0,50,0,0
11778,-153.846153846154,4,2,0,50,0,0
12295,-100,4,2,0,50,0,0
12467,-153.846153846154,4,2,0,50,0,0
16605,-100,4,2,0,50,0,0
17295,-153.846153846154,4,2,0,50,0,0
18502,-100,4,2,0,50,0,0
19709,-153.846153846154,4,2,0,50,0,0
19968,-153.846153846154,4,2,0,5,0,0
20054,-153.846153846154,4,2,0,50,0,0
22812,-100,4,2,9,60,0,0
31088,-100,4,2,9,60,0,0
33847,-100,4,2,8,60,0,0
42123,-100,4,2,8,70,0,0
44192,-100,4,2,31,70,0,0
44365,-100,4,2,30,70,0,0
44537,-100,4,2,8,70,0,0
45226,-142.857142857143,4,2,8,70,0,0
46605,-100,4,2,8,70,0,0
50743,-142.857142857143,4,2,8,70,0,0
51950,-100,4,2,8,70,0,0
53502,-142.857142857143,4,2,8,70,0,0
53847,-100,4,2,8,70,0,0
54881,-100,4,2,8,70,0,0
56260,-142.857142857143,4,2,8,70,0,0
57640,-100,4,2,8,70,0,0
61778,-142.857142857143,4,2,8,70,0,0
62985,-100,4,2,8,70,0,0
67295,-142.857142857143,4,2,8,70,0,0
68674,-100,4,2,8,70,0,0
70054,-142.857142857143,4,2,8,70,0,0
71260,-100,4,2,8,70,0,0
72812,-142.857142857143,4,2,8,70,0,0
74191,-100,4,2,8,70,0,0
75571,-142.857142857143,4,2,8,70,0,0
75916,-100,4,2,8,70,0,0
76950,-100,4,2,8,70,0,0
78329,-142.857142857143,4,2,8,70,0,0
79709,-100,4,2,8,70,0,0
81088,-142.857142857143,4,2,8,70,0,0
82295,-100,4,2,8,70,0,0
83847,-142.857142857143,4,2,8,70,0,0
85226,-100,4,2,8,70,0,0
89020,-100,4,2,8,70,0,1
108330,-200,4,2,8,70,0,0

[Colours]
Combo1 : 242,24,57
Combo2 : 255,255,111
Combo3 : 128,0,128
Combo4 : 49,141,255

[HitObjects]
333,163,227,6,0,P|316:102|302:78,1,65,0|0,0:0|0:0,0:0:0:0:
291,268,744,6,0,P|369:271|435:209,2,168.999992263794,2|0|0,0:0|0:0|0:0,0:0:0:0:
113,81,2640,5,0,0:0:0:0:
84,160,2813,2,0,L|17:170,2,65
167,148,3330,1,0,0:0:0:0:
250,134,3502,1,2,0:0:0:0:
333,122,3675,6,0,P|295:62|229:51,1,126.749994197846
239,104,5744,6,0,L|233:197,1,65
307,16,6261,6,0,L|347:185,1,168.999992263794,2|0,0:0|0:0,0:0:0:0:
104,41,7468,6,0,P|68:75|64:110,1,65,0|0,0:0|0:0,0:0:0:0:
79,171,7813,2,0,L|46:255,2,65,0|0|0,0:0|0:0|0:0,0:0:0:0:
144,116,8330,2,0,P|208:132|221:151,1,65,0|0,0:0|0:0,0:0:0:0:
237,203,8675,6,0,P|278:224|312:222,1,63.3749970989229
319,222,9020,1,2,0:0:0:0:
351,301,9365,2,0,P|405:239|381:162,1,168.999992263794
484,202,10399,1,2,0:0:0:0:
356,68,11261,5,0,0:0:0:0:
356,68,11433,2,0,L|351:138,1,65,0|0,0:0|0:0,0:0:0:0:
341,224,11778,6,0,P|281:192|270:173,1,84.4999961318971,2|0,0:0|0:0,0:0:0:0:
268,95,12296,1,0,0:0:0:0:
216,25,12468,2,0,P|176:15|121:34,1,84.4999961318971
82,92,12985,1,0,0:0:0:0:
152,145,13158,2,0,P|128:190|96:209,1,84.4999961318971,0|0,0:0|0:0,0:0:0:0:
24,256,13675,5,0,0:0:0:0:
70,328,13847,2,0,L|50:370,2,42.2499980659486,0|0|0,0:0|0:0|0:0,0:0:0:0:
148,283,14365,1,0,0:0:0:0:
207,352,14537,1,2,0:0:0:0:
264,282,14709,6,0,P|224:263|139:290,1,126.749994197846
159,60,16778,5,0,0:0:0:0:
159,60,16951,2,0,L|164:130,1,65,0|0,0:0|0:0,0:0:0:0:
174,216,17296,6,0,P|234:184|246:164,1,84.4999961318971,2|0,0:0|0:0,0:0:0:0:
247,87,17813,1,0,0:0:0:0:
299,17,17985,2,0,P|339:7|394:26,1,84.4999961318971,0|0,0:0|0:0,0:0:0:0:
434,83,18502,6,0,L|452:172,1,65,0|0,0:0|0:0,0:0:0:0:
447,231,18847,1,0,0:0:0:0:
411,307,19020,1,0,0:0:0:0:
333,336,19192,1,0,0:0:0:0:
250,319,19365,2,0,L|176:288,1,65,0|0,0:0|0:0,0:0:0:0:
145,219,19709,6,0,P|189:205|221:214,1,63.3749970989229
228,215,20054,1,2,0:0:0:0:
155,364,20399,2,0,P|114:371|75:358,1,84.4999961318971
75,358,21433,1,2,0:0:0:0:
57,110,22813,6,0,L|33:240,1,130,12|0,0:0|0:0,0:0:0:0:
95,295,23330,1,2,0:0:0:0:
167,251,23502,2,0,L|243:247,1,65,0|2,0:0|0:0,0:0:0:0:
253,165,23847,2,0,L|188:168,1,65,0|2,0:0|0:0,0:0:0:0:
158,89,24192,2,0,L|294:83,1,130,8|0,0:0|0:0,0:0:0:0:
342,147,24709,1,2,0:0:0:0:
319,228,24882,2,0,L|341:304,1,65,0|2,0:0|0:0,0:0:0:0:
410,247,25227,1,0,0:0:0:0:
207,337,25571,6,0,L|48:339,1,130,4|0,0:0|0:0,0:0:0:0:
21,274,26089,1,2,0:0:0:0:
82,216,26261,2,0,L|96:149,1,65,0|2,0:0|0:0,0:0:0:0:
178,138,26606,2,0,L|164:201,1,65,0|2,0:0|0:0,0:0:0:0:
236,246,26951,2,0,L|266:103,1,130,8|0,0:0|0:0,0:0:0:0:
326,62,27468,1,2,0:0:0:0:
386,121,27640,2,0,L|447:138,1,65,0|2,0:0|0:0,0:0:0:0:
449,223,27985,1,0,0:0:0:0:
236,246,28330,6,0,L|360:283,1,130,6|0,0:0|0:0,0:0:0:0:
441,307,28847,1,2,0:0:0:0:
449,223,29020,2,0,L|466:148,1,65,0|2,0:0|0:0,0:0:0:0:
386,121,29365,2,0,L|371:184,1,65,0|2,0:0|0:0,0:0:0:0:
281,177,29709,2,0,L|311:50,1,130,8|0,0:0|0:0,0:0:0:0:
232,16,30227,1,2,0:0:0:0:
160,60,30399,2,0,L|80:66,1,65,0|2,0:0|0:0,0:0:0:0:
78,148,30744,2,0,L|142:143,1,65,0|2,0:0|0:0,0:0:0:0:
281,177,31089,6,0,P|254:242|183:277,1,130,8|0,0:0|0:0,0:0:0:0:
140,327,31606,1,2,0:0:0:0:
220,353,31778,2,0,L|371:342,1,130,8|0,0:0|0:0,0:0:0:0:
404,254,32296,6,0,P|367:248|323:216,1,65,2|8,0:0|0:0,0:0:0:0:
281,177,32640,1,2,0:0:0:0:
256,258,32813,1,0,0:0:0:0:
301,329,32985,1,2,0:0:0:0:
383,350,33158,2,0,P|466:318|488:274,1,130,8|0,0:0|0:0,0:0:0:0:
357,82,33847,5,6,0:0:0:0:
390,256,34192,1,2,0:0:0:0:
400,87,34537,1,2,0:0:0:0:
347,247,34882,1,2,0:0:0:0:
215,141,35227,5,2,0:0:0:0:
115,277,35571,1,2,0:0:0:0:
177,119,35916,1,2,0:0:0:0:
157,286,36261,1,2,0:0:0:0:
286,177,36606,5,2,0:0:0:0:
330,340,36951,1,2,0:0:0:0:
329,171,37296,1,2,0:0:0:0:
288,334,37640,1,2,0:0:0:0:
175,207,37985,5,2,0:0:0:0:
114,365,38330,1,2,0:0:0:0:
133,197,38675,1,2,0:0:0:0:
157,363,39020,1,2,0:0:0:0:
288,256,39365,6,2,L|358:256,1,65,2|2,0:0|0:0,0:0:0:0:
392,180,39709,2,2,L|327:180,1,65,2|2,0:0|0:0,0:0:0:0:
289,103,40054,2,2,L|219:103,1,65,2|2,0:0|0:0,0:0:0:0:
185,27,40399,2,2,L|250:27,1,65,2|2,0:0|0:0,0:0:0:0:
334,26,40744,6,2,L|399:26,1,65,2|2,0:0|0:0,0:0:0:0:
438,102,41089,2,2,L|368:102,1,65,2|2,0:0|0:0,0:0:0:0:
327,180,41433,2,2,L|257:180,1,65,2|2,0:0|0:0,0:0:0:0:
217,257,41778,2,2,L|300:257,1,65
366,258,42123,5,4,0:0:0:0:
183,298,44192,6,0,L|183:371,1,65,8|8,0:0|0:0,0:0:0:0:
215,221,44537,6,0,P|183:213|149:223,1,65,8|0,0:0|0:0,0:0:0:0:
262,283,44882,6,0,L|342:283,1,65,6|0,0:0|0:0,0:0:0:0:
388,222,45227,6,0,L|468:150,1,90.9999972229005,8|0,0:0|0:0,0:0:0:0:
483,79,45744,1,2,0:0:0:0:
399,95,45916,2,0,L|331:155,1,90.9999972229005,8|0,0:0|0:0,0:0:0:0:
144,221,46606,6,0,L|69:221,2,65,8|0|0,0:0|0:0|0:0,0:0:0:0:
228,224,47123,1,2,0:0:0:0:
312,224,47296,2,0,P|294:174|273:155,1,65,8|0,0:0|0:0,0:0:0:0:
210,80,47640,6,0,L|210:154,1,65,4|0,0:0|0:0,0:0:0:0:
133,109,47985,2,0,L|133:44,1,65,8|0,0:0|0:0,0:0:0:0:
56,80,48330,2,0,L|56:154,1,65,0|0,0:0|0:0,0:0:0:0:
133,174,48675,2,0,L|133:109,1,65,8|0,0:0|0:0,0:0:0:0:
133,304,49192,5,2,0:0:0:0:
57,343,49365,2,2,P|29:318|20:286,2,65,8|2|2,0:0|0:0|0:0,0:0:0:0:
133,380,49882,1,2,0:0:0:0:
209,281,50054,6,0,P|264:277|294:293,1,65,12|0,0:0|0:0,0:0:0:0:
354,300,50399,2,0,L|354:223,1,65,2|0,0:0|0:0,0:0:0:0:
284,185,50744,6,0,P|219:176|185:192,1,90.9999972229005,8|0,0:0|0:0,0:0:0:0:
126,231,51261,1,2,0:0:0:0:
198,276,51433,2,0,P|241:287|285:276,1,90.9999972229005,8|0,0:0|0:0,0:0:0:0:
354,235,51951,5,0,0:0:0:0:
386,157,52123,2,0,L|385:86,1,65,8|0,0:0|0:0,0:0:0:0:
301,101,52468,2,0,L|300:30,1,65,0|2,0:0|0:0,0:0:0:0:
216,47,52813,2,0,P|184:52|152:45,1,65,8|0,0:0|0:0,0:0:0:0:
55,121,53158,6,0,L|128:121,1,65,6|0,0:0|0:0,0:0:0:0:
194,160,53502,6,0,P|205:209|185:263,1,90.9999972229005,8|0,0:0|0:0,0:0:0:0:
146,317,54020,1,2,0:0:0:0:
80,264,54192,2,0,L|80:194,2,65,8|0|2,0:0|0:0|0:0,0:0:0:0:
244,236,54882,6,2,P|276:195|283:167,1,65,10|2,0:0|0:0,0:0:0:0:
223,73,55227,5,2,0:0:0:0:
298,91,55399,1,8,0:0:0:0:
372,112,55571,2,2,L|451:112,1,65,8|0,0:0|0:0,0:0:0:0:
388,208,55916,6,0,L|313:225,1,65,2|0,0:0|0:0,0:0:0:0:
244,236,56261,6,0,L|146:236,1,90.9999972229005,8|0,0:0|0:0,0:0:0:0:
84,282,56778,1,2,0:0:0:0:
153,330,56951,2,0,L|244:330,1,90.9999972229005,8|0,0:0|0:0,0:0:0:0:
406,281,57640,6,0,L|475:281,2,65,8|0|0,0:0|0:0|0:0,0:0:0:0:
318,281,58158,1,2,0:0:0:0:
244,236,58330,2,0,P|264:211|293:196,1,65,8|0,0:0|0:0,0:0:0:0:
392,121,58675,6,0,L|316:121,1,65,4|0,0:0|0:0,0:0:0:0:
290,44,59020,2,0,L|355:44,1,65,8|0,0:0|0:0,0:0:0:0:
327,121,59365,2,0,L|262:121,1,65
292,196,59709,2,0,L|357:196,1,65,8|0,0:0|0:0,0:0:0:0:
161,197,60227,5,2,0:0:0:0:
145,279,60399,2,2,P|170:298|202:305,2,65,8|2|2,0:0|0:0|0:0,0:0:0:0:
81,222,60916,1,0,0:0:0:0:
68,99,61089,6,0,P|114:94|138:101,1,65,12|0,0:0|0:0,0:0:0:0:
210,130,61433,2,0,L|210:51,1,65,2|0,0:0|0:0,0:0:0:0:
289,25,61778,6,0,P|337:14|384:31,1,90.9999972229005,8|0,0:0|0:0,0:0:0:0:
447,67,62296,1,2,0:0:0:0:
377,110,62468,2,0,P|329:121|282:104,1,90.9999972229005,8|0,0:0|0:0,0:0:0:0:
210,65,62985,5,0,0:0:0:0:
132,31,63158,2,0,L|43:24,1,65,8|0,0:0|0:0,0:0:0:0:
76,109,63502,2,0,L|140:114,1,65
193,180,63847,2,0,P|189:218|168:250,1,65,8|0,0:0|0:0,0:0:0:0:
256,192,64192,12,2,65916,0:0:0:0:
187,144,66261,6,0,P|166:211|175:277,1,130,2|8,0:0|0:0,0:0:0:0:
222,338,66778,1,2,0:0:0:0:
257,261,66951,2,0,L|331:280,1,65,4|0,0:0|0:0,0:0:0:0:
401,244,67296,6,0,L|471:165,1,90.9999972229005,8|0,0:0|0:0,0:0:0:0:
478,95,67813,1,2,0:0:0:0:
398,115,67985,2,0,L|337:183,1,90.9999972229005,8|0,0:0|0:0,0:0:0:0:
353,352,68675,6,0,P|345:312|324:281,1,65,8|0,0:0|0:0,0:0:0:0:
257,261,69020,2,0,L|171:261,1,65,0|2,0:0|0:0,0:0:0:0:
159,182,69365,2,0,L|94:182,1,65,12|0,0:0|0:0,0:0:0:0:
0,104,69709,6,0,L|65:104,1,65,2|0,0:0|0:0,0:0:0:0:
146,98,70054,6,0,P|205:110|229:135,1,90.9999972229005,8|0,0:0|0:0,0:0:0:0:
159,182,70571,1,2,0:0:0:0:
92,233,70744,2,0,P|127:260|171:265,1,90.9999972229005,8|0,0:0|0:0,0:0:0:0:
257,261,71261,1,0,0:0:0:0:
314,322,71433,6,0,B|343:333|343:333|375:322,2,65,8|0|0,0:0|0:0|0:0,0:0:0:0:
257,261,71950,1,2,0:0:0:0:
304,190,72123,2,0,B|433:148,1,130,8|0,0:0|0:0,0:0:0:0:
239,82,72813,6,0,L|145:112,1,90.9999972229005,8|0,0:0|0:0,0:0:0:0:
71,94,73330,1,2,0:0:0:0:
126,34,73502,2,0,L|212:6,1,90.9999972229005,8|0,0:0|0:0,0:0:0:0:
266,159,74192,6,0,P|312:125|317:108,1,65,8|0,0:0|0:0,0:0:0:0:
286,37,74537,2,0,L|225:95,1,65,0|2,0:0|0:0,0:0:0:0:
179,140,74882,2,0,L|117:197,1,65,8|0,0:0|0:0,0:0:0:0:
21,256,75227,6,0,L|92:256,1,65,4|0,0:0|0:0,0:0:0:0:
168,261,75571,6,0,P|219:262|265:286,1,90.9999972229005,8|0,0:0|0:0,0:0:0:0:
316,334,76089,1,2,0:0:0:0:
240,371,76261,2,0,L|175:371,2,65,8|0|0,0:0|0:0|0:0,0:0:0:0:
317,220,76951,6,0,P|281:200|257:171,1,65,8|0,0:0|0:0,0:0:0:0:
175,90,77296,5,4,0:0:0:0:
173,176,77468,1,2,0:0:0:0:
168,261,77640,2,0,P|163:307|143:331,1,65,8|0,0:0|0:0,0:0:0:0:
41,355,77985,6,0,L|57:292,1,65,2|0,0:0|0:0,0:0:0:0:
94,219,78330,6,0,L|94:118,1,90.9999972229005,8|0,0:0|0:0,0:0:0:0:
51,57,78847,1,2,0:0:0:0:
10,128,79020,2,0,L|10:218,1,90.9999972229005,8|0,0:0|0:0,0:0:0:0:
173,176,79709,6,0,P|183:209|180:245,1,65,8|0,0:0|0:0,0:0:0:0:
157,320,80054,2,0,L|244:320,1,65,0|2,0:0|0:0,0:0:0:0:
269,250,80399,2,0,L|356:250,1,65,8|0,0:0|0:0,0:0:0:0:
446,180,80744,6,0,L|381:180,1,65,4|0,0:0|0:0,0:0:0:0:
299,174,81089,6,0,P|258:153|235:115,1,90.9999972229005,8|0,0:0|0:0,0:0:0:0:
316,90,81606,1,2,0:0:0:0:
396,66,81779,2,0,P|373:27|332:7,1,90.9999972229005,8|0,0:0|0:0,0:0:0:0:
251,30,82296,1,0,0:0:0:0:
169,52,82468,6,0,B|135:62|135:62|109:49,2,65,8|0|0,0:0|0:0|0:0,0:0:0:0:
251,30,82985,1,2,0:0:0:0:
229,112,83158,2,0,B|193:249,1,130,8|0,0:0|0:0,0:0:0:0:
379,168,83847,6,0,L|417:262,1,90.9999972229005,8|0,0:0|0:0,0:0:0:0:
399,333,84365,1,2,0:0:0:0:
332,285,84537,2,0,L|297:200,1,90.9999972229005,8|0,0:0|0:0,0:0:0:0:
135,253,85227,6,0,P|155:211|158:178,1,65,8|0,0:0|0:0,0:0:0:0:
126,114,85571,2,0,L|126:37,1,65,0|2,0:0|0:0,0:0:0:0:
208,30,85916,2,0,L|208:95,1,65,8|0,0:0|0:0,0:0:0:0:
208,95,86261,5,2,0:0:0:0:
164,110,87554,5,0,0:0:0:0:
164,110,87640,2,0,L|86:110,2,65,8|2|0,0:0|0:0|0:0,0:0:0:0:
234,157,88158,6,0,L|312:157,2,65,8|2|0,0:0|0:0|0:0,0:0:0:0:
162,201,88675,6,0,L|97:201,1,65,8|2,0:0|0:0,0:0:0:0:
235,243,89020,6,0,P|260:314|212:375,1,130,4|8,0:0|0:0,0:0:0:0:
155,384,89537,1,8,3:0:0:0:
70,384,89709,2,0,L|4:384,1,65,2|0,3:0|0:0,0:0:0:0:
41,307,90054,2,0,L|106:307,1,65,8|0,0:0|0:0,0:0:0:0:
236,358,90399,6,0,P|293:373|352:328,1,130,2|8,0:0|0:0,0:0:0:0:
377,254,90916,1,8,3:0:0:0:
325,187,91089,2,0,L|325:114,1,65,2|0,3:0|0:0,0:0:0:0:
248,85,91433,2,0,L|248:150,1,65,8|0,0:0|0:0,0:0:0:0:
218,278,91778,6,0,P|161:293|102:248,1,130,2|8,0:0|0:0,0:0:0:0:
65,180,92296,1,8,3:0:0:0:
148,166,92468,2,0,L|213:166,1,65,2|0,3:0|0:0,0:0:0:0:
248,85,92813,2,0,L|173:85,1,65,8|0,0:0|0:0,0:0:0:0:
65,180,93158,6,0,P|40:251|88:312,1,130,2|8,0:0|0:0,0:0:0:0:
124,354,93675,1,8,3:0:0:0:
181,291,93847,2,0,L|261:291,1,65,2|0,3:0|0:0,0:0:0:0:
268,372,94192,2,0,L|203:372,1,65,8|0,0:0|0:0,0:0:0:0:
123,231,94537,6,0,P|181:206|242:235,1,130,2|8,0:0|0:0,0:0:0:0:
297,294,95054,1,8,3:0:0:0:
336,219,95227,2,0,L|336:141,1,65,2|0,3:0|0:0,0:0:0:0:
416,129,95571,2,0,L|416:194,1,65,8|0,0:0|0:0,0:0:0:0:
297,294,95916,6,0,P|239:319|180:294,1,130,2|8,0:0|0:0,0:0:0:0:
123,231,96433,1,8,3:0:0:0:
190,180,96606,2,0,L|271:180,1,65,2|0,3:0|0:0,0:0:0:0:
312,107,96951,2,0,L|247:107,1,65,8|0,0:0|0:0,0:0:0:0:
94,115,97296,6,0,P|85:177|122:229,1,130,2|8,0:0|0:0,0:0:0:0:
190,180,97813,1,8,3:0:0:0:
232,106,97985,2,0,L|232:31,1,65,2|0,3:0|0:0,0:0:0:0:
312,42,98330,2,0,L|312:107,1,65,8|0,0:0|0:0,0:0:0:0:
347,272,98675,6,0,P|383:220|375:157,1,130,2|8,0:0|0:0,0:0:0:0:
312,107,99192,1,2,3:0:0:0:
298,190,99365,1,4,0:0:0:0:
396,80,99537,5,8,0:0:0:0:
396,80,99709,1,8,0:0:0:0:
396,80,99882,1,2,0:0:0:0:
396,80,100054,6,0,P|354:28|291:23,1,130,6|8,0:0|0:0,0:0:0:0:
229,76,100571,1,8,3:0:0:0:
218,159,100744,2,0,L|218:233,1,65,2|0,3:0|0:0,0:0:0:0:
298,255,101089,2,0,L|298:190,1,65,8|0,0:0|0:0,0:0:0:0:
229,76,101433,6,0,P|271:24|334:19,1,130,2|8,0:0|0:0,0:0:0:0:
390,78,101951,1,8,3:0:0:0:
446,142,102123,2,0,L|512:142,1,65,2|0,3:0|0:0,0:0:0:0:
489,224,102468,2,0,L|424:224,1,65,8|0,0:0|0:0,0:0:0:0:
298,138,102813,6,0,P|273:196|297:254,1,130,2|8,0:0|0:0,0:0:0:0:
355,316,103330,1,8,3:0:0:0:
371,233,103502,2,0,L|371:163,1,65,2|0,3:0|0:0,0:0:0:0:
286,166,103847,2,0,L|286:231,1,65,8|0,0:0|0:0,0:0:0:0:
446,258,104192,6,0,P|470:199|445:141,1,130,2|8,0:0|0:0,0:0:0:0:
403,67,104709,1,8,3:0:0:0:
343,7,104882,2,0,L|266:7,1,65,2|0,3:0|0:0,0:0:0:0:
246,85,105227,2,0,L|311:85,1,65,8|0,0:0|0:0,0:0:0:0:
488,87,105571,6,0,P|455:141|393:156,1,130,2|8,0:0|0:0,0:0:0:0:
308,165,106089,1,8,3:0:0:0:
225,183,106261,2,0,L|151:183,1,65,2|0,3:0|0:0,0:0:0:0:
130,262,106606,2,0,L|195:262,1,65,8|0,0:0|0:0,0:0:0:0:
308,165,106951,6,0,P|259:104|204:100,1,130,2|8,0:0|0:0,0:0:0:0:
137,140,107468,1,8,3:0:0:0:
68,90,107640,2,0,L|-2:90,1,65,2|0,3:0|0:0,0:0:0:0:
0,174,107985,2,0,L|65:174,1,65,8|0,0:0|0:0,0:0:0:0:
185,261,108330,6,0,P|158:332|130:262,1,195,2|0,0:0|0:0,0:0:0:0:
