osu file format v14

[General]
AudioFilename: audio.mp3
AudioLeadIn: 0
PreviewTime: 88502
Countdown: 0
SampleSet: Soft
StackLeniency: 0.7
Mode: 0
LetterboxInBreaks: 0
WidescreenStoryboard: 1

[Editor]
DistanceSpacing: 1
BeatDivisor: 4
GridSize: 4
TimelineZoom: 2.1

[Metadata]
Title:Come Back Down
TitleUnicode:Come Back Down
Artist:Mediks
ArtistUnicode:Mediks
Creator:[Kamiya]
Version:Easy
Source:
Tags:Oiso papapa213 Emilia remix
BeatmapID:1357082
BeatmapSetID:639013

[Difficulty]
HPDrainRate:2
CircleSize:3
OverallDifficulty:3
ApproachRate:4
SliderMultiplier:0.800000005960464
SliderTickRate:1

[Events]
//Background and Video events
0,0,"bg.jpg",0,0
//Break Periods
//Storyboard Layer 0 (Background)
//Storyboard Layer 1 (Fail)
//Storyboard Layer 2 (Pass)
//Storyboard Layer 3 (Foreground)
//Storyboard Sound Samples

[TimingPoints]
-635,344.827586206897,4,2,0,50,1,0
54,-100,4,2,0,50,0,0
22812,-100,4,2,8,60,0,0
42122,-100,4,2,8,70,0,0
44537,-100,4,2,8,70,0,0
44882,-100,4,2,8,70,0,0
66951,-100,4,2,8,70,0,0
77467,-100,4,2,8,50,0,0
77985,-100,4,2,8,70,0,0
89020,-100,4,2,8,85,0,1
108330,-100,4,2,0,70,0,0
111089,-100,4,2,0,5,0,0

[Colours]
Combo1 : 255,255,111
Combo2 : 128,0,128
Combo3 : 49,141,255
Combo4 : 242,24,57

[HitObjects]
256,36,744,5,2,0:0:0:0:
256,64,3502,5,2,0:0:0:0:
256,96,6261,5,2,0:0:0:0:
256,132,9020,5,2,0:0:0:0:
28,356,10399,1,2,0:0:0:0:
328,248,11778,6,0,B|408:248|408:248|456:160|456:160|304:160,1,320.000002384186,2|0,0:0|0:0,0:0:0:0:
156,160,13847,1,0,0:0:0:0:
72,296,14537,6,0,B|72:216|72:216|156:160|156:160|156:304,1,320.000002384186,2|0,0:0|0:0,0:0:0:0:
308,348,16606,1,0,0:0:0:0:
368,200,17296,6,0,B|368:96|368:96|268:36|268:36|268:144,1,320.000002384186,2|0,0:0|0:0,0:0:0:0:
240,292,19365,1,0,0:0:0:0:
368,200,20054,5,2,0:0:0:0:
80,64,21433,1,2,0:0:0:0:
208,356,22813,6,0,L|252:192,1,160.000001192093,2|0,0:0|0:0,0:0:0:0:
276,124,23847,1,0,0:0:0:0:
356,124,24192,2,0,B|388:176|388:176|360:276,1,160.000001192093,2|0,0:0|0:0,0:0:0:0:
324,344,25227,1,0,0:0:0:0:
252,312,25571,2,0,B|176:288|176:288|88:316,1,160.000001192093,2|0,0:0|0:0,0:0:0:0:
24,340,26606,1,0,0:0:0:0:
16,260,26951,6,0,B|16:164|16:164|56:100,1,160.000001192093,2|0,0:0|0:0,0:0:0:0:
96,44,27985,1,2,0:0:0:0:
160,92,28330,2,0,B|232:124|232:124|308:92,1,160.000001192093,2|0,0:0|0:0,0:0:0:0:
376,48,29365,1,0,0:0:0:0:
440,96,29709,2,0,B|420:180|420:180|440:256,1,160.000001192093,2|0,0:0|0:0,0:0:0:0:
472,324,30744,1,2,0:0:0:0:
392,320,31089,6,0,L|224:292,1,160.000001192093,2|0,0:0|0:0,0:0:0:0:
160,328,32123,1,0,0:0:0:0:
132,252,32468,6,0,B|104:176|104:176|128:92,2,160.000001192093,2|0|2,0:0|0:0|0:0,0:0:0:0:
160,328,34192,1,0,0:0:0:0:
234,293,34537,2,0,L|254:205,1,80.0000005960464
244,136,35227,5,2,0:0:0:0:
320,108,35571,1,0,0:0:0:0:
400,124,35916,2,0,P|412:172|396:216,1,80.0000005960464,0|0,0:0|0:0,0:0:0:0:
400,280,36606,5,2,0:0:0:0:
332,236,36951,1,0,0:0:0:0:
264,192,37296,2,0,L|180:192,1,80.0000005960464,0|0,0:0|0:0,0:0:0:0:
116,236,37985,5,2,0:0:0:0:
68,172,38330,1,0,0:0:0:0:
92,96,38675,2,0,P|132:84|176:96,1,80.0000005960464,0|0,0:0|0:0,0:0:0:0:
248,76,39365,6,2,L|284:160,1,80.0000005960464
352,120,40054,2,2,L|388:204,1,80.0000005960464
372,272,40744,6,2,L|292:272,1,80.0000005960464
284,352,41433,2,2,L|204:352,1,80.0000005960464
124,352,42123,1,4,0:0:0:0:
256,192,42468,12,0,43847,0:0:0:0:
72,104,44882,6,0,P|112:112|164:100,1,80.0000005960464,2|8,0:0|0:0,0:0:0:0:
220,68,45571,2,0,P|260:60|312:72,1,80.0000005960464,0|8,0:0|0:0,0:0:0:0:
376,84,46261,2,0,L|336:244,1,160.000001192093,2|0,0:0|0:0,0:0:0:0:
308,316,47296,1,8,0:0:0:0:
232,288,47640,6,0,B|148:264|148:264|72:284,2,160.000001192093,2|0|2,0:0|0:0|0:0,0:0:0:0:
308,316,49365,1,8,0:0:0:0:
388,332,49709,2,0,P|424:340|468:332,1,80.0000005960464,2|8,0:0|0:0,0:0:0:0:
432,260,50399,6,0,P|392:252|352:256,1,80.0000005960464,2|8,0:0|0:0,0:0:0:0:
276,280,51089,2,0,P|236:288|192:280,1,80.0000005960464,0|8,0:0|0:0,0:0:0:0:
120,256,51778,2,0,L|92:88,1,160.000001192093,2|0,0:0|0:0,0:0:0:0:
72,20,52813,1,8,0:0:0:0:
148,40,53158,2,0,B|224:64|224:64|308:40,1,160.000001192093,2|0,0:0|0:0,0:0:0:0:
380,24,54192,1,8,0:0:0:0:
440,76,54537,6,0,L|456:168,1,80.0000005960464,2|8,0:0|0:0,0:0:0:0:
444,236,55227,1,2,0:0:0:0:
364,252,55571,1,8,0:0:0:0:
300,204,55916,6,0,P|260:196|216:204,1,80.0000005960464,2|8,0:0|0:0,0:0:0:0:
144,224,56606,2,0,P|96:232|64:228,1,80.0000005960464,0|8,0:0|0:0,0:0:0:0:
32,156,57296,2,0,B|76:112|76:112|184:112,1,160.000001192093,2|0,0:0|0:0,0:0:0:0:
248,140,58330,1,8,0:0:0:0:
300,76,58675,6,0,B|352:108|352:108|352:216,2,160.000001192093,2|0|2,0:0|0:0|0:0,0:0:0:0:
228,40,60399,1,8,0:0:0:0:
160,80,60744,2,0,L|160:168,1,80.0000005960464,0|8,0:0|0:0,0:0:0:0:
184,236,61433,6,0,P|220:244|264:236,1,80.0000005960464,2|8,0:0|0:0,0:0:0:0:
336,204,62123,2,0,P|376:196|416:204,1,80.0000005960464,0|8,0:0|0:0,0:0:0:0:
452,276,62813,2,0,B|408:324|408:324|308:324,1,160.000001192093,2|2,0:0|0:0,0:0:0:0:
232,324,63847,1,8,0:0:0:0:
256,192,64192,12,0,65916,0:0:0:0:
64,68,66951,6,0,L|92:144,1,80.0000005960464,2|8,0:0|0:0,0:0:0:0:
168,124,67640,2,0,L|196:200,1,80.0000005960464,0|8,0:0|0:0,0:0:0:0:
172,276,68330,2,0,P|248:304|324:268,1,160.000001192093,2|0,0:0|0:0,0:0:0:0:
380,224,69365,1,8,0:0:0:0:
428,160,69709,6,0,L|400:84,1,80.0000005960464,2|8,0:0|0:0,0:0:0:0:
324,108,70399,2,0,L|296:32,1,80.0000005960464,0|8,0:0|0:0,0:0:0:0:
216,32,71089,6,0,P|136:56|108:128,1,160.000001192093,2|0,0:0|0:0,0:0:0:0:
132,200,72123,1,8,0:0:0:0:
188,144,72468,6,0,L|280:144,1,80.0000005960464,2|8,0:0|0:0,0:0:0:0:
288,220,73158,2,0,L|368:220,1,80.0000005960464,0|8,0:0|0:0,0:0:0:0:
448,220,73847,6,0,P|460:264|448:304,1,80.0000005960464,2|8,0:0|0:0,0:0:0:0:
388,344,74537,2,0,P|344:356|296:344,1,80.0000005960464,0|8,0:0|0:0,0:0:0:0:
240,312,75227,6,0,L|104:216,1,160.000001192093,2|0,0:0|0:0,0:0:0:0:
48,168,76261,1,8,0:0:0:0:
88,100,76606,6,0,P|128:92|168:100,1,80.0000005960464,2|8,0:0|0:0,0:0:0:0:
232,144,77296,1,2,0:0:0:0:
276,208,77640,1,8,0:0:0:0:
344,164,77985,6,0,L|416:116,1,80.0000005960464,2|8,0:0|0:0,0:0:0:0:
368,52,78675,2,0,L|301:96,1,80.0000005960464,0|8,0:0|0:0,0:0:0:0:
244,156,79365,2,0,P|176:184|92:152,1,160.000001192093,2|0,0:0|0:0,0:0:0:0:
44,96,80399,1,8,0:0:0:0:
96,36,80744,6,0,L|184:36,1,80.0000005960464,2|8,0:0|0:0,0:0:0:0:
248,72,81433,2,0,L|336:72,1,80.0000005960464,0|8,0:0|0:0,0:0:0:0:
396,32,82123,2,0,P|432:100|396:176,1,160.000001192093,2|0,0:0|0:0,0:0:0:0:
336,216,83158,1,8,0:0:0:0:
264,180,83502,6,0,P|216:172|184:176,1,80.0000005960464,2|8,0:0|0:0,0:0:0:0:
116,216,84192,2,0,P|68:224|36:220,1,80.0000005960464,0|8,0:0|0:0,0:0:0:0:
36,140,84882,6,0,L|36:48,1,80.0000005960464,2|8,0:0|0:0,0:0:0:0:
116,56,85571,2,0,L|116:136,1,80.0000005960464,0|8,0:0|0:0,0:0:0:0:
256,192,86261,12,0,87985,0:0:0:0:
104,80,89020,5,2,0:0:0:0:
176,40,89365,2,0,B|232:72|232:72|232:172,1,160.000001192093,8|8,0:0|0:0,0:0:0:0:
228,248,90399,6,0,P|268:256|312:248,1,80.0000005960464,2|8,0:0|0:0,0:0:0:0:
360,188,91089,2,0,P|400:180|444:188,1,80.0000005960464,2|8,3:0|0:0,0:0:0:0:
472,260,91778,5,2,0:0:0:0:
416,320,92123,2,0,B|372:352|372:352|256:352,1,160.000001192093,8|8,0:0|0:0,0:0:0:0:
216,288,93158,6,0,P|168:280|136:288,1,80.0000005960464,2|8,0:0|0:0,0:0:0:0:
72,332,93847,2,0,P|60:288|68:244,1,80.0000005960464,2|8,3:0|0:0,0:0:0:0:
88,176,94537,5,2,0:0:0:0:
164,200,94882,2,0,B|212:168|212:168|212:60,1,160.000001192093,8|8,0:0|0:0,0:0:0:0:
140,36,95916,6,0,P|104:72|88:104,1,80.0000005960464,2|8,0:0|0:0,0:0:0:0:
20,140,96606,2,0,P|16:184|20:232,1,80.0000005960464,2|8,3:0|0:0,0:0:0:0:
72,280,97296,5,2,0:0:0:0:
128,224,97640,2,0,B|168:184|168:184|284:184,1,160.000001192093,8|8,0:0|0:0,0:0:0:0:
320,248,98675,6,0,P|364:252|408:244,1,80.0000005960464,2|8,0:0|0:0,0:0:0:0:
468,208,99365,1,6,0:0:0:0:
472,128,99709,1,8,0:0:0:0:
416,72,100054,5,6,0:0:0:0:
336,72,100399,2,0,B|288:44|288:44|176:44,1,160.000001192093,8|8,0:0|0:0,0:0:0:0:
156,120,101433,6,0,P|112:128|76:120,1,80.0000005960464,2|8,0:0|0:0,0:0:0:0:
8,84,102123,2,0,P|0:124|20:176,1,80.0000005960464,2|8,3:0|0:0,0:0:0:0:
68,216,102813,5,2,0:0:0:0:
148,216,103158,2,0,B|212:216|212:216|280:296,1,160.000001192093,8|8,0:0|0:0,0:0:0:0:
336,340,104192,6,0,P|380:352|416:340,1,80.0000005960464,2|8,0:0|0:0,0:0:0:0:
452,272,104882,2,0,P|412:260|372:272,1,80.0000005960464,2|8,3:0|0:0,0:0:0:0:
336,340,105571,5,2,0:0:0:0:
256,340,105916,2,0,B|204:296|204:296|204:200,1,160.000001192093,8|8,0:0|0:0,0:0:0:0:
280,176,106951,6,0,P|288:220|280:264,1,80.0000005960464,2|8,0:0|0:0,0:0:0:0:
364,260,107640,2,0,P|368:208|360:168,1,80.0000005960464,0|8,0:0|0:0,0:0:0:0:
328,108,108330,5,4,3:0:0:0:
256,192,108502,12,0,111089,0:0:0:0:
